<?xml version="1.0" standalone="no"?>
<!DOCTYPE svg PUBLIC "-//W3C//DTD SVG 1.1//EN" "http://www.w3.org/Graphics/SVG/1.1/DTD/svg11.dtd" >
<svg xmlns="http://www.w3.org/2000/svg" xmlns:xlink="http://www.w3.org/1999/xlink" version="1.1">
<metadata>
Created by FontForge 20170731 at Sat Apr  1 14:51:20 2000
 By Aleksey,,,
Copyright (c) Typographer Mediengestaltung, 2000. All rights reserved.
</metadata>
<defs>
<font id="CaslonAntique" horiz-adv-x="500" >
  <font-face 
    font-family="Caslon Antique"
    font-weight="400"
    font-stretch="normal"
    units-per-em="1000"
    panose-1="2 0 5 3 0 0 0 0 0 0"
    ascent="800"
    descent="-200"
    x-height="357"
    cap-height="672"
    bbox="-187 -312 828 887"
    underline-thickness="42"
    underline-position="-193"
    unicode-range="U+0020-FFFD"
  />
<missing-glyph 
d="M63 0v887h375v-887h-375zM125 63h250v761h-250v-761z" />
    <glyph glyph-name=".notdef" unicode="&#xfffd;" 
d="M63 0v887h375v-887h-375zM125 63h250v761h-250v-761z" />
    <glyph glyph-name=".null" horiz-adv-x="0" 
 />
    <glyph glyph-name="nonmarkingreturn" horiz-adv-x="333" 
 />
    <glyph glyph-name="space" unicode=" " horiz-adv-x="325" 
 />
    <glyph glyph-name="exclam" unicode="!" horiz-adv-x="214" 
d="M89 200v24q0 8 -3 32q-1 9 -2.5 26t-2.5 24q-1 34 -6 81q-2 13 -11 37q-4 12 -5 77q-1 44 -9 100v8q0 21 9 48q7 22 32 25q21 4 29 4q45 0 45 -91q0 -6 -4 -50q-6 -56 -11 -85v-35l-8 -60q-1 -10 -8 -51q0 -1 -2 -21l-4 -74q0 -5 -1 -12.5t-1 -12.5l-1 -5q0 -2 0.5 -10.5
t0.5 -11.5q0 -12 -14 -12q-18 0 -22 13q-1 2 -1 32zM94 92q7 0 28 -10q25 -11 27 -14q8 -8 8 -28q0 -23 -11 -34q-13 -13 -45 -13q-10 0 -33 20q-11 11 -11 32q0 47 37 47z" />
    <glyph glyph-name="quotedbl" unicode="&#x22;" horiz-adv-x="336" 
d="M90 683q24 0 38 -29q11 -26 10 -29l-9 -40l-2 -15q-10 -25 -12 -35q-1 -7 -1 -22t-1 -23q-3 -33 -17 -33q-30 0 -30 83q0 3 -5 16q-13 27 -13 51q0 13 5 25q1 15 5 22q17 29 32 29zM262 690q20 0 36 -33q2 -3 3 -18q4 -9 4 -16q0 -29 -12 -60q-5 -13 -9 -36
q-10 -64 -24 -64q-7 0 -20 10q-7 4 -7 13q0 4 0.5 14.5t0.5 12.5q0 7 -5 42q-2 20 -12 62q-1 2 -1 8q0 13 10 36l6 17q8 12 30 12z" />
    <glyph glyph-name="numbersign" unicode="#" horiz-adv-x="520" 
d="M447 275q27 0 27 -15q0 -9 -3 -27q-1 -13 -8 -15q-8 -3 -58 -4q-41 -1 -54 -11q-11 -16 -11 -35l1 -23q0 -5 -7 -26q-3 -12 -6 -46q-2 -30 -21 -30q-2 0 -17 3l-12 -1q-11 0 -11 11l1 9q4 40 9 55q1 4 3 19q1 4 5 26q6 22 6 29t-13 11q-10 3 -12 3l-33 -1h-25
q-16 -2 -20 -11q-4 -5 -7 -24q-7 -26 -9 -30q0 -8 -1 -17l-2 -13q0 -6 -1.5 -18.5t-2.5 -19.5q-7 -31 -26 -31q-22 0 -31 6q-4 4 -4 15q0 12 4 39q2 12 3 16q2 14 4 22q7 21 7 35q0 17 -4 25.5t-12 7.5h-9l-52 -4h-5q-28 0 -30 14v13q0 26 14 31q8 0 17 1l24 3l26 -1
q34 0 45 11q8 10 10 52q0 13 6 33q2 8 2 15q0 19 -15 19h-5l-45 -2q-4 0 -7.5 -0.5t-5.5 -1t-3 -0.5q-32 0 -32 12q0 35 7 42q4 4 26 5l25 2q8 1 25.5 1.5t26.5 0.5q29 5 28 42v25q0 4 6 26q3 12 6 46q3 30 21 30q4 0 17 -3l13 1q11 0 10 -11l-1 -9q-5 -47 -8 -56
q-2 -7 -5 -29l-3 -15q-6 -23 -6 -29q0 -7 12 -12q11 -3 12 -3l33 2q12 0 38 2q3 0 9 8q3 8 6 24q8 29 8 30t0.5 3.5t1 6t0.5 7.5l2 14q1 15 3 38q8 30 27 30q21 0 30 -6q5 -3 5 -14q0 -2 -5 -39q-2 -12 -3 -17q0 -2 -1 -5.5t-2.5 -10.5t-2.5 -12q-5 -20 -5 -28q0 -33 17 -33
q2 0 11 0.5t12 0.5q7 0 15 0.5t13 1t9 0.5q3 1 6 1q24 0 30 -6q3 -3 3 -22q0 -26 -18 -30h-2q-2 -1 -6 -1.5t-8 -0.5l-25 -2q-13 0 -51 -2q-19 -3 -24 -15q-1 -5 -3 -16l-1 -6q0 -16 -8 -56q-2 -8 -2 -15q0 -10 4 -15t11 -4h9q7 1 20.5 1.5t20.5 0.5q16 2 17 2zM296 395
l-30 -2q-24 0 -37 -1q-5 -2 -9 -9q-4 -5 -7 -24q-2 -8 -4 -15t-3 -11t-1 -5q0 -7 -1 -16q0 -3 -1 -8.5t-1.5 -9.5t-0.5 -5q0 -15 9 -16q1 0 2.5 -0.5t4.5 -1t6 -0.5l30 2q6 1 19 1.5t19 0.5q5 2 8 8q4 7 7 25q7 24 7 29q0 1 2 17q1 3 1.5 8t0.5 8q1 4 1 8q0 14 -10 15
q-2 1 -6 1.5t-6 0.5z" />
    <glyph glyph-name="dollar" unicode="$" horiz-adv-x="469" 
d="M61 246q2 0 8 -2q2 -4 5 -12l5 -11l8 -30l7 -16l9 -23l15 -22q8 -21 21 -39q3 -6 24 -20q19 -13 27 -13t14 19q5 15 5 18v29l3 30q0 2 -0.5 6.5t-1 12.5t-0.5 16q-1 4 -1 9q0 4 1 7q2 26 2 28q0 45 -11 65q-1 2 -25 17l-14 12l-31 10l-8 6q-15 11 -36 37q-15 30 -24 49
q-3 6 -6 26q-6 23 -6 31q0 14 6 48q0 2 10 25q36 73 118 91l13 3q24 6 24 8l-5 55q0 9 22 9q9 0 13.5 -3t3.5 -9v-11l-1 -18l-4 -20q0 -10 23 -12l16 -2l52 -20l41 -10q3 -1 7 -7q3 -5 3 -49l2 -14l1 -31v-12q1 -7 1.5 -21.5t0.5 -22.5q1 -4 1 -10q0 -13 -16 -13
q-9 0 -13 18q-1 3 -6 15t-8 21l-19 31q-11 33 -15 39q-2 2 -27 18l-29 19q-6 0 -8 -12q-3 -12 -6 -23l-1 -25l-1 -12l1 -35q0 -24 -1 -39l-2 -34q-1 -18 13 -32q9 -9 40 -28l41 -14q4 -1 9 -6q2 -1 28 -39l18 -26l7 -18q8 -20 9 -28q11 -29 11 -50q0 -25 -18 -55
q-2 -3 -9 -17t-13 -24q-8 -12 -11 -19q-1 0 -3 -1.5t-5 -4t-6 -4.5q-27 -18 -35 -21q-28 -13 -46 -15q-35 -6 -35 -27q0 -9 4 -26v-3l-1 -2q0 -2 -0.5 -6t-0.5 -8l-1 -9l2 -35q0 -11 -16 -11q-9 0 -19 10q-3 3 -3 21q-3 13 -3 17q0 3 5 28q0 3 -1.5 12t-1.5 11q-1 17 -10 27
q-4 2 -27 5q-2 0 -29 12q-4 2 -73 24q-26 8 -26 23q0 3 2 19v4v5l-4 40v4q1 4 2.5 13t2.5 18l-2 26l2 12q2 16 3 17q4 6 13 6zM193 621q-1 0 -42 -24q-6 -4 -17 -31q-10 -24 -10 -37q0 -22 17 -51q1 -1 7 -14q8 -13 9 -14l28 -18q13 -9 15 -9q17 0 17 47q0 7 -3 25l1 10
l-1 19l6 65q0 32 -27 32zM261 273q-14 0 -14 -23q0 -2 1 -11.5t1 -12.5q0 -2 -3 -22v-8v-48q-3 -22 -3 -30t1 -14q1 -11 0.5 -17.5t0 -12.5t1.5 -12q3 -15 9 -12l19 9q12 5 30 15q20 16 33 51q6 13 6 39q0 51 -48 86q-28 21 -34 23z" />
    <glyph glyph-name="percent" unicode="%" horiz-adv-x="574" 
d="M144 679q27 0 41 -8q54 -32 61 -86q3 -21 6 -32l2 -11l1 -6q0 -3 1.5 -16t1.5 -17q0 -7 -3 -20l-1 -11l-5 -44q-4 -31 -17 -50q-20 -30 -38 -43q-22 -15 -54 -15q-40 0 -85 42q-12 12 -18 36q-6 20 -6 22l1 30q0 5 -2 27l2 18q1 5 1.5 17t0.5 18l2 13l5 19q5 31 21 59
q19 35 33 43q25 15 49 15zM90 534v-7q0 -9 1 -13v-5l-3 -37l1 -15l-1 -20q1 -19 3 -25q12 -43 34 -50q9 -3 23 -3q38 0 40 53q0 4 2 17t3 22q3 29 3 32q0 9 -1 20l1 19l-1 15l-1 46q-1 3 -3.5 11.5t-3.5 12.5q-9 34 -43 34q-33 0 -43 -19q-5 -10 -7 -39l-2 -9v-13zM477 684
q23 0 23 -16q0 -6 -3 -12l-65 -111q-9 -19 -15 -33q-4 -9 -23 -36q-4 -5 -52 -90q-8 -16 -9 -17l-14 -17q-3 -3 -11 -22q-2 -5 -9 -19q-31 -60 -42 -87q-7 -17 -16 -26l-30 -33l-5 -14l-2 -3q-1 -3 -4.5 -10t-7.5 -14q-3 -7 -14 -20q-5 -6 -10 -21q-1 -2 -31 -42
q-31 -52 -34 -55t-12 -3q-28 0 -28 16q0 3 6 10q5 10 12 23q3 4 23 40q3 7 28 38l14 27l29 51l6 12l11 18q14 22 24 33q16 17 35 66q6 13 20 32l12 25l25 38l17 32q29 46 33 54q1 1 5 9.5l12 25.5t17 36l2 2q1 2 3.5 6.5t5.5 8.5q9 16 27 49q16 30 27 41q6 8 20 8zM431 347
q25 0 41 -8q52 -30 61 -86q3 -21 6 -32l2 -11l1 -6q0 -2 1 -15t1 -17q0 -3 -2 -21l-1 -10l-6 -45q-6 -45 -39 -80q-28 -27 -70 -27q-40 0 -84 42q-11 10 -19 35q-5 22 -5 23v30q0 16 -1 27v2q0 3 0.5 7t0.5 9q2 14 3 34l1 13l6 19q5 32 20 59q22 37 34 44q26 14 49 14z
M377 203v-7v-14q1 -1 1 -5l-3 -36v-16v-20q0 -19 3 -24q12 -44 34 -51q9 -3 23 -3q18 0 30 16q8 11 10 37q0 1 0.5 3t1 5t0.5 6q2 6 3 25q3 29 3 33q0 8 -1 19l1 20l-2 15v45q-1 3 -4 11.5t-4 13.5q-7 33 -42 33q-32 0 -44 -19q-5 -10 -7 -39l-2 -9l1 -13z" />
    <glyph glyph-name="ampersand" unicode="&#x26;" horiz-adv-x="567" 
d="M322 602q-2 2 -3 12q-3 25 -31 25q-20 0 -33 -16q-22 -23 -22 -50q0 -1 0.5 -6t0.5 -6l-1 -28q0 -5 20 -37q18 -26 26 -32q11 -8 42 -18q2 -2 2 -4q0 -5 -8 -5q-4 0 -17 0.5t-30 1.5h-9q-23 2 -56 -30q-42 -25 -48 -114q-8 -26 -8 -31q0 -9 1 -14q0 -4 7 -24q4 -11 4 -19
q-3 -27 -3 -29q0 -15 8 -53q4 -22 10 -41q8 -18 15 -25q23 -23 36 -29q12 -5 37 -8q24 -6 30 -6q10 0 44 10q3 1 11.5 3.5t13.5 4.5q6 4 17 19q1 2 3 3.5t4 3.5l3 3q19 19 26 31q22 38 20 59l-1 13q-3 40 -5 51q-6 29 -22 42q-7 6 -10 6q-8 0 -21 -16q-9 -10 -19 -10
q-14 0 -22 17q-7 14 -7 30q0 30 19 49q2 1 5 4t8.5 7t9.5 8q25 20 34 25q11 4 47 8l38 12l27 6q1 0 20 10q6 2 7 2q7 0 7 -5q0 -4 -27 -23l-18 -19l-21 -16q-15 -15 -21 -19l-10 -3l-18 -6q-5 -2 -5 -10t7 -15q6 -5 18 -14q32 -26 32 -87q5 -25 5 -34q0 -31 -2 -45
q-5 -18 -24 -42q-5 -7 -14 -23q-15 -27 -28 -37q-17 -12 -29 -15l-18 -4q-60 -19 -117 -19q-26 0 -36 2q-1 1 -14 6q-43 17 -87 60q-7 7 -31 24q-10 3 -26 30q-1 6 -12 33q-4 9 -13 36q0 1 -2 31l-1 32q1 -4 2 4q0 7 2 27q1 34 26 89q15 35 36 51l27 21q12 7 37 16
q12 5 12 13q0 11 -10 27q-13 21 -14 27q-7 22 -7 39q0 23 14 57q7 19 17 32q18 20 53 38q19 10 44 10q96 0 96 -85q0 -47 -29 -47q-11 0 -18 13q-5 12 -4 22v8z" />
    <glyph glyph-name="quotesingle" unicode="'" horiz-adv-x="168" 
d="M89 689q10 0 22 -13.5t12 -23.5l1 -14q4 -9 4 -13v-6q0 -25 -12 -56q-4 -11 -9 -36q-10 -64 -25 -64q-5 0 -13.5 6.5t-8.5 10.5l3 66q0 2 -4 9q-9 17 -9 22l-2 14l-8 41q0 8 9 29q13 28 40 28z" />
    <glyph glyph-name="parenleft" unicode="(" horiz-adv-x="293" 
d="M151 603q6 2 19 24l9 12l7 7q1 1 4 5t8.5 12.5t10.5 16.5q11 17 21 17q7 0 7 -8q0 -4 -16 -29q-7 -12 -22 -39l-10 -28l-6 -13l-8 -25q-10 -33 -10 -48v-27q0 -4 -2.5 -17t-4.5 -23l-3 -14q-5 -30 -7 -55l-2 -20q0 -3 1 -7q1 -5 1 -15l1 -17l2 -22q0 -4 -3 -26
q-1 -5 -1 -13l5 -42q0 -32 1 -68q1 -44 18 -85q4 -10 6 -16q9 -34 13 -40l14 -22q5 -11 17 -29q9 -13 9 -19q0 -9 -8 -9q-10 0 -31 29q-17 24 -30 48q-39 36 -51 90q-2 11 -21 59l-7 27q-6 15 -16 54q-4 20 -4 41q0 4 4 24q2 50 7 111q2 4 21 76l9 32q14 26 34 71
q8 18 14 20z" />
    <glyph glyph-name="parenright" unicode=")" horiz-adv-x="298" 
d="M82 697q10 0 27 -32q7 -15 22 -32l17 -26q11 -15 21 -31l19 -53q6 -8 19 -33q3 -6 5 -18l4 -29l15 -63l1 -34l4 -23q0 -5 -1 -10l-2 -9q-1 -7 -2 -17t-2 -17.5t-1 -12.5q-3 -17 -4 -42q0 -11 -10 -41q-4 -20 -15 -42l-5 -11l-7 -15q-13 -33 -22 -51q-23 -40 -34 -53
q-6 -6 -27 -35l-13 -15q-22 -28 -33 -28q-3 0 -3 1q0 6 16 25q11 13 33 73q18 38 20 46q7 20 7 34q1 1 3 14q3 10 8 49l2 14l1 22l1 11l1 28l4 40q0 2 -5 50q0 3 2 25q1 7 1.5 13t1 10t1 7t0.5 4v1l-5 35l-1 13l-6 43q0 2 0.5 12t0.5 12q0 8 -9 40q-2 12 -16 56q-1 3 -13 36
q-3 9 -19 28q-14 17 -14 22q0 9 12 9z" />
    <glyph glyph-name="asterisk" unicode="*" horiz-adv-x="368" 
d="M75 618q6 0 20 -8l9 -4l9 -7l17 -5q20 -11 24 -11q6 0 6 6l-3 14q3 23 3 25t-6 28q-1 3 -1 9q0 20 17 26q9 4 17 4q7 0 15 -12l6 -26l-1 -15l-1 -40q0 -20 18 -20q16 0 44 22q4 2 19 2q15 5 17 5q16 0 16 -41q0 -13 -13 -19l-22 -2l-25 -7l-15 1q-17 0 -17 -20
q0 -4 10 -17l8 -10l8 -10l6 -12q11 -9 13 -14q5 -8 5 -21q0 -11 -7 -18q-16 -13 -24 -13q-13 0 -32 37l-7 13l-3 12l-10 24q-3 7 -8 7t-20 -19q-1 -1 -3.5 -4.5t-4.5 -6.5q0 -1 -1.5 -4.5t-4 -11.5t-4.5 -16q-1 -3 -17 -13q-7 -4 -17 -4q-9 0 -19 10.5t-10 19.5q0 8 11 22
l8 13l10 9l10 12q15 14 15 24q0 5 -9 8q-26 5 -56 17l-11 3q-7 2 -10.5 5t-2.5 7l2 14q2 14 3 22q4 10 19 10z" />
    <glyph glyph-name="plus" unicode="+" horiz-adv-x="461" 
d="M70 363q1 0 5.5 -0.5t14 -1t20.5 -0.5l40 3q2 0 4 -1q18 -5 24 -5q11 0 16 4t4 11v28q3 25 3 28q-2 10 -2 19v14l-4 37q0 31 22 31q32 0 37 -14q3 -10 3 -45q0 -2 1 -12.5t1 -14.5q0 -6 -1 -11q-2 -18 -2 -21q0 -20 8 -39q5 -8 15 -8q9 0 23 1q5 1 11 1q3 0 12 -1t12 -1
q6 0 21 2t19 2q6 0 22 -2q17 -3 17 -22q0 -31 -13 -34q-6 0 -16 -1q-35 -3 -36 -3h-2h-4t-6 0.5t-8 0.5h-15q-45 0 -54 -11q-7 -7 -7 -21q0 -3 5 -31q2 -10 2 -13q0 -2 -1.5 -13.5t-1.5 -15.5q0 -5 3 -36v-13q0 -17 -16 -17q-4 0 -17 3l-13 -1q-12 0 -14 20q0 2 -2 20
q-1 6 -1 13t3 22q1 5 1 10q0 9 -1 20l-1 8q0 3 1 6q2 24 2 25q0 13 -16 17q-10 3 -15 2l-30 -2h-33l-20 -4q-2 1 -6.5 1.5t-6.5 0.5l-12 2q-9 2 -13.5 5.5t-3.5 9.5v15l-3 20q0 13 25 13z" />
    <glyph glyph-name="comma" unicode="," horiz-adv-x="198" 
d="M107 92q19 -2 29 -21q3 -8 9 -22l9 -22q1 -4 1 -24q0 -3 -3 -21q-7 -35 -33 -55q-14 -12 -19 -13q-24 -8 -52 -8q-7 0 -7 7q0 6 6 15q3 3 30 23q3 2 6.5 13.5t3.5 15.5q0 21 -21 34q-13 7 -15 11q-4 4 -4 13q0 27 19 40q7 4 41 14z" />
    <glyph glyph-name="hyphen" unicode="-" horiz-adv-x="198" 
d="M15 226l20 -1h17l17 -2q6 0 18 4q3 1 8 1q6 0 22.5 -1.5t20.5 -1.5t18 2t18 2q14 0 23 -12q4 -4 4 -8q0 -1 -5 -16q-2 -27 -3 -28q-5 -8 -10 -8q-3 0 -16.5 2.5t-17.5 2.5q-13 0 -27 -3q-1 -1 -3 -1t-3 -1l-28 4l-19 -3q-4 0 -7.5 0.5t-5.5 1t-3 0.5l-20 -3l-12 -1
q-2 -1 -8 -1q-7 0 -12 8q-1 2 -1 4l3 26l3 27q2 4 9 6z" />
    <glyph glyph-name="period" unicode="." horiz-adv-x="200" 
d="M86 92q7 0 28 -10q25 -11 28 -14q7 -7 7 -28q0 -24 -10 -34q-13 -13 -45 -13q-10 0 -33 20q-12 11 -12 31q0 48 37 48z" />
    <glyph glyph-name="slash" unicode="/" horiz-adv-x="428" 
d="M392 698q20 0 20 -14q0 -8 -3 -13l-16 -32q-2 -4 -8.5 -17.5t-10.5 -22.5q-21 -37 -22 -43l-9 -31q-2 -6 -33 -59q-20 -40 -60 -117q-4 -5 -16 -34q-17 -41 -20 -43q-4 -8 -16 -28l-6 -23q-1 -5 -12 -25l-12 -20l-13 -14q-1 -1 -13 -38q-6 -14 -22 -34l-8 -24
q-30 -42 -34 -51q-14 -35 -20 -41q-4 -4 -20 -4q-13 0 -19 8q-2 2 -2 4q0 5 6 14q5 8 18 33l9 17l9 24q14 19 24 38l12 29l28 54q10 25 26 58q7 13 17 28q16 24 17 28l10 27q7 12 15 30q15 32 32 65q15 27 31 52l6 18l21 43q12 43 15 47q1 1 15 24q1 1 7 15t10 23q5 6 9 15
q10 23 17.5 28.5t20.5 5.5z" />
    <glyph glyph-name="zero" unicode="0" horiz-adv-x="461" 
d="M223 689l40 -2q32 -4 69 -43l7 -8q8 -8 22 -29q18 -28 26 -52q5 -12 9 -51q4 -33 10 -66l4 -33q1 -11 3 -35q2 -20 2 -29q0 -11 -5 -41l-1 -21l-4 -36l-2 -23l-4 -30q0 -60 -39 -122q-2 -2 -6 -9q-39 -60 -82 -72q-32 -8 -48 -8q-38 0 -81 36q-54 47 -69 82
q-11 27 -14 43l-2 10q-9 40 -9 58v6q1 7 1 23q0 11 -3 52v7v2q0 1 0.5 5l1 8t0.5 9.5v10.5q1 35 4 68l3 25l8 37q4 35 17 75q3 10 12 30q3 7 9 19q26 59 50 76q36 27 71 28zM237 650q-23 0 -43 -14q-5 -3 -13 -10q-25 -13 -33 -77l-2 -28l-1 -33l-3 -26l1 -21q0 -6 -2 -26
t-2 -24q0 -17 1 -31q1 -7 1 -11q0 -9 -6 -58l1 -32q0 -3 -2 -21v-4q0 -34 6 -70l4 -24l6 -26q4 -38 27 -69q3 -4 15 -16q6 -6 35 -7q9 -1 16 -1v0q24 0 41 26q12 17 20 46q2 10 4 52l4 27l1 11l2 21l2 31l5 73q0 2 -0.5 6t-1 12t-0.5 16l2 33l-2 34l-2 104q0 3 -9 43
q-5 21 -21 63q-18 31 -51 31z" />
    <glyph glyph-name="one" unicode="1" horiz-adv-x="274" 
d="M168 692q26 0 24 -26l-1 -13v-33l-1 -24v-96l-5 -82l-5 -109v-48l-1 -15v-22v-23l2 -23v-37l2 -22q0 -8 2 -32q2 -7 17 -32q13 -19 13 -28q0 -10 -8 -18q-12 -9 -16 -9l-43 2q-26 -2 -57 -2q-29 0 -29 20q0 10 6 24q1 3 22 39q5 8 5 18l1 87l3 32q1 7 1.5 23t0.5 24v18
q0 15 -1 32q-1 5 -1 11q0 3 2 39q1 12 3 93v26q-9 86 -12 93q-6 12 -10 17q-2 1 -15 9.5t-21 13.5q-6 3 -6 13q0 17 40 30q23 9 36 14q36 16 52 16z" />
    <glyph glyph-name="two" unicode="2" horiz-adv-x="421" 
d="M201 607q-3 0 -29 -8q-47 -6 -82 -34q-1 -1 -6 -1q-12 0 -12 12q0 13 31 56q37 52 98 52q45 0 65 -4q10 -2 29 -13l15 -9q35 -18 44 -29q32 -36 31 -90l-1 -30l1 -24q0 -26 -17 -74q-12 -32 -53 -76l-3 -3t-6 -6.5t-9.5 -10.5t-15 -16t-21.5 -23q-6 -7 -23 -26t-27 -31
q-15 -21 -32 -42q-30 -39 -33 -43l-10 -20q0 -9 22 -12q2 0 5 -0.5t4.5 -1t2.5 -0.5l32 2q19 2 30 0q7 0 29 -3q5 -1 11 -1q20 0 39 10q8 4 13 9l16 21q1 3 8 3q18 0 18 -18l-8 -42l-3 -20q0 -2 -4 -25q-6 -38 -28 -38q-6 0 -28 1.5t-28 1.5q-13 0 -23 -1h-17q-20 0 -54 -3
h-25q-17 0 -46 3l-54 -3q-23 0 -23 22q0 15 18 50q11 21 16 28q1 2 29 35q9 13 54 73l14 18l42 54l14 17q19 22 27 37q55 92 55 164q0 14 -9 44q-1 12 -7 25q-1 4 -12 12q-44 31 -64 31z" />
    <glyph glyph-name="three" unicode="3" horiz-adv-x="435" 
d="M61 183q21 0 39 -24q17 -23 17 -44q0 -4 -1 -7q-2 -26 -2 -27q0 -8 3 -11l8 -8q35 -35 55 -35q36 0 68 23q14 11 18 16q1 0 11 16q15 23 20 31q11 27 15 79l1 14q0 10 -4 19l-3 3q-2 4 -6.5 12t-10.5 16q-16 31 -24 40q-25 31 -77 45q-20 5 -20 21q0 14 53 34q17 4 43 49
q23 40 23 72q0 15 -5 32q0 1 -1.5 4l-5 10t-6.5 14q-23 48 -83 48q-48 0 -70 -16q-14 -9 -19 -9q-12 0 -12 15q0 31 46 55q33 18 58 18q19 0 40 -10q57 -24 73 -35q29 -19 35 -28q13 -14 24 -35l10 -18q4 -11 4 -26q0 -10 -1 -22q2 -63 -65 -118q-23 -20 -23 -30
q0 -7 17 -21q37 -27 60 -64l11 -18q4 -8 8 -14q8 -24 8 -77q0 -1 -0.5 -7.5t-0.5 -10.5q-2 -46 -9 -63q-15 -40 -39 -55q-19 -12 -47 -24l-13 -8l-28 -8q-19 -10 -30 -12q-13 0 -24 -1l-34 -2q-30 -1 -73 39q-18 16 -54 59q-12 19 -12 53q0 51 35 51z" />
    <glyph glyph-name="four" unicode="4" horiz-adv-x="421" 
d="M337 658v-10q0 -4 -0.5 -19t-0.5 -20v-31v-130v-23q0 -8 1 -12v-5q0 -4 -1 -20t-1 -21q0 -15 3 -20l16 -14q3 -3 3 -21q0 -16 -13 -31t-13 -16l1 -25l-1 -36l-1 -21l1 -24v-73q0 -6 0.5 -19t0.5 -15q0 -50 -29 -50q-51 0 -59 9q-8 11 -7 12q10 53 10 81q0 7 -7 36v13
q0 18 3 76l1 20q0 3 0.5 10t0.5 8q0 22 -38 22h-42h-40h-39q-16 1 -39 1q-47 -2 -47 25q0 12 14 29l31 31q4 4 29 39l10 12q25 35 58 61l2 2q1 2 6 7.5t9 10.5l12 14l19 24q32 36 37 43q5 8 20 21q3 4 22 29l17 22q5 7 19 23q8 5 12 5q20 0 20 -30zM169 354l57 -7
q16 0 21 12q1 12 9 78v14v31l-2 44q0 16 -5 16q-2 0 -5 -3q-9 -5 -24 -22q-11 -14 -38 -38q-3 -3 -17 -21l-14 -20q-4 -8 -23 -37l-6 -9t-6 -8q-11 -16 -13 -17q-2 -2 -4 -5l-2 -2q0 -3 20 -8q17 -3 18 -3t34 5z" />
    <glyph glyph-name="five" unicode="5" horiz-adv-x="421" 
d="M70 174q17 0 27.5 -13.5t10.5 -31.5q0 -4 -2 -24q-1 -7 -1 -15q0 -45 43 -63q18 -8 40 -9l7 -1q23 -1 56 22q12 8 19 15q0 1 13 19l11 16l8 16q8 17 9 24q0 1 2 36v7l1 8q0 6 -1 18q-5 87 -55 132q-34 30 -57 39q-35 13 -73 14q-40 1 -40 26q0 11 9 69q0 3 0.5 9t1 17.5
t0.5 20.5q1 17 8 58q1 3 1 40q2 47 14 54q7 3 22 3h14q10 1 28 1q32 0 39 1h7q2 0 8.5 -0.5t8.5 -0.5h4q5 0 22 1.5t30 2.5q12 0 18 1q5 1 9 1q26 0 26 -15q0 -9 -16 -26q-6 -6 -14 -18q-15 -20 -42 -27q-18 -5 -51 -10q-9 -3 -18 -7q-10 -3 -39 -2q-14 0 -18 -10
q-1 -3 -3 -26q0 -3 -4 -17t-4 -18q0 -11 4 -12l16 -7q9 -5 29 -10q6 -1 43 -19q23 -10 26 -13q8 -6 22 -19q3 -3 10.5 -9.5t11.5 -9.5q19 -22 21 -27l16 -32l13 -20l10 -24l4 -17q6 -20 6 -27q1 -16 1 -66q-2 -33 -4 -43q-11 -38 -47 -96q-23 -39 -65 -64q-23 -16 -69 -16
q-4 0 -8 1h-11q-22 2 -32 5q-19 5 -37 15q-36 20 -46 35q-32 44 -32 88q0 22 13 38q11 12 26 12z" />
    <glyph glyph-name="six" unicode="6" horiz-adv-x="467" 
d="M349 702q18 0 18 -12q0 -5 -4 -8q-7 -7 -46 -27q-17 -9 -60 -54q-34 -35 -52 -72q-10 -20 -19 -35q-3 -6 -17 -32q-17 -26 -21 -41q-10 -37 4 -37q3 0 11 2q7 2 39 5q58 5 66 5q31 0 44 -4q10 -4 38 -22q25 -16 28 -22q15 -22 23 -35q6 -8 17 -35q5 -11 9.5 -21t6.5 -15
l3 -5q2 -14 2 -31q0 -20 -1 -39q0 -23 -5 -40q-29 -81 -86 -115q-36 -20 -57 -23q-23 -4 -44 -4q-64 0 -78 6q-16 7 -58 48q-30 29 -36 39q-30 54 -34 73q-2 8 -4 44l-3 50q-1 16 6 86q3 28 10 51q17 52 27 72l15 25q6 13 28 47q77 101 164 145q9 5 17.5 9t12.5 6l4 2
q23 14 32 14zM213 359q-86 0 -87 -118q0 -6 -0.5 -29t-0.5 -29q0 -21 37 -88q25 -45 51 -53q30 -8 53 -8q20 0 45 16q14 8 27 37t13 69q0 51 -1 57q-1 24 -12 56q-1 4 -10 20q-23 38 -47 53q-29 17 -68 17z" />
    <glyph glyph-name="seven" unicode="7" horiz-adv-x="395" 
d="M219 574h-23l-24 1q-6 0 -14.5 -0.5t-22 -1t-23.5 -0.5q-30 -2 -58 -39q-6 -8 -17 -8q-13 0 -13 12q0 11 19 88q1 1 4 25q6 48 27 48q8 0 13 -5q3 -3 15 -18q4 -7 84 -8l33 -1q14 0 23 1q8 0 47 -3l19 2q19 -1 36 -1q31 0 31 -16q0 -8 -5 -18l-36 -69l-13 -33l-6 -18
q-3 -8 -15 -38q-6 -19 -30 -79q-15 -45 -32 -90l-9 -20l-5 -15l-13 -29l-13 -35l-15 -40l-26 -74q-4 -9 -10.5 -28t-8.5 -24q-7 -33 -16 -38q-3 -2 -25 -3q-24 -6 -42 -6q-35 0 -35 15q0 5 20 43q6 12 13 24.5t9 17.5l3 5q2 4 31 54q25 41 43 97q21 38 38 71l8 17q3 7 32 67
q13 24 21 48t26 60l15 39q1 1 1 3l1 2q0 12 -15 13l-14 2q-32 3 -33 3z" />
    <glyph glyph-name="eight" unicode="8" horiz-adv-x="462" 
d="M268 691q12 0 20 -3l16 -7q27 -10 35 -18q32 -31 46 -69q7 -21 11 -37q2 -24 2 -43q0 -7 -5 -39q-9 -43 -27 -57q-1 0 -4 -2t-8 -5l-10 -6q-22 -19 -22 -24t21 -21q16 -13 28 -25l2 -4q2 -4 7 -12.5t10 -17.5l7 -12l6 -14q10 -25 11 -30q0 -17 1 -34q0 -4 0.5 -14.5
t0.5 -12.5q0 -62 -27 -105q-24 -38 -34 -49q-16 -19 -37 -28q-59 -23 -82 -21h-22q-58 1 -96 32q-12 9 -27 24q-2 2 -19 29q-18 28 -21 50q-4 32 -4 78q0 33 14 63q7 16 40 48q17 15 21 18q16 10 16 20q0 15 -37 67q-18 27 -23 83q-2 38 -2 43q0 19 4 30q8 21 28 45l16 20
q20 23 51 35q5 2 24 12q23 13 69 13zM198 311q-27 -6 -40 -10q-6 -2 -15 -14l-14 -17q-11 -13 -24 -34q0 -2 -1.5 -8.5t-4 -17.5t-5.5 -24l-2 -8q-5 -22 -5 -29q0 -8 10 -35q13 -39 46 -62q29 -21 40 -22q15 -3 25 -3q44 0 54 3q18 4 30 18q47 53 47 105q0 11 -3 29
q-5 29 -8 34q-2 5 -27 35q-15 18 -29 30q-17 10 -41 20q-18 8 -33 10zM257 640q-50 0 -81 -31q-30 -29 -30 -65q0 -18 3 -30q1 -10 27 -43q7 -9 38 -35q1 -1 10.5 -9.5t14.5 -12.5q8 -3 20 -3q14 0 21 4q0 1 14 11q4 4 9 8q52 43 52 108q0 33 -29 62q-21 21 -29 27
q-15 9 -40 9z" />
    <glyph glyph-name="nine" unicode="9" horiz-adv-x="461" 
d="M210 687l20 -1l33 2q9 0 34 -13l7 -3l28 -20q49 -36 70 -70q7 -13 18 -61q7 -29 7 -57q0 -14 4 -55q1 -4 1 -25q0 -27 -11 -85l-21 -62l-8 -17q-11 -26 -17 -37q0 -2 -31 -40q-31 -42 -71 -77q-15 -14 -36 -30q-3 -3 -19 -10q-33 -17 -85 -42q-21 -7 -26 -7q-14 0 -14 13
q0 10 20 21q6 3 36 22l31 24l12 11q52 49 84 107l20 35l4 9q12 25 12 47q0 16 -9 16q-6 -3 -12 -8q-17 -13 -52 -11h-10l-25 1q-46 2 -51 3q-7 3 -29 19q-39 27 -70 88q-14 26 -22 54q-3 10 -3 57q0 63 23 98q28 42 63 70q23 18 60 27q29 7 35 7zM211 634q-20 0 -48 -20
q-17 -13 -29 -33q-15 -29 -15 -97q0 -98 31 -135q33 -38 75 -38q40 0 48 2q33 7 54 33q13 14 12 39v36q0 11 1 18q0 6 0.5 12.5t1 9.5t0.5 4q0 25 -29 88q-7 15 -20 38q-31 43 -82 43z" />
    <glyph glyph-name="colon" unicode=":" horiz-adv-x="200" 
d="M87 335q7 0 28 -10q25 -11 27 -13q8 -8 8 -29q0 -23 -10 -33q-5 -5 -21 -10t-25 -5q-11 0 -32 22q-12 11 -12 31q0 47 37 47zM87 92q7 0 28 -10q25 -11 27 -14q8 -8 8 -28q0 -24 -10 -34q-13 -13 -46 -13q-10 0 -32 20q-12 11 -12 31q0 48 37 48z" />
    <glyph glyph-name="semicolon" unicode=";" horiz-adv-x="198" 
d="M88 342q7 0 28 -10q25 -11 27 -13q8 -8 8 -28q0 -24 -10 -34q-13 -15 -46 -15q-10 0 -32 22q-12 10 -12 31q0 47 37 47zM107 92q19 -2 29 -21q3 -8 9 -22l9 -22q1 -4 1 -24q0 -3 -3 -21q-7 -35 -33 -55q-14 -12 -19 -13q-24 -8 -52 -8q-7 0 -7 7q0 6 6 15q3 3 30 23
q3 2 6.5 13.5t3.5 15.5q0 21 -21 34q-13 7 -15 11q-4 4 -4 13q0 27 19 40q7 4 41 14z" />
    <glyph glyph-name="less" unicode="&#x3c;" 
d="M457 612v-37l-313 -204l313 -209v-99l-414 277v6z" />
    <glyph glyph-name="equal" unicode="=" horiz-adv-x="461" 
d="M72 420q-8 0 27 -3l47 3h3q21 -3 33 -3t21 1q18 2 79 3q6 0 37 3h7l37 -2h18q17 0 20 -1q12 -3 11 -16v-14l2 -15q0 -13 -22 -13q-23 0 -38 1q-5 1 -13 1q-9 0 -29 -4h-12q-46 -2 -64 -2q-16 0 -25 1q-33 -4 -41 -4q-1 0 -4.5 0.5t-10 1t-13.5 0.5h-12q-1 0 -27 -2l-42 2
q-7 1 -10 3.5t-2 7.5l1 17l-2 20q0 14 24 14zM72 307q14 0 20 -1l7 -1l47 2h3q21 -3 32 -3q4 0 22 2q24 2 79 2q6 0 37 3h7q6 0 27.5 -1t27.5 -1q17 0 20 -1q12 -3 11 -16v-15l2 -14q0 -13 -22 -13t-38 1q-4 1 -15 1q-7 0 -27 -4h-12q-46 -2 -63 -2q-15 0 -19 1h-7
q-33 -4 -42 -4q-1 0 -4.5 0.5t-10 1t-12.5 0.5h-12q-1 0 -27 -2l-42 3q-13 2 -12 9l1 18l-2 20q0 14 24 14z" />
    <glyph glyph-name="greater" unicode="&#x3e;" 
d="M43 63v38l313 204l-313 209v98l414 -276v-6z" />
    <glyph glyph-name="question" unicode="?" horiz-adv-x="367" 
d="M168 691q8 0 24 -3q11 -1 33 -5q11 -1 31 -21q34 -36 49 -57q19 -29 19 -111q0 -12 -12 -44l-9 -22l-24 -33q-7 -15 -28 -46q-6 -9 -19 -22q-20 -36 -29 -51l-10 -18q-21 -54 -22 -58q-2 -24 -4 -36q-3 -5 -12 -5q-13 0 -13 16q0 5 6 65q2 13 10 35q2 5 5.5 18.5
t5.5 21.5q17 41 26 68l16 44l7 14l7 21q16 45 16 50l-2 22q-2 24 -5 36q0 1 -1.5 6.5t-2.5 8.5q-8 36 -29 57q-16 14 -46 14q-28 0 -50 -16q-16 -12 -16 -38q0 -8 3 -15q2 -3 18 -24q5 -7 5 -20q0 -27 -14 -38q-8 -5 -19 -5t-19 4q-5 3 -16 18q-1 2 -6 9q-10 14 -10 25t8 41
q4 19 15 34q1 3 17 19q16 18 29 24q8 4 36 12q27 5 32 5zM158 91q6 0 24 -7q14 -4 30 -12q9 -10 9 -34q0 -22 -10 -29q-5 -5 -30 -14q-7 -3 -13 -3q-8 0 -31 17q-16 12 -16 41q0 41 37 41z" />
    <glyph glyph-name="at" unicode="@" horiz-adv-x="695" 
d="M383 499q25 0 37 -20l7 -10l13 10l31 -2l24 -2q5 -2 5 -16q0 -7 -2 -21q-2 -13 -12 -68l-12 -72q-2 -11 -4 -21t-3 -16.5t-2 -11t-1 -6.5l-1 -2q0 -29 19 -29q25 0 55 30q61 60 60 99l-1 26q-2 40 -3 47q-1 4 -2.5 9.5t-4 14.5t-4.5 16q-8 32 -16 53q-5 23 -57 77
q-5 5 -15.5 16.5t-12.5 13.5q-8 6 -46 16q-16 4 -45 5l-36 5l-9 -1q-16 -4 -39 -13q-50 -21 -56 -25q-26 -20 -61 -53q-29 -32 -57 -81q-1 -5 -9 -29l-6 -18l-13 -75l5 -62q3 -33 4 -35q2 -7 15 -52l10 -35q2 -6 3 -7q1 -3 34 -36q15 -22 21 -28q9 -4 30 -19q24 -15 35 -22
q19 -9 36 -12l30 -2q9 0 17 -0.5t11.5 -1t4.5 -0.5q37 0 59 5q16 5 36 16q17 9 60 30l22 18q59 46 69 48l22 7q4 3 5 3q6 0 6 -7q0 -11 -23 -40q-19 -24 -33 -35q-42 -38 -107 -67q-36 -13 -60 -18q-3 -1 -41 -3q-43 -3 -56 -3q-45 0 -77 12q-18 5 -52 32q-4 4 -29 21
q-9 9 -24 23q-12 11 -36 41l-17 30q-9 14 -27 44q-1 1 -7 28q-3 8 -5.5 15.5t-4 11.5t-2.5 7.5t-1 4.5q0 12 -1 25q-3 50 -3 42q0 35 9 101q5 25 25 70l16 33l14 18l9 13l15 16q16 21 55 57q80 54 178 54q113 0 179 -54q53 -44 59 -52q22 -33 28 -44q25 -48 34 -69
q8 -22 8 -67q0 -40 -10 -73q-19 -70 -84 -109q-48 -28 -99 -44q-3 0 -7.5 -2t-6.5 -2l-28 1q-7 -1 -16 -1q-19 0 -21 6l-6 14q-2 2 -4 2t-26 -11q-7 -3 -38 -10l-20 -4q-10 0 -28 7q-20 8 -26 14q-14 14 -21 29q-20 45 -20 68q0 39 17 88q25 70 73 98q21 12 60 21q27 7 32 7
zM385 431q-27 0 -51 -8q-30 -11 -49 -40q-13 -17 -14 -29q-11 -63 -11 -66q0 -24 12 -50q12 -25 47 -25q43 0 67 37q11 21 17 38q2 6 10 46q0 2 2 8l5 21l1 23l2 21q0 8 -7 14q-13 10 -31 10z" />
    <glyph glyph-name="A" unicode="A" horiz-adv-x="535" 
d="M401 4q-2 0 -4 -1q-20 -7 -36 -7t-16 10q0 7 14 18q30 24 30 55q0 17 -9 45q0 1 -2.5 6.5t-7 16t-9.5 22.5q-3 6 -16 61q-13 37 -49 37l-32 8q-16 6 -38 6q-34 0 -51 -9q-13 -4 -24 -41q-6 -26 -13 -37q-14 -23 -19 -41q0 -1 -4 -21q-5 -38 -5 -41q0 -20 5 -28l4 -4
q4 -4 12 -13t18 -19q11 -11 11 -15q0 -13 -24 -13q-13 0 -32 1h-10h-9h-17l-44 -1q-24 0 -24 15q0 9 5 12l19 15q6 4 20 37q1 3 17 24q4 5 14 44q3 5 25 62l16 44q24 64 51 139q0 2 3.5 10.5t11.5 28.5l16 40q25 60 30 77q16 48 23 103q6 37 24 37q6 0 14 -17q5 -10 33 -94
q0 -1 17 -36q1 -7 6 -28q1 -3 2.5 -9t4.5 -16.5t5 -18.5t17 -39l27 -70l9 -35l17 -55q9 -29 24 -78q7 -18 23 -71q15 -48 35 -70q3 -1 23 -17q6 -5 6 -14q0 -14 -19 -17l-57 -2l-25 -2q-3 0 -36 6zM259 478q-3 0 -5 -2l-10 -17q-11 -19 -20 -35q-15 -44 -15 -63q0 -11 3 -18
q6 -14 40 -21q9 -1 14 -3q13 -4 23 -4q13 0 13 14q0 54 -13 96q-17 53 -30 53z" />
    <glyph glyph-name="B" unicode="B" horiz-adv-x="521" 
d="M137 674l11 -1l16 -1q13 -1 38 -3q26 -2 27 -2h68l14 -1q22 0 80 -39q33 -16 44 -28q39 -45 39 -121q0 -30 -12 -49q-27 -43 -42 -57q-22 -18 -25 -22q-2 -4 -2 -7q0 -11 15 -20q9 -6 35 -35l14 -25q22 -35 22 -69v-13q-1 -11 -1 -21q1 -63 -55 -116q-64 -48 -102 -47
q-17 -1 -39 -1h-47l-73 1q-6 0 -26 1.5t-26 1.5q-8 0 -14 -1q-24 -2 -30 -2q-18 0 -18 14q0 8 3 11l30 33q14 30 17 70q3 60 3 95l1 220q0 9 -2 33q5 38 5 40q0 1 -0.5 5.5t-1 14t-0.5 19.5q-2 22 -8 40q-3 10 -6 19q-5 7 -25 28q-9 7 -9 15q0 11 8 13q1 1 40 3q5 0 24 3
q6 1 10 1zM250 333h-19h-21q-16 -1 -22 -34q-3 -11 -3 -28v-47l-3 -17q0 -2 1 -10.5t1 -10.5l-1 -61l-4 -43q0 -12 4 -17q10 -15 33 -25q16 -8 22 -7l20 2q16 1 36 3q11 5 36 25q31 25 43 61q1 9 3 33q0 7 1 14v26v23q-2 31 -8 40q-14 21 -37 42q-31 31 -82 31zM240 628
q-6 0 -20 -9.5t-20 -15.5q-3 -3 -8 -21q-2 -8 -3 -31l-3 -27q0 -4 1 -7q4 -20 4 -53q0 -10 -1 -21v-9q0 -36 25 -55q14 -9 25 -9q32 0 51 13l25 17q10 6 32 20q28 32 28 84q0 9 -5 44q-3 18 -21 31q-12 8 -15 14q-19 22 -25 26q-1 0 -4.5 0.5t-11 1t-15.5 0.5z" />
    <glyph glyph-name="C" unicode="C" horiz-adv-x="635" 
d="M371 687q92 0 180 -52q7 -4 38 -16q12 -5 13 -18q3 -24 3 -64q0 -3 -1 -15t-1 -15v-28q0 -11 -10 -11q-8 0 -14 12q0 1 -11 24q-21 39 -23 41q-7 12 -18 18l-30 21q-15 12 -54 37q-9 4 -48 10q-28 5 -37 5q-16 0 -31 -9q-31 -7 -66 -38q-23 -13 -30 -19q-34 -39 -47 -66
q-23 -51 -23 -64v-44l-2 -12q-10 -33 -10 -41q0 -3 1 -6q3 -23 3 -39v-6l-2 -26v-5l2 -15v-34q0 -16 22 -59q17 -31 32 -47q41 -44 83 -58q26 -8 54 -8l50 1q12 0 46 2q7 0 12 1q23 1 32 7q20 12 44 41q12 22 30 49q8 9 11 23q3 23 18 23q14 0 14 -23q0 -4 -2 -54v-28
q-2 -29 -4 -37q-1 -5 -9 -10l-10 -5l-6 -3q-3 -1 -4 -2q-34 -23 -39 -21l-29 -9q-39 -14 -57 -14q-45 0 -64 1h-7.5h-7.5l-4 1q-11 0 -26 -1q-20 1 -33 5q-8 2 -39 17q-33 19 -34 20l-24 18q-45 33 -67 56q-25 29 -61 93q-14 24 -26 64q-5 18 -5 88q0 54 7 89q11 52 40 87
q24 27 25 30l26 43q13 22 87 55q51 23 70 29q39 11 73 11z" />
    <glyph glyph-name="D" unicode="D" horiz-adv-x="627" 
d="M85 666q21 0 43 -5q8 -2 9 -2q3 0 44 9l55 3q1 0 48 -2q33 -1 83 -3q13 -1 70 -34l7 -4l13 -12q39 -23 62 -53q17 -14 43 -53q17 -46 20 -64q6 -42 6 -63v-52v-48q1 -24 -17 -84q-6 -22 -10 -28q-4 -9 -19 -34q-19 -33 -32 -48q-20 -20 -38 -31q-2 -1 -10.5 -6t-13.5 -8
q-10 -5 -61 -23q-6 -3 -18 -7q-40 -14 -58 -16q-13 0 -36 -1q-29 -2 -30 -2q-3 -1 -8 -1t-7 -1q-2 0 -11.5 1.5t-17.5 3.5q-6 1 -37 1q-17 0 -30 1l-29 -1l-35 1l-17 -1q-15 1 -15 20q0 10 7 16l25 15q26 20 25 66q-1 8 3 34t4 33q0 12 -2 46q0 4 -1 7q0 4 1 9q2 18 2 44v5
q-1 6 -1.5 13.5t-0.5 13.5l-1 50q0 17 -2 51q-1 17 -1 28q0 17 2 33q4 17 4 26t-3 26q-1 18 -3 26q-6 29 -10 36q-4 9 -14 21l-10.5 7t-12.5 8q-6 5 -6 16q0 17 42 17zM294 622q-88 0 -91 -62q-2 -24 -8 -52q-1 -1 -1 -3q0 -3 8 -37v-11q0 -1 -0.5 -4t-1 -8.5t-0.5 -11.5
q-2 -30 -3 -44q0 -36 -1 -59q-1 -2 -1.5 -6.5t-0.5 -6.5l5 -46q-1 -19 -3 -36l-1 -24l-2 -26q5 -40 5 -42q0 -9 -2 -35q-1 -2 -1 -6q0 -24 17.5 -44t40.5 -20q5 0 36 9l30 5l23 5q17 4 31 12q7 5 21 21l23 27q2 3 7 8t7 8q1 2 3.5 5.5t7 10.5t8.5 13q2 3 7.5 10.5t8.5 11.5
q6 9 10 25q0 1 1.5 16.5t3.5 28.5l7 39q0 8 2.5 32.5t2.5 30.5l-3 27l-1 27q0 11 -2 45q-1 6 -22 41q-9 20 -34 55q-13 13 -44 31q-18 11 -22 14q-27 18 -34 21q-15 5 -37 5z" />
    <glyph glyph-name="E" unicode="E" horiz-adv-x="496" 
d="M71 670l22 -1q3 0 9.5 0.5t18.5 1t23 0.5q10 0 23 1q2 0 12.5 0.5t14.5 0.5q21 0 50 -7q3 -1 6 -1t22 3q1 1 13 1q13 0 26 1q10 1 24 1q21 0 46 -5q1 0 4 -1t5 -1q3 1 23 4h7q21 0 23 -17q1 -4 4 -51q-1 -9 -1 -17q0 -1 0.5 -5t2 -14.5t2.5 -20.5q0 -3 0.5 -7t1 -6.5
t0.5 -5v-3.5q0 -16 -9 -16q-7 4 -21 14q-5 3 -20 39l-10 15q-1 3 -13 19q-9 10 -29 16q-9 2 -31 3q-1 1 -14 4q-31 10 -49 10q-48 0 -49 -25l-2 -22l-2 -15v-8q-6 -35 -6 -52v-3v-8t0.5 -10.5t0.5 -12v-11.5l-1 -41q0 -48 34 -48q16 0 29 9q36 25 50 42q8 11 15 11t12 -11
q0 -1 0.5 -4t1 -9t0.5 -11l2 -19q1 -19 -2 -55l-2 -18l2 -21q0 -3 0.5 -7.5t1.5 -7.5v-3q0 -7 -8 -25q-2 -5 -7 -5t-17 14l-11 14l-8 22l-17 17q-7 10 -11 12q-7 6 -31 6q-18 0 -22 -9q0 -1 -2 -49q0 -8 -5.5 -35.5t-5.5 -37.5q0 -11 1 -22l-1 -26q0 -7 -2 -45
q0 -3 -0.5 -5.5t-0.5 -4.5t-0.5 -3.5t-0.5 -2.5v-1q0 -33 60 -35q36 -4 44 -4t37 8q16 4 22 10l19 18q23 15 26 20q6 11 22 54q5 14 17 14q13 0 13 -21q0 -69 -4 -92l-3 -39q-5 -20 -23 -20q-3 0 -56 11q-27 -4 -32 -4q-1 0 -6.5 0.5t-17.5 1t-26 0.5l-74 -3q-3 0 -16.5 1
t-17.5 1h-7q-33 0 -71 -1l-43 -2q-17 0 -17 10q0 13 12 20q13 7 22 10q17 21 21 29q2 10 5 34l3 29q0 5 -0.5 20.5t-0.5 19.5v36q-1 11 -1 20l1 10v8q0 66 5 87q-1 10 -2 29t0 43v28l2 43q2 28 6 53l-7 31q-6 32 -13 42q-13 19 -46 40q-4 3 -4 10q0 21 29 21z" />
    <glyph glyph-name="F" unicode="F" horiz-adv-x="469" 
d="M52 666l21 -1q7 1 25 3q5 1 10 1q8 0 51 -7q8 0 29 3l32 4q44 3 72 3q6 0 50 -3l10 1q15 0 30 1h19q9 1 19 1q24 0 24 -17l-1 -24q0 -2 0.5 -10.5t0.5 -13.5v-24v-10v-43q0 -19 -11 -19q-15 0 -37 37q-1 2 -7.5 16.5t-12.5 27.5q-8 18 -32 29q-1 0 -13 5q-6 4 -9 5
l-41 -5q-2 0 -4 1q-12 4 -27 4q-36 0 -52 -25q-8 -9 -9 -27q-4 -26 -5 -32v-26q0 -5 -2 -27v-7q0 -12 4 -47v-3v-5q-3 -20 -3 -33q0 -21 14 -26q7 -3 31 -3q23 0 33 5q37 23 50 45q14 23 20 23q12 0 12 -66q0 -3 -1 -6q-6 -38 -6 -52q0 -3 2 -13q6 -32 6 -45t-11 -13
q-8 0 -12 7l-20 37q-9 18 -35 30q-20 11 -42 11q-36 0 -38 -57q-2 -34 -4 -46v-33v-8l1 -17v-24v-13v-54q0 -2 5 -24q6 -16 7 -20q3 -5 21 -15q14 -8 14 -17q0 -8 -13 -8t-44 3q-1 1 -4 1t-5 -1l-14 -1l-37 4l-65 -4q-10 0 -10 8t23 28q14 20 23 44q12 29 11 56v38v49l-1 16
v27l-1 25v82l-1 24l5 33l-1 33l2 27q-1 7 -1 18q1 20 -1 35l-8 34q-2 6 -3.5 13t-1.5 8l-2 3q-2 2 -6 7t-9 11q-7 9 -11 10l-20 10q-5 2 -5 12q0 16 22 16z" />
    <glyph glyph-name="G" unicode="G" horiz-adv-x="672" 
d="M362 685q47 0 109 -5q21 -2 32 -7l38 -17q18 -5 44 -18q25 -19 25 -47q0 -39 -3 -92q-1 -21 -2.5 -30t-2.5 -10t-4 -1q-16 0 -38 63q-9 24 -15 30q-1 1 -21 15q-7 12 -28 32q-2 3 -13 10q-23 17 -55 24q-43 8 -50 8q-58 0 -110 -32q-29 -17 -44 -33q-25 -26 -40 -72
q-8 -25 -16 -59q-12 -48 -12 -57q1 -6 3 -29v-15l-1 -5v-10.5v-11.5l-1 -45l-3 -30q0 -3 11 -50q0 -3 22 -51q27 -65 102 -97q42 -17 72 -17q16 0 56 10q11 2 27 3q61 3 61 90q0 20 -12 35.5t-29 16.5q-22 1 -27 3t-5 12q0 7 8 12q9 0 32 4q42 6 43 6q7 0 62 -6h11
q2 0 12 1.5t12 1.5q14 0 17 -17v-3q0 -9 -3 -12l-17 -19q-3 -5 -5 -43v-24l-1 -39q0 -19 -4 -39q-1 -15 -21 -15q-6 0 -23.5 1.5t-21.5 1.5q-7 0 -40 -10l-34 -3l-26 -3l-16 -2q-24 -2 -38 -4q-5 0 -9 -0.5t-6 -0.5l-2 -1q-63 0 -78 5q-70 25 -116 68q-28 26 -41 46
q-37 53 -55 109q-2 5 -6.5 18t-6.5 20q-16 39 -16 73q0 17 1 30q0 6 0.5 13.5t1 11.5t0.5 6q2 45 23 96q23 56 68 112q21 26 50 41q4 3 11 8q27 21 67 34q22 7 32 9q36 2 65 2z" />
    <glyph glyph-name="H" unicode="H" horiz-adv-x="713" 
d="M76 670q11 0 24 -1h11q12 -1 41 -1h29l45 1q22 0 22 -13q0 -8 -5 -11l-20 -16q-26 -21 -26 -82q0 -7 3 -47v-16q0 -19 -2 -37q-5 -40 -5 -42q0 -31 45 -41q15 -3 62 -3h36q43 0 59 4l56 -7q17 -3 51 14q17 8 17 24q0 5 -2 19q0 5 -1 8l1 9v43l3 47q-3 17 -3 22q0 11 1 20
q1 4 1 10q0 29 -14 49q-3 5 -15 9q-18 6 -18 17q0 13 20 13h8h14q4 0 14 0.5t14 0.5q1 0 3 -0.5t5.5 -1t7.5 -0.5q2 -1 5 -1q5 0 24 2.5t25 2.5q45 0 45 -11q0 -4 -32 -33q-17 -17 -17 -78q0 -8 1 -13q1 -9 1 -15q0 -4 -0.5 -14t-0.5 -12q0 -13 4 -66l-2 -20q0 -19 -1 -43
q0 -6 -2 -30q-1 -3 -1 -8q0 -8 3 -43v-12l-1 -36l-1 -118q-2 -53 20 -76l2 -1q3 -2 7 -5.5t9 -7.5q12 -9 12 -16q0 -10 -14 -10q-12 0 -29 3h-9h-43h-19h-25q-30 -2 -34 -2q-13 0 -13 9q0 3 2 5l29 27q12 10 16 43q1 13 3 62l1 12q-5 18 -5 21l1 46q0 5 0.5 9.5t1 7t0.5 5
v3.5q0 41 -8 52q-11 14 -59 15l-17 1h-9q-46 -2 -49 -2q-1 0 -25 2h-9q-1 0 -4 -0.5t-10 -1t-14 -0.5h-3q-7 0 -34 4q-14 2 -24 2q-55 0 -62 -37v-34l-1 -25q0 -3 0.5 -10t1 -19.5t0.5 -24.5v-11q0 -3 -3 -30q2 -24 2 -25q13 -36 18 -50q22 -25 30 -31q15 -10 15 -16
q0 -7 -10 -7h-14h-40h-36q-8 0 -20 2q-3 1 -12 1q-6 0 -26.5 -1.5t-26.5 -1.5q-44 0 -44 17q0 11 23 17q34 7 45 29q5 14 7 39q1 9 1 65q0 2 -2 40q-1 13 -1 24q0 4 5 72q-2 42 -2 54q0 19 6 53q1 2 1 9t-1 13q-1 17 -1 42q0 -2 0.5 3.5t0.5 10.5v33l-1 29v15v7q0 52 -44 66
q-16 4 -16 18t27 14z" />
    <glyph glyph-name="I" unicode="I" horiz-adv-x="278" 
d="M74 671l60 -3q35 4 48 4q44 0 44 -25q0 -7 -11 -15q-18 -15 -22 -26q-10 -30 -10 -142q0 2 0.5 -6t0.5 -16q2 -36 2 -61v-27q0 -52 -3 -85q-1 -3 -1 -13q0 -9 1 -16q1 -15 1 -30v-4q-1 -4 -1 -9v-10q0 -8 4 -31l1 -52l1 -17q5 -7 11 -21q1 -3 4 -9t4 -9l15 -15
q8 -11 8 -17q0 -16 -10 -16h-27h-4q-20 -2 -25 -2q-1 0 -4 0.5t-8 1t-10 0.5l-44 -1q-15 -1 -34 6q-9 5 -9 15q0 6 3 9l26 22q9 12 10 32q0 2 1 8t2 15.5t2 19.5q1 3 1 8q0 4 -1.5 18t-1.5 18q0 6 2 44q3 30 3 45q0 4 -5 59l3 32q0 1 -0.5 3.5t-1 7t-0.5 9.5v7v95q0 7 -1 12
q-1 10 -5 51l-1 54q-2 23 -24 42q-17 14 -17 22q0 16 23 18z" />
    <glyph glyph-name="J" unicode="J" horiz-adv-x="287" 
d="M94 670q29 -4 36 -4h7q45 6 49 6q25 0 25 -22q0 -4 -15 -17q-2 -2 -4 -17l-1 -9l-1 -14q-4 -57 -1 -118v-3v-4q-3 -20 -3 -47v-8l2 -59l-1 -55l1 -67l-2 -41l2 -69v-23l-1 -15l1 -5q0 -5 0.5 -15t0.5 -22l2 -42v-12q-1 -51 -6 -74q-1 -10 -11 -35l-3 -7l-5 -12
q-9 -32 -16 -42q-13 -25 -17 -25l-32 -31l-30 -30q-6 -2 -8 -2q-13 0 -13 13q0 7 12 27q3 5 13 33q10 22 11 25q0 1 2 19q4 23 4 58v31v11l1 25l5 27v6l1 19q0 7 7 87q-6 71 -6 80q0 5 0.5 24t0.5 25l-1 4v7.5v7.5q-2 30 -2 47l1 42l-1 19l1 22l2 30q0 3 -3 16q-2 11 -3 57
q-1 11 -1 34v12q0 8 1 11l-7 33q-4 22 -6 25q-4 4 -23 18q-17 11 -17 24q0 10 2 12q3 3 50 9z" />
    <glyph glyph-name="K" unicode="K" horiz-adv-x="604" 
d="M70 667q42 -2 43 -2q5 0 18 1t15 1h13l9 1h7q1 0 5.5 -0.5t13 -1t16.5 -0.5q19 -1 28 -5q12 -5 12 -15q0 -6 -5 -14q-3 -3 -37 -18q-15 -7 -22 -61q0 -5 -0.5 -9.5t-1 -6.5t-0.5 -3l3 -39q0 -1 -5 -34v-12q0 -7 6 -27q2 -15 7 -30q4 -4 12 -4q12 0 26 11l3 3q3 2 8.5 6.5
t11.5 10.5q29 27 36 35q32 24 97 87q24 28 28 34q11 17 11 32q0 12 -4 15l-19 16q-8 8 -8 17q0 15 17 15l80 -8q6 -1 15 -1q4 0 17.5 1t16.5 1q38 0 38 -15q0 -12 -21 -26q-5 -3 -15.5 -10t-16.5 -10l-33 -31q-55 -39 -61 -45l-2 -2q-2 -3 -6 -7l-9 -9q-15 -15 -46 -41
l-22 -18l-13 -11q-30 -26 -52 -48q-10 -11 -10 -22q0 -8 6 -17q2 -3 17 -20q19 -19 66 -78q14 -17 35 -38q27 -23 79 -77l43 -45q4 -4 20 -20.5t28 -28.5q20 -17 20 -30q0 -11 -16 -11q-15 0 -27 1q-8 1 -26 3h-5q-14 -2 -53 -3q-12 -1 -22 -1v0q-26 0 -26 15q0 6 4 10
l21 19l-6 9l-24 32q-40 38 -45 47q-7 12 -8 13l-22 16q-35 35 -64 63q-20 21 -26 25l-13 6q-1 1 -4 3q-2 2 -4 3q-14 12 -19 12q-15 0 -13 -20l1 -41q0 -3 -3 -22q-2 -30 -2 -31q0 -7 4 -27l3 -35l3 -21q0 -3 1 -6.5t1 -5.5t0.5 -4.5t1 -4t1.5 -3.5t2 -3.5t2.5 -3l3.5 -3.5
t4.5 -4t6.5 -4q9 -7 23 -17q4 -3 4 -9q0 -10 -11 -10q-7 0 -14 1h-25q-7 1 -13 1l-19 -1h-9q-19 0 -69 -2q-10 -1 -23 -1t-13 12q0 10 23 19q27 10 27 70l-1 6q0 5 -0.5 17.5t-0.5 27.5q0 6 1.5 24t1.5 22q0 -1 0 3v6.5t-0.5 8.5t-0.5 12l-2 73q0 36 -1 70q-1 13 -1 27
q0 2 2 64v20q0 23 -10 97q0 23 -1 27q-2 6 -36 31q-9 8 -9 18q0 13 20 13h7z" />
    <glyph glyph-name="L" unicode="L" horiz-adv-x="454" 
d="M75 666l68 -2q17 2 54 3l28 1q23 2 23 -15q0 -7 -6 -10l-12 -7l-13 -17q-10 -10 -11 -15q-19 -51 -19 -123q0 -46 3 -91l-1 -44v-30v-41v-24q0 -4 -3 -25q-1 -5 -1 -18q0 -10 3 -28q1 -20 3 -28l2 -26q0 -7 -4 -27v-8q0 -47 47 -47q10 0 35 4q19 0 41 1l10 1h26
q9 0 30 24q27 32 31 41q21 40 29 40q11 0 9 -14l-3 -43l3 -35v-12l1 -17q0 -24 -15 -32q-10 -2 -38 -2h-25l-67 2q-1 0 -3.5 -0.5t-8.5 -1t-11 -0.5h-9q-16 -2 -25 -2q-22 0 -55 4q-12 2 -23 2q-15 0 -57 -2q-1 0 -6 -1t-15.5 -3t-20.5 -4q-3 -1 -8 -1q-25 0 -25 13
q0 10 9 21q9 6 19 16q26 23 29 64q3 19 5 86v44v13.5v14.5t-0.5 13t-0.5 10v4q0 25 5 60q1 2 1 11l-1 3v9t-0.5 12.5t-1 15t-0.5 15.5v105l-2 25q-1 6 -1.5 18.5t-0.5 19.5q-5 7 -13 22l-11 17q-3 3 -11 6q-8 4 -17 7q-7 4 -7 13q0 12 16 13q3 1 10.5 1.5t11.5 0.5z" />
    <glyph glyph-name="M" unicode="M" horiz-adv-x="773" 
d="M147 181v-46q0 -20 13 -62q4 -14 44 -44q20 -17 20 -25q0 -11 -25 -11q-2 0 -40 2q-21 0 -44 1q-65 1 -75 4q-11 5 -11 17q0 6 2 8q3 4 23 15q40 21 46 94q-2 32 3 144l1 18l5 95q0 23 -8 69q0 2 -2 103q-2 30 -9 40q-4 7 -42 28q-17 11 -17 24q0 14 11 16q7 0 18 1h25
q2 0 7 -0.5t14 -1t16 -0.5q7 -1 12 -1q19 0 54 4q6 1 13 1q16 0 21 -14q0 -4 4 -29q2 -39 10 -76q14 -59 66 -165q0 -1 1 -4t3 -8t4 -11q10 -33 14 -41q4 -10 12 -34q0 -1 28 -47q13 -22 14 -30q4 -13 11 -13q10 0 28 27q1 1 6 9q13 18 40 87l6 14l9 24l18 45l25 72l16 49
l15 38q12 32 22 61q2 4 4 11.5t4 10.5q4 12 13 16q17 5 58 5q12 0 26 -2h3l31 1q7 1 19 -12q5 -7 5 -11q0 -9 -6 -11l-18 -8q-16 -6 -31 -37q-4 -9 -6 -38q-3 -31 -4 -82q0 -39 1 -61q0 -10 0.5 -19.5t1 -14.5t0.5 -6q0 -75 -1 -88v-20v-25l1 -79q0 -4 -0.5 -18.5
t-0.5 -17.5q0 -8 7 -35q11 -39 18 -43l25 -15q6 -5 6 -15q0 -8 -3.5 -12.5t-10.5 -3.5l-21 2h-43h-9q-8 -1 -14 -1l-63 1q-4 0 -21 -0.5t-22 -0.5q-20 0 -20 10q0 3 0.5 5t2.5 4.5t4 4t7.5 5.5t10.5 8q36 26 44 42q4 9 6 20q-2 16 3 84l1 17l1 15q1 4 1 13t1 14l2 11
q0 4 -3 24l-1 36q0 22 -3 44q0 6 -0.5 11t-1.5 7v3q0 8 2 30q3 31 3 45q0 13 -8 13q-7 0 -11 -12l-4 -11q-6 -14 -9 -23q-7 -21 -12 -27l-13 -17q-4 -3 -19 -50q-17 -34 -25 -54q-2 -9 -24 -83q-7 -14 -18 -35q-7 -15 -22 -62l-17 -36q-3 -8 -19 -45q-4 -6 -9 -6
q-7 0 -14 13q-4 7 -16 50q-3 10 -31 75q-14 35 -30 71q-8 15 -30 54q-17 29 -31 82q-11 38 -43 96q-2 2 -4 5l-1 3q-10 22 -14 22q-11 0 -9 -12l2 -48l-5 -44l-1 -38q1 -15 1 -30q0 -2 -0.5 -10.5t-2 -29t-2.5 -38.5q5 -43 5 -44z" />
    <glyph glyph-name="N" unicode="N" horiz-adv-x="671" 
d="M103 478v25q0 32 -4 48q-7 35 -16 46q-6 6 -43 26q-16 7 -16 22q0 18 14 18l26 -1q4 1 26 3q1 0 6.5 0.5t18 1t26.5 0.5l64 3q28 0 28 -20q0 -5 -1 -8q-3 -20 -3 -27q0 -25 61 -116l10 -16q3 -4 16 -25.5t31 -48.5t41 -55t56 -63q2 -3 4.5 -5.5t4 -4.5t3 -3.5l2.5 -2.5
q11 -18 22 -23l26 -13q11 0 17 21q3 9 8 61l4 52l-1 53q0 7 2 29q1 2 1 5l-3 27l-1 14q-6 35 -9 74q-7 29 -54 58q-11 6 -11 16q0 3 4 10t7 7l59 -6q1 0 14 4t18 4h30q28 0 34 -2q12 -4 12 -15q0 -8 -7 -12l-19 -11q-29 -15 -30 -43q-1 -12 -3 -65q0 -7 -0.5 -15t-1.5 -13
v-5v-3q1 -4 1.5 -11.5t0.5 -15.5q0 -24 1 -51v-24l-1 -4q0 -3 -0.5 -8t-1 -11.5t-1 -14t-0.5 -13.5v-75q-4 -31 -4 -40t4 -45v-35v-21q1 -23 1 -43q0 -14 1 -18q0 -6 0.5 -12t1 -9.5t0.5 -4.5q0 -32 -23 -32q-10 0 -11 4l-25 40q0 1 -13 17q-31 30 -36 38q-14 22 -23 35
q-5 7 -35 42l-9 9l-17 23l-20 25l-19 25l-21 26q-4 5 -14.5 18.5t-17.5 21.5q-2 2 -13.5 18t-21.5 30q-15 21 -24 36q-8 12 -41 56l-35 50q-11 0 -14 -18v-58l-1 -47q-1 -65 -4 -128q-3 -37 -3 -47q0 -12 3 -31q0 -2 2 -36l1 -13q2 -30 3 -42q7 -48 61 -58q16 -3 16 -21
q0 -12 -44 -12q-10 0 -21 1q-20 1 -58 1q-16 0 -25 -1h-7q-10 0 -32 5q-15 5 -15 15q0 6 8 12q15 8 21 11q24 12 33 40q8 23 9 93q0 21 1 32l1 15q0 10 -1 31v10q0 14 4 45q1 7 1 11l-1 18v20q0 4 -0.5 9t-1 8t-0.5 4q0 10 4 34q1 3 1 25q0 4 1 19.5t1 20.5z" />
    <glyph glyph-name="O" unicode="O" horiz-adv-x="741" 
d="M401 686q46 0 79 -12q23 -9 55 -34q2 -2 29 -21l3 -3q3 -2 9 -7.5t13 -12.5q14 -12 26 -24q4 -4 12 -17l18 -30q24 -37 28 -44q1 -1 7 -28q7 -17 14 -39q0 -16 1 -25l3 -40q0 -5 -3 -36l2 -45q1 -12 -4 -36q-3 -12 -24 -56l-16 -32l-15 -18l-11 -13l-14 -17
q-15 -18 -58 -56q-83 -53 -188 -53q-63 0 -96 10q-112 33 -170 145q-29 56 -41 95q-9 28 -13 54l-1 6q0 6 -0.5 19.5t-0.5 28.5q0 3 -0.5 8t-0.5 9l-1 3q0 37 16 85q7 21 37 72q2 3 37 57q44 47 110 77q46 20 61 23q3 1 42 4q43 3 55 3zM345 640q-20 -2 -38 -14
q-23 -15 -38 -25q-25 -25 -47 -54q-7 -8 -25 -43l-14 -25l-8 -21q-1 -3 -13 -31q-3 -12 -3 -43q0 -15 1 -27v-30l-2 -64q0 -5 15 -67q5 -18 12 -42q1 -4 30 -36q12 -21 19 -28q12 -8 27 -19q32 -24 46 -29q10 -4 44 -7q7 0 13.5 -0.5t10.5 -1t5 -0.5q30 0 45 5q12 5 27 16
q10 8 45 30q11 8 24 30q0 2 6 9q16 22 50 85q6 21 7 40q0 5 0.5 9t0.5 5v1v26v11v13v19v4v6.5t-0.5 10.5t-0.5 14q-1 7 -1.5 23t-0.5 24q-2 4 -6 21q-9 40 -34 82q-11 21 -52 66q-18 22 -26 30q-7 7 -34 13q-1 0 -5 1t-5 2q-14 5 -43 6z" />
    <glyph glyph-name="P" unicode="P" horiz-adv-x="499" 
d="M37 666q2 0 9.5 -1.5t10.5 -1.5q1 0 3.5 0.5t7 1t7.5 0.5q4 0 7.5 0.5t5.5 1t3 0.5l50 -5q5 -1 8 -1q6 0 23.5 4.5t21.5 4.5l14 -1l9 1l27 -1q6 0 18.5 -0.5t17.5 -1.5q2 -1 25 -6q77 -6 132 -117q12 -26 15 -40q5 -24 3 -35v-14q-3 -67 -50 -105q-38 -41 -62 -47l-20 -5
q-10 -2 -19.5 -4t-13.5 -3l-4 -1h-21l-33 -3l-25 1q-13 2 -18 -15q-1 -2 -4 -25l-2 -29l-2 -30q-1 -6 2 -24t3 -25v-9l-2 -33q1 -48 45 -77q14 -9 14 -16q0 -8 -15 -8q-4 0 -26 2q-13 1 -26 1l-35 1l-39 -4l-15 -1l-11 -1q-41 -3 -41 17q0 7 8 12l19 13q16 10 26 56
q7 35 9 47q3 30 3 81q0 8 -3 46q0 9 1 16l2 18l-1 37l-1 44l-3 67q0 5 0.5 25t0.5 26q0 16 -3 47q-5 50 -59 78q-17 9 -17 24q0 17 20 17zM271 621h-24l-18 1q-20 2 -37 -29q-10 -16 -10 -32q0 -3 2 -23v-9q0 -10 -1 -17q-1 -13 -1 -24v-28l-2 -24q-3 -16 -3 -21q0 -1 2 -15
q3 -12 3 -16q3 -18 7.5 -30.5t9.5 -17t10.5 -6.5t9.5 0l33 5q26 1 34 3q23 9 39 31q10 12 15 19q7 7 10 23l6 32l8 32v-1q0 3 -5 25q-1 4 -4 41q0 11 -14 28q-27 27 -51 47q-9 5 -19 6z" />
    <glyph glyph-name="Q" unicode="Q" horiz-adv-x="746" 
d="M347 687q7 0 49 -5q28 0 49 -1l5 -1l19.5 -6.5t27.5 -9.5q13 -4 30 -9q5 -2 15 -11q20 -20 24 -23q11 -11 30 -31l13 -15q12 -11 31 -34q19 -25 26 -42l11 -27q26 -64 26 -102q0 -70 -7 -108l-4 -19q2 -8 -17 -43l-7 -13q-4 -11 -13 -27l-6 -12l-12 -18l-6 -10l-7 -7
l-8 -9l-7 -4q-39 -37 -39 -41q0 -9 14 -9q12 0 47 26q10 7 24 7h14q13 -1 23 -1h5q5 1 11 1q21 0 21 -28l-2 -20q-1 -19 -4 -27q-5 -8 -21 -12q-13 -4 -28 -4q-7 -1 -28 1l-4 1q-4 0 -17 -1.5t-17 -1.5q-2 0 -12 0.5t-13 0.5q-11 0 -16 -1q-25 -4 -34 -4q-13 0 -38 7
q-1 1 -5 1q-3 0 -24 -7q-2 0 -4 -0.5t-4 -1.5h-1l-40 5l-26 -5l-25 -2l-37 -4q-25 0 -89 34q-7 3 -19 9q-29 17 -48 33q-42 36 -57 61q-42 71 -52 91q-13 25 -14 48l-4 38q-3 32 -3 50q0 29 5 62q1 6 2.5 14.5t1.5 10.5q0 3 14 34q12 43 17 55q20 38 69 86q17 16 26 21
l24 13q17 14 56 36q42 11 89 11zM388 634h-29q-25 0 -31 -1q-14 2 -65 -38q-2 -1 -34 -29q-5 -5 -26 -35q-11 -15 -19 -28q-10 -28 -13 -36q-14 -40 -17 -63q-2 -11 -4 -27t-3 -21l-3 -77q0 -41 21 -83q3 -8 10 -19q20 -44 66 -83q26 -16 55 -31q8 -3 23 -10q2 0 32 -10
l23 -7l11 -1h18q4 0 16 4q5 0 18 3q18 3 31 11q73 49 82 85q32 71 36 106q6 40 6 122q0 21 -9 60q-3 44 -42 102q-12 19 -30 40q-17 19 -38 37q-10 9 -24 14l-16 4q-1 0 -3.5 1t-5.5 2l-6 2q-15 6 -30 6z" />
    <glyph glyph-name="R" unicode="R" horiz-adv-x="503" 
d="M72 666h29l42 2q6 0 26.5 -2.5t26.5 -2.5q5 0 8 1q23 3 35 3q18 0 53 -5q2 -1 5.5 -1.5t5.5 -0.5q42 -6 50 -11q51 -38 68 -65q9 -15 16 -40l8 -17q8 -18 8 -44q0 -35 -18 -73q-6 -13 -25 -39q-3 -3 -36 -22q-22 -13 -22 -28q22 -22 28 -29q6 -10 13 -44q4 -19 15 -40
q3 -10 8 -31l5 -26q3 -37 16 -60q5 -8 14 -11q2 -1 24 -4q20 -2 20 -21q0 -11 -8 -19q-3 -5 -31 -18q-51 -25 -67 -25q-11 0 -20 12q0 3 -10 30l-4.5 13.5l-6 18l-5.5 16.5q0 1 -1 4.5t-2 12t-2 15.5l-9 38l-8 50l-6 24q-11 40 -19 51q-10 14 -36 30q-17 10 -43 10
q-11 0 -21.5 -10t-10.5 -21l1 -37q0 -3 -1 -6q0 -2 -1.5 -21t-3.5 -36l-3 -33q2 -36 13 -90q6 -13 19 -19q38 -18 38 -31q0 -12 -12 -13q-1 0 -32 -2l-32 1h-20q-35 5 -36 5q-4 0 -24 -5h-9h-22q-19 -1 -19 18q0 9 11 18q18 13 25 23q15 20 19 31q4 12 4 29l1 87v16.5
t0.5 16t1 14t0.5 10.5v4q0 -1 0 3.5t-0.5 9.5t-0.5 11q-1 17 -1 56l1 40l-2 53v18v20v10l-1 9q0 7 -0.5 17t-1 15.5t-0.5 8.5q0 7 -7 39q0 3 -7 32q-4 10 -20 20q-15 9 -15 17q0 10 4 14q6 6 20 6zM226 354h11h22q13 0 33 12q33 21 46 39q12 16 17 41q1 5 1.5 9.5t1.5 7.5
t1.5 5.5t0.5 3.5v2q0 11 -5 38q-2 7 -5 22q-4 24 -34 51q-17 23 -26 30q-18 12 -36 12l-19 -2q-28 -5 -30 -7q-9 -8 -18 -39q-8 -27 -8 -30l3 -31l-1 -38l2 -22v-14q0 -26 -1 -33q-1 -2 -1 -5q2 -16 3 -25q3 -19 8 -24q4 -3 34 -3z" />
    <glyph glyph-name="S" unicode="S" horiz-adv-x="523" 
d="M58 211q8 0 11 -7l20 -57l6 -12q2 -4 16 -31q2 -1 25 -21l18 -17q16 -14 34 -24q16 -13 21 -14q18 -7 21 -7l30 4q34 1 47 6.5t29 22.5q19 19 25 28l6 10t5 8l4 6l3 4.5t1 2.5q10 23 10 38q0 92 -98 125l-33 15l-69 19l-18 10q-12 6 -48 28q-13 13 -29 31q-28 33 -33 44
q-5 10 -9 22l-1 19q0 10 -0.5 20.5t-1 16t-0.5 7.5q0 23 13 50q8 17 25 40q12 17 53 47l20 14l14 7q42 20 80 20q54 0 65 -1q25 -1 74 -20q10 -1 28 -15q12 -15 20 -49q15 -61 13 -63v-9l3 -21q0 -10 -10 -10q-11 0 -19 8q-5 6 -16 34q-5 10 -21 26q-1 1 -25 17l-12 10
l-10 8q-30 30 -34 33q-13 9 -31 9q-6 0 -29 -3q-30 -4 -39 -8q-15 -6 -26 -20q-25 -28 -29 -34q-11 -21 -13 -30q-3 -15 -3 -23q0 -22 14 -53q10 -24 53 -47q11 -7 39 -13l11 -2q9 -3 41 -10q6 -2 34 -18q17 -7 31 -14q15 -8 28 -20q42 -36 52 -54q9 -18 18 -35l13 -26
q6 -35 6 -64l1 -23q2 -38 -36 -81q-10 -13 -42 -41q-5 -5 -34 -22q-29 -15 -37 -17q-24 -6 -40 -5l-57 3h-26l-17 1l-33 8q-32 6 -65 12q-41 12 -44 38l-4 26q-4 22 -5 47q0 15 -1 31q-1 7 -1 14q0 51 18 51z" />
    <glyph glyph-name="T" unicode="T" horiz-adv-x="517" 
d="M299 156v-57q0 -57 51 -71q2 -1 7.5 -9.5t5.5 -11.5q0 -12 -21 -12h-10h-6q-42 2 -63 5h-2q-6 0 -25 -4q-14 -2 -21 -2q-6 0 -36 3q-3 1 -6 1t-13 -2t-14 -2q-11 0 -11 9q0 10 12 19l10 5t11.5 6t10 6t9.5 7.5t7 8.5t6 11q8 21 11 72v10v19v18l-2 70v11l1 49l1 21
q0 22 1 36q1 15 1 25q0 4 -1 11q0 2 -2 52v18l1 57q0 8 -4 23l-3 12q-4 19 -11 20h-17q-9 0 -22 4q-9 4 -16 4q-27 0 -47 -14q-11 -8 -20 -23q-5 -13 -14 -40q-6 -17 -24 -17q-10 0 -10 14l1 82q0 3 -1 4l-4 32t-3 22.5t-1 7.5q2 5 13 5l8 -2q50 -12 76 -12q2 0 6 1t12 2
l16 2q48 0 75 5q16 2 17 2q-5 0 18 -3l62 -9q23 -3 35 -2q4 0 13 1q11 2 33 4q32 2 45 4q1 0 4.5 1t9.5 2.5t12 3.5q17 5 25 5q17 0 17 -13q0 -4 -8 -23l-4 -10q-7 -16 -15 -54t-15 -54q-6 -11 -18 -11q-13 0 -14 22q-1 30 -19 46q-9 6 -37 8q-1 0 -11.5 2.5t-20.5 4.5
q-3 1 -8 1q-9 0 -21 -6q-4 -1 -15 -22q-12 -17 -11 -26l1 -29l3 -24v-12l1 -20q0 -29 -1 -43l-2 -20v-15v-34v-6v-34l1 -33q0 -3 -1 -8q-4 -31 -4 -54z" />
    <glyph glyph-name="U" unicode="U" horiz-adv-x="699" 
d="M488 626q-10 9 -21 15q-16 9 -16 16q0 10 26 10q15 0 43 -4q14 -2 29 -2q1 0 13 1t17 1h44l27 1q18 2 18 -13q0 -11 -24 -34l-12 -7q-5 -2 -11 -5q-9 -7 -20 -34q-6 -13 -6 -32q0 -7 1 -17q1 -11 1 -32l2 -94l-2 -22v-20l-2 -26l-1 -67q0 -7 3 -39q1 -7 1 -13
q0 -15 -6 -44q-4 -15 -4 -21q-3 -15 -5 -21q0 -1 -1 -3.5t-2.5 -7.5t-3.5 -10q-11 -32 -26 -48q-48 -54 -84 -61q-1 0 -5.5 -1t-9.5 -2l-10 -2q-3 -2 -45 -3q-27 -4 -42 -4q-36 0 -67 9q-77 22 -91 30q-22 10 -45 41q-4 4 -11 13q-19 22 -25 38q-12 35 -12 76v7l1 28l-2 34
l-4 22q0 9 -1 36.5t-1 35.5q0 56 8 86l2 6l-8 58q0 1 0.5 4t1 8t0.5 9v14q0 75 -37 93q-17 7 -21 13q-3 2 -3 7q0 14 24 14l24 1h11q5 -1 9 -1q14 0 29 1h30q21 0 29 1q6 1 32 1l38 1q29 0 29 -19q0 -8 -6 -16q-4 -4 -26 -10q-38 -14 -51 -41q-8 -21 -8 -46q-2 -26 0 -55
l2 -22q1 -5 1 -15t1 -15q0 -2 -0.5 -5.5t-1 -11t-0.5 -14.5v-12q0 -5 -1 -14.5t-2 -16t-1 -8.5t5 -72v-13v-18l-1 -18q-4 -67 9 -92q25 -45 30 -53q7 -8 30 -20q4 -2 27 -18q10 -7 17 -7q10 0 40 6q2 1 5 1l49 -2q17 2 50 15q34 19 42 30q2 2 22 37q19 33 21 41q0 11 3 46
l4 55l4 92l-2 25l-1 54v6l1 23q0 1 -1 3q-2 12 -3 25q0 5 -9 26q-2 7 -8 49q-1 5 -1.5 8.5t-1.5 6t-2 3t-2 0.5l-21 16q-4 3 -19 25z" />
    <glyph glyph-name="V" unicode="V" horiz-adv-x="594" 
d="M30 673l19 -2l10 -1q15 -1 47 -3q14 -1 24 -1q11 0 44 4l18 -2q16 3 21 3q35 0 35 -16q0 -7 -18 -19q-44 -32 -42 -48l1 -13q0 -37 3 -50q5 -12 11 -33l15 -45l15 -31l8 -27q21 -48 25 -61q2 -5 6 -37q0 -4 10 -28l14 -34l11 -25q12 -29 17 -29q6 0 19 33q2 5 4 10.5
t2 6.5q4 11 10 25q3 10 8.5 31t8.5 30l15 46q1 4 20 39l9 25l16 33l9 29l10 24l4 22l6 22q9 30 9 40q0 11 -28 33q-25 19 -25 35q0 11 15 11q12 0 17 -1q45 -6 54 -6q5 0 9 1q40 5 53 5q19 0 19 -20q0 -9 -5 -17q-2 -2 -19 -8q-13 -4 -25 -26q-2 -3 -23 -56l-24 -50l-18 -53
q-13 -28 -29 -74q-10 -32 -22 -61l-11 -27q-1 -3 -40 -101l-18 -46l-16 -46q-18 -55 -32 -84q-9 -15 -19 -15q-7 0 -11 6q-1 1 -10 39q-7 28 -26 67l-6 22l-8 26l-7 24l-18 61q-8 37 -11 44q-1 3 -44 104q-1 4 -8 28q-14 52 -43 117q-3 6 -27 50q-10 18 -22 37q-2 2 -29 25
q-11 9 -11 19q0 18 24 19z" />
    <glyph glyph-name="W" unicode="W" horiz-adv-x="819" 
d="M354 668h42h15q10 1 14.5 -5t4.5 -18q0 -17 -3 -18l-21 -14q-5 -3 -5 -12q0 -13 20 -64q9 -20 26 -20q7 0 14 6q2 2 5 15q9 25 10 34q2 20 2 24q0 11 -8 22q-3 4 -20 9q-7 1 -7 11q0 8 7 22q4 10 15 10q2 0 12 -0.5t14 -0.5h25q20 1 52 1q27 0 27 -21q0 -10 -7 -17
q-5 -5 -25 -20q-17 -11 -43 -57q0 -1 -14 -25q-4 -11 -14 -51q0 -1 -13 -30q-3 -6 -3 -12q0 -5 3 -18q1 -3 3.5 -11t7 -23t9.5 -29q3 -12 18 -65q8 -18 24 -62l3 -16q9 -46 19 -46q7 0 17 30q14 37 24 73l11 40q10 36 16 57q9 20 17 36q2 3 17 52l8 27l6 26q9 39 9 45v4.5
t-0.5 3t-1 3.5t-1.5 3.5t-3 5t-3.5 6t-5 8.5t-6.5 11q-2 5 -6.5 14.5t-7.5 14.5l-15 10q-4 4 -4 14q0 6 6 13.5t12 6.5q56 -6 66 -6q40 0 43 1h24q29 0 29 -21q0 -7 -6 -12l-25 -16q-18 -14 -32 -47q-20 -46 -29 -67q-3 -10 -44 -143q-18 -56 -48 -144q-23 -75 -40 -135
q-6 -21 -12 -56q-5 -41 -25 -41q-9 0 -15 7q-5 12 -14 36l-12 34l-12 36l-15 29l-6 19l-12 21l-9 33q-16 41 -24 68q-6 20 -11 20q-7 0 -17 -22q-6 -14 -14 -38l-13 -33l-22 -81q-35 -87 -36 -97q-6 -28 -17 -28q-5 0 -15 11.5t-11 17.5l-8 26l-10 25l-20 60l-25 62l-11 34
l-8 18l-16 50l-17 42l-21 61l-17 45l-9 32q-8 32 -18 54l-6 12q-25 55 -37 68q-10 10 -28 19q-21 11 -21 30q0 18 21 18q27 0 69 -3q9 -1 19 -1t17 1l14 2q61 0 68 -4q14 -6 14 -29q0 -11 -3 -14l-17 -19q-14 -17 -14 -57q0 -41 13 -80q9 -32 43 -104l15 -51l20 -57l10 -39
q13 -38 15 -42q4 -9 12 -9q12 0 25 45q4 12 10 23q7 12 18 48q21 55 21 67q0 29 -38 103q-10 18 -22 61q-3 9 -17 46q-10 27 -26 56q-3 4 -25 16q-7 3 -7 19q0 22 25 21z" />
    <glyph glyph-name="X" unicode="X" horiz-adv-x="569" 
d="M160 -1h-15q-13 0 -39 6q-6 2 -10 2q-6 0 -24 -2t-22 -2l-12 -1h-10l-6 -1q-19 0 -19 18q0 8 7 15q2 3 30 14q8 3 16 11q15 20 28 37l21 26q5 5 23 30q0 1 19 35q0 1 3 5t9.5 13t12.5 19q4 7 7.5 14.5t5.5 11.5t3 5q1 2 4.5 7t9 13t11.5 17q10 16 10 38q0 10 -6 21
q-5 8 -16 21q-5 6 -7 13l-14 39q-6 15 -20 33l-22 42q-3 6 -15.5 29t-19.5 37q-11 23 -14 24q-1 0 -3.5 2t-7.5 5l-10 6q-4 1 -19 18q-3 3 -9 9.5t-10 10.5q-3 6 -3 11q0 15 28 14q8 0 15 1q20 1 46 1h2q1 0 6.5 -0.5t12.5 -0.5l24 -2l16 -2q21 -3 64 -5q9 0 9 -26
q0 -8 -5 -16q-1 -1 -5 -5.5t-8.5 -8.5t-8.5 -8q-10 -9 -10 -31q0 -12 5 -25q2 -5 29 -58l6 -17q16 -29 22 -35q10 -8 22 -8q9 0 23 15l2 2q2 3 4 5q5 5 39 52l10 13q5 10 18 26q19 23 23 32q6 14 6 28q0 18 -12 28q-5 3 -26 6q-11 2 -11 16q0 9 4.5 13.5t12.5 3.5l41 -1l8 2
q23 4 40 4q1 0 3 -0.5t5.5 -1t7.5 -0.5q28 0 42 -1q28 -1 28 -20q0 -9 -11 -15q-3 -2 -21 -9q-43 -11 -108 -113q-10 -17 -27 -40q-2 -3 -19 -28q-5 -5 -15 -16.5t-15 -17.5q-21 -26 -21 -37q0 -10 5 -20l23 -47q7 -11 27 -68q3 -3 18 -28l26 -41l11 -19q6 -14 15 -30
q6 -10 28 -29q9 -7 38 -36q25 -24 25 -31q0 -15 -14 -15l-21 1l-14 -1h-51l-30 2q-3 0 -6 -1h-9q-11 0 -43 6q-3 0 -9 0.5t-9 1.5q-25 1 -25 16q0 6 6 14q3 3 25 18q10 7 10 22q0 11 -1 19q-5 23 -14 36l-19 30q-2 3 -7 16q-7 23 -20 41l-25 37q-4 6 -7 6q-11 0 -30 -27
l-9 -11l-12 -18l-6 -8q-22 -39 -43 -68q-15 -18 -15 -38q0 -27 25 -55q20 -23 20 -31q0 -7 -8 -9q-1 -1 -23 -1z" />
    <glyph glyph-name="Y" unicode="Y" horiz-adv-x="567" 
d="M298 0q-3 0 -6 -1q-28 -2 -30 -2q-6 0 -11 1q-11 1 -19 1l-13 -1h-23q-23 -2 -23 10q0 9 7 12l22 10q8 5 27 34q20 25 20 36v5q0 4 -0.5 7t-0.5 5v3.5v1.5l3 59q0 15 3 45q0 5 1 8l-4 54q-2 19 -3 38q0 2 -24 42q-4 7 -34 59q-15 19 -21 27q-19 24 -28 41q-1 3 -20 33
q-23 38 -30 45l-20 19l-18 20l-15 13q-26 17 -28 19q-4 4 -4 10q0 4 4 8q1 1 40 3q30 3 33 3q6 0 29 -4q4 0 18.5 1.5t18.5 1.5q1 0 4 -0.5t8.5 -1t10.5 -0.5q2 -1 23 -1q29 0 29 -16q0 -6 -7 -13l-15 -17q-9 -9 -9 -21q0 -14 32 -63q19 -32 24 -36l4 -4l7 -7l8 -8
q5 -5 16 -25l14 -22q13 -28 19 -28q29 0 73 92l12 24q14 18 25 32q12 15 12 28q0 14 -11 31l-2 2q-1 2 -4 5t-5 6l-3 2q-2 1 -6 4.5t-9 7.5q-4 3 -4 10q0 16 29 16h10q6 0 13 -0.5t11 -1t6 -0.5q3 0 21 3q5 1 13 1q9 0 40 -4q28 -4 28 -18q0 -9 -5 -13.5t-33 -19.5
q-15 -7 -36 -33l-2 -3l-8.5 -8.5t-11.5 -12.5q-7 -8 -24 -43l-15 -22l-11 -17l-7 -10l-5 -7l-10 -15l-26 -39q-17 -20 -23 -35q-7 -21 -6 -55v-57v-8q-3 -26 -3 -28q0 -3 2.5 -16t1.5 -17l-2 -46l-1 -31q-1 -24 8 -44q7 -16 30 -36q17 -14 17 -23t-8 -7l-22 1q-5 -1 -21 -1z
" />
    <glyph glyph-name="Z" unicode="Z" 
d="M207 622q-49 0 -90 -23q-15 -8 -23 -26q-6 -16 -9 -25q-7 -16 -17 -16q-5 0 -9.5 4.5t-3.5 8.5l3 19l-1 25q0 4 2.5 19t2.5 19t-1 5q0 6 -0.5 12t-1 9.5t-0.5 4.5q0 14 12 14q2 0 29 -6q8 -2 12 -2h4q5 1 14.5 2.5t20.5 2.5q2 1 9 1q2 0 32 -5q17 -4 37 -4q8 0 40 4l64 2
q3 0 7 -1q34 -2 35 -2q2 0 6.5 0.5t13 1t17.5 0.5h18q32 0 32 -21q0 -14 -32 -67q-25 -42 -31 -56q-42 -89 -58 -127q-4 -7 -14 -27t-15 -29l-15 -25l-12 -31q-2 -4 -9 -19t-13 -26q-8 -13 -26 -36l-8 -15l-6 -13l-26 -62l-6 -9q-6 -14 -6 -25q0 -18 7 -25q13 -11 101 -11
q39 0 74 12q14 5 19 11q1 1 2.5 3.5t3.5 5.5l4 6q4 6 15 17q9 9 10 15q2 5 3 20q3 16 17 16q16 0 16 -22q0 -1 -0.5 -9.5t-0.5 -12.5v-21l-2 -20q-2 -37 -4 -53q-3 -10 -5 -10l-26 2q-3 1 -15.5 -1t-14.5 -2q-16 0 -19 -1l-19 -1q-2 0 -5 0.5t-9 1t-11 0.5q-9 1 -61 1
q-14 0 -50 -4h-17l-11 -1q-5 1 -21 3l-19 4q-12 4 -50 4q-5 0 -37 -5q-2 -1 -7 -1q-20 0 -20 17q0 21 15 43q22 36 47 84q6 8 27 44l6 12l11 17l5 10q0 1 8.5 15t13.5 24q5 12 8 15q13 19 18 32q10 17 42 99l18 37q4 5 19 29l17 26q15 25 27 53q12 19 12 33q0 22 -15 26
q-1 0 -25 2l-37 2h-24q-5 0 -9.5 0.5t-6.5 1.5h-3z" />
    <glyph glyph-name="bracketleft" unicode="[" horiz-adv-x="296" 
d="M126 688q1 0 4.5 -0.5t10 -1t12.5 -0.5l17 1q15 -3 18 -3q5 0 24 4l22 1q18 2 20 2q22 0 23 -19q2 -17 -9 -17l-28 1q-2 0 -3 -1q-1 0 -25 -2q-26 -1 -39 -51q-9 -40 -9 -65q0 -7 3 -49l-4 -56l1 -52v-35q-1 -16 -1 -30q0 -9 2 -35l-3 -39q-1 -7 4 -48v-2v-5
q-5 -35 -5 -45q2 -22 3 -39v-27q5 -23 6 -43q5 -48 23 -61q11 -8 18 -8h22q34 -1 34 -21q0 -14 -14 -12l-24 2l-22 -4q-2 0 -4 1q-13 4 -27 4q-1 0 -35 -2q-9 -1 -27 -1q-25 0 -33 11t-8 36q0 21 4 50q5 38 5 52v3q-1 2 -1.5 6.5t-0.5 10t-0.5 12t-0.5 12.5v2q3 27 3 33
q0 5 -3 38q-1 7 -1 17q0 15 3 44q1 6 1 12l-2 78q-5 42 -5 44q0 9 4 40q1 5 1 26q0 25 -1 43l-1 28q-1 4 -1.5 11.5t-0.5 11.5v13q0 20 11 72q0 1 2 31q0 21 37 21z" />
    <glyph glyph-name="backslash" unicode="\" horiz-adv-x="428" 
d="M38 698q11 0 20 -6q6 -4 17 -28q0 -1 4 -7.5t8.5 -15.5t6.5 -16q2 -5 19 -33q4 -6 18 -52l21 -43l6 -18q16 -25 31 -52q11 -19 32 -65q7 -18 15 -30l10 -27q1 -4 17 -28q13 -20 19 -32q4 -12 24 -54l28 -54l11 -29q11 -21 25 -38l9 -24l9 -17q3 -4 8.5 -15t8.5 -18
q7 -8 7 -14q0 -12 -21 -12q-16 0 -20 4q-3 4 -20 41q-2 4 -35 51l-7 24q-16 20 -22 34q-10 31 -13 38l-13 14l-12 20q-10 18 -11 20q-4 12 -7 28q-10 15 -17 28q-10 22 -27 63q-5 9 -8 14q-15 24 -33 63q-13 29 -51 95q-8 12 -18 49q-6 14 -22 43q-6 13 -19 40
q-19 38 -19 44q0 15 21 15z" />
    <glyph glyph-name="bracketright" unicode="]" horiz-adv-x="296" 
d="M39 -35q2 0 7.5 -1t6.5 -1l16 2q20 2 25 4q17 8 25 32q12 37 12 66q0 4 -1 7q-1 13 -1 40q0 18 4 46q2 14 2 15q0 10 -3 34q-1 10 -1 26q0 4 2 46q1 11 1 20q0 4 -2 36q-2 34 -2 36l-1 47q7 41 7 53q-2 21 -2 38l-1 38l-5 22l1 31q0 6 -9 31q-5 9 -22 18q-7 4 -14 4h-16
q-38 2 -38 21q0 8 3 11t10 2l23 -2q16 4 21 4q4 0 24 -4q5 -1 13 -1h7q25 3 28 3q37 0 45 -2q19 -7 19 -44q0 -27 -1 -43q-6 -86 -6 -116v-25q0 -6 4 -42q1 -3 1 -20q0 -18 -1 -23l-3 -42q0 -7 2 -37l3 -36q-2 -51 -5 -69q0 -12 -1 -32l-1 -13l2 -22l-1 -15l2 -35v-18v-35
q0 -2 -1.5 -8.5t-4 -16.5t-4.5 -21q0 -26 -3 -31q-5 -8 -23 -11q-2 -1 -6.5 -1.5t-6.5 -0.5q-6 0 -30 2.5t-32 2.5l-24 -5l-45 -2q-19 -1 -19 17q0 20 20 20z" />
    <glyph glyph-name="asciicircum" unicode="^" 
d="M524 286h-37l-204 313l-209 -313h-97l275 414h6z" />
    <glyph glyph-name="underscore" unicode="_" 
d="M0 -87h500v-42h-500v42z" />
    <glyph glyph-name="grave" unicode="`" 
d="M182 519q8 0 19 -7q2 -1 40 -42q1 -1 4 -3.5l9 -7.5t11 -9q18 -14 18 -27q0 -10 -10 -10q-5 0 -35 13l-41 12l-13 4q-22 7 -28 10q-13 7 -13 23t12 30t27 14z" />
    <glyph glyph-name="a" unicode="a" horiz-adv-x="334" 
d="M163 320h-13q-15 -2 -18 -5l-2 -2q-1 -2 -4 -5t-5 -6q-6 -6 -19 -15q-14 -10 -20 -10q-18 0 -18 23t20 40q6 6 32 14l12 6q16 8 27 8q37 0 53 -6q24 -8 49 -45q11 -17 11 -42q0 -1 -0.5 -7.5t-0.5 -10.5l-1 -129q0 -17 1 -28q3 -14 18 -32q7 -9 13 -10l15 -6q2 -2 2 -5
q0 -6 -16 -26q-23 -29 -46 -29q-8 0 -20 5q-2 1 -16 12q-10 8 -15 8q-1 0 -11.5 -6.5t-29.5 -12.5t-42 -6q-44 0 -77 33q-8 8 -10 23q-1 2 -1.5 5t-0.5 5q-1 12 -3 17q0 4 1 7l2 29q2 18 12 33q20 26 66 51q1 0 6 2t14.5 6.5t20.5 8.5q25 9 38 22q15 16 15 31q0 9 -16 35
q-12 18 -23 20zM196 204q-9 0 -30 -18q-2 -1 -8 -7q-21 -16 -30 -25q-26 -32 -26 -61q0 -21 15 -31q23 -17 47 -17q32 0 37 51q0 3 1.5 18t3.5 29q1 7 1 13l-1 20q-2 19 -2 20q-2 8 -8 8z" />
    <glyph glyph-name="b" unicode="b" horiz-adv-x="422" 
d="M73 146q0 21 3 85q1 7 1 17q0 18 -3 61q-1 12 -1 25q0 8 1.5 35.5t1.5 34.5q0 42 -4 71q-1 15 -4 30q-2 24 -5 37q-8 25 -13 23l-14 7q-16 7 -16 22q0 10 27 21q41 15 69 39q8 7 22 7q17 0 17 -19q0 -1 -2 -11q-12 -45 -11 -66l1 -43v-4q-1 -5 -1 -25q0 -17 3 -76
q1 -12 1 -24q0 -43 3 -49q1 -4 5 -4q1 0 15 11q10 8 35 13l11 1h32q31 0 69 -32q69 -56 74 -116l4 -68q0 -65 -54 -119q-40 -39 -114 -39q-29 0 -46 14t-14 14q-4 -1 -22 -15q-5 -4 -9 -4l-35 1q-10 0 -17 -1h-18q-25 0 -25 12q0 5 8 13q23 23 25 29q2 18 2 31zM184 301
q-18 0 -28 -16q-10 -13 -10 -32v-14v-10q0 -18 -1 -30q-1 -6 -1 -14q0 -5 0.5 -24t0.5 -25q0 -21 5 -36q7 -16 20 -34q16 -22 21 -27q11 -8 14 -8l15 -1q3 0 12 -1t11 -1q40 0 61 44q16 33 16 79q0 70 -29 111q-12 16 -28 22q-8 4 -35 12l-23 2q-23 3 -21 3z" />
    <glyph glyph-name="c" unicode="c" horiz-adv-x="339" 
d="M183 366q29 1 65 -1q35 -3 58 -33q11 -17 11 -33q0 -12 -8.5 -21.5t-19.5 -9.5q-27 0 -59 39q-14 18 -26 19q-7 1 -40 3q-20 -1 -42 -33q-16 -22 -16 -82q0 -2 0.5 -8.5t0.5 -8.5v-26q0 -2 12 -26q4 -8 7.5 -15.5t5.5 -11.5l1 -3q11 -25 27 -48q7 -9 25 -21
q19 -12 29 -11h13q35 2 60 14q13 8 17 8q5 0 5 -5t-12 -14q-56 -45 -71 -45q-61 0 -91 13q-15 7 -37 24q-15 12 -31 34q-14 18 -22 36q-4 14 -8 39q-9 42 -9 54q0 64 42 112q23 27 40 38q33 21 73 23z" />
    <glyph glyph-name="d" unicode="d" horiz-adv-x="405" 
d="M191 363q28 0 46 -21q9 -11 12 -11q7 0 7 13q0 2 -1 12t-1 13l3 28l1 22q0 11 2 33q1 9 1 17q0 4 -1 19.5t-1 21.5v31q0 12 -10 25q-1 2 -24 15q-5 3 -5 13t11 18q3 2 15 9q15 4 48 23q17 14 33 14q20 0 20 -18q0 -5 -2 -15q-5 -23 -7 -48q-2 -9 -6 -47q-1 -2 -1 -8
q0 -8 1.5 -36.5t1.5 -36.5q0 -2 -1 -15.5t-1 -19.5l-1 -41l-1 -286q0 -13 3 -20l9 -14l8 -18q10 -16 10 -23q0 -15 -24 -15q-3 0 -23 2q-2 1 -7 1q-2 0 -9.5 -0.5t-9.5 -0.5q-20 0 -25 5l-9 17q-1 1 -4 1q-5 0 -27 -12q-18 -9 -22 -9l-18 -1l-22 -4q-10 0 -32 7
q-24 7 -33 15q-18 15 -28 32q-17 24 -26 45q-13 25 -13 57q0 114 48 164q24 26 81 39zM205 288q-29 0 -54 -9q-30 -11 -46 -45q-11 -24 -11 -94q0 -30 25 -67q18 -28 57 -28q44 0 64 36q17 31 17 55l-1 47q0 4 1 6l2 19l-4 29q-2 28 -5 34q-15 17 -45 17z" />
    <glyph glyph-name="e" unicode="e" horiz-adv-x="328" 
d="M178 367q56 0 106 -54q22 -25 22 -47q0 -35 -31 -35q-3 0 -13 1t-13 1q-16 0 -27 -1q-26 -2 -28 -2h-9h-6q-14 0 -20 1q-29 3 -36 3q-20 0 -34 -13q-7 -6 -7 -20q0 -8 1 -17q5 -39 7 -44q8 -16 39 -42q23 -20 36 -24q19 -6 34 -6q19 0 59 9q13 3 26 10q4 2 6 2q7 0 7 -8
q0 -5 -4 -13l-1 -1q0 -1 -0.5 -3t-0.5 -4q-6 -20 -17 -31q-2 -2 -14 -11q-15 -11 -31 -18q-19 -8 -59 -8q-11 0 -38 9q-25 10 -26 11q-11 7 -28 30q-10 13 -37 58q-14 42 -14 61q0 1 6 39q11 66 30 88q11 16 33 45q40 34 82 34zM163 331q-27 0 -47 -21q-13 -14 -13 -29
q0 -10 9 -13q16 -6 92 -6q26 0 26 15q0 19 -21 39q-17 15 -46 15z" />
    <glyph glyph-name="f" unicode="f" horiz-adv-x="229" 
d="M58 349l-31 -1q-9 2 -9 11q0 11 25 18q26 9 26 20l-1 50q0 1 13 60l2 10q1 11 19 65q9 26 47 58q25 20 51 20q15 0 36 -12q16 -10 16 -38q0 -31 -25 -31q-13 0 -22 4q-5 2 -15 19q-4 9 -16 9q-19 0 -23 -25l-4 -24q-11 -52 -9 -57l1 -24l1 -28l2 -23q3 -22 4 -29
q4 -9 22 -14q40 -10 40 -26q0 -6 -4 -10q-2 -2 -41 -5q-12 -2 -15 -17q-6 -33 -6 -57l1 -26l-1 -22l1 -25q0 -3 -0.5 -11t-0.5 -10q0 -18 6 -75q1 -19 6 -40q17 -32 58 -41q8 -2 8 -12q0 -8 -11 -10h-24h-21h-13h-4h-22h-41h-7q-65 0 -65 18q0 12 19 16q10 2 29 14
q8 5 10 13l1 24l3 22l1 19q2 40 1 48q0 9 -1 25.5t-2 24.5q-1 13 -1 21q0 14 4 47q0 42 -3 46q-5 8 -15 11z" />
    <glyph glyph-name="g" unicode="g" horiz-adv-x="387" 
d="M217 366q10 0 22 -2q13 -6 39 -19q2 -1 9 -1q2 0 13 10.5t20 10.5q14 0 24 -10.5t10 -23.5q0 -10 -5 -20q-1 -1 -3 -3.5t-6.5 -7t-8.5 -9.5q-3 -3 -3 -15q0 -8 2 -22l3 -27v-30q0 -27 -3 -40q-4 -19 -23 -42q-7 -9 -25 -21q-22 -17 -34 -22q-4 0 -25 -4
q-10 -1 -19.5 -2.5t-13.5 -1.5l-5 -1h-9q-45 3 -52 3q-20 0 -20 -15q0 -20 39 -26l54 -7l52 1q2 0 24 -13q25 -9 42 -21q23 -15 41 -52q4 -12 3 -52l-1 -16v-12l-1 -17q-1 -32 -10 -54q-15 -32 -50 -52q-2 -1 -13 -8q-50 -34 -96 -34q-56 0 -87 19q-30 18 -44 35
q-29 37 -29 71q0 29 4 62t33 54q22 16 22 23q0 1 -4 6.5t-7 12.5t-7 17.5t-6 26t-2 33.5q0 10 2 16l18 28q-16 17 -22 33q-16 31 -16 91q0 54 26 89q19 26 41 38q11 6 34 11q6 2 21 9q6 3 52 3zM221 -75q-2 0 -11.5 -1.5t-13.5 -1.5h-4q-3 1 -11.5 2.5t-17.5 2.5
q-16 -5 -32 -23q-5 -5 -9 -8q-30 -25 -30 -70q0 -34 16 -57q21 -34 81 -34q79 0 122 51q12 14 12 42q0 25 -16 45q-16 19 -49 38l-10 6q-16 8 -27 8zM180 311q-24 0 -46 -18q-1 -1 -13 -18q-22 -31 -22 -47q0 -37 6 -49q0 -3 11 -23q28 -52 53 -52q62 0 81 28q1 4 11 20
q12 24 12 37q0 39 -14 78q-5 15 -20 26q-18 6 -25 8q-27 10 -34 10z" />
    <glyph glyph-name="h" unicode="h" horiz-adv-x="408" 
d="M138 663q9 0 18 -9q6 -6 6 -8q-10 -70 -10 -81v-32v-13q1 -19 1 -43v-17l1 -28q-2 -5 -3 -19q-5 -45 -5 -47q0 -13 9 -13q3 0 20 12q10 6 34 6q36 0 70 -19q26 -16 37 -30q7 -10 14 -41q7 -33 9 -65q2 -13 3 -34q1 -3 1 -6q0 -4 -1 -7q-1 -8 -1 -18l1 -32v-32
q0 -23 2 -41q1 -10 13 -20q18 -15 18 -22q0 -8 -19 -8q-6 0 -51 8q-3 1 -13 1q-5 0 -8 -1l-29 -5q-10 0 -10 10q0 9 7 19q11 16 17 37q2 14 2 42q0 1 1.5 10.5t2.5 23.5t1 26q0 11 -7 33q-5 18 -5 48q0 2 0.5 10.5t0.5 11.5q0 20 -15 40q-15 22 -34 22q-24 0 -40 -10
q-28 -14 -26 -52l3 -49l1 -41q-4 -24 -4 -32q0 -12 5 -42q1 -1 1 -5q-3 -29 -3 -32q0 -11 5 -26q1 -6 17 -20q13 -10 13 -19q0 -7 -15 -7q-12 0 -41 4q-13 0 -35 1l-14 1q-24 -4 -34 -4q-20 0 -20 9q0 6 7 11q3 2 18 11q9 6 12 15l2 14q7 21 7 37q0 11 -1 16q0 13 -1 33v18
v17v11l2 10l1 40l3 31v10q0 24 -6 72l1 11q0 -1 0.5 15.5t0.5 34.5l1 31v11l-1 25q0 1 0.5 4.5t1 10.5t0.5 14q-5 21 -10 34q-4 9 -7 10l-22 8q-10 1 -10 13q0 10 30 26q10 5 35 26q2 2 8 7.5t10 9.5q18 18 27 18z" />
    <glyph glyph-name="i" unicode="i" horiz-adv-x="212" 
d="M132 364q14 0 14 -21q0 -7 -3 -34l1 -9v-12q0 -5 -2 -43q-2 -36 -2 -41l3 -26v-76l2 -15q1 -30 14 -47q14 -22 14 -29q0 -14 -30 -14q-3 0 -27 2q-7 1 -20 1h-7l-33 -3q-12 1 -12 16q0 6 1 7q5 4 18 21q9 11 7 13v30l4 29l1 70q0 3 -3 34v2q0 5 2 17l1 11q1 3 1.5 10
t0.5 10q0 7 -6 14q-4 4 -23 18q-2 4 -2 10q0 12 17 20q18 8 26 14q35 21 43 21zM100 492q20 0 36 -12q17 -12 17 -32q0 -14 -15 -32q-14 -18 -28 -18q-12 0 -35 14q-11 4 -12 18q-3 20 -3 21q0 11 11 28q9 13 29 13z" />
    <glyph glyph-name="j" unicode="j" horiz-adv-x="220" 
d="M75 76v63q0 3 -2 29q0 12 -1 34q0 8 -7 37q-1 7 -5 25q-2 4 -18 21q-3 3 -3 14q0 15 10 19l3 1q2 1 8 3t11 4l24 15q19 9 28 16q20 17 25 17q14 0 14 -18q0 -26 -16 -52q-4 -7 -4 -8l4 -36v-3q-3 -12 -3 -28q0 -29 3 -64q1 -3 1 -9q0 -3 -1 -7q-3 -35 -3 -102q0 -3 1 -13
t1 -13l-9 -90l-1 -16l-2 -16q-1 -5 -2.5 -17t-2.5 -17q-3 -11 -16 -31q-8 -14 -32 -45q-19 -19 -29 -19t-10 11q0 13 13 35q6 10 9 31l3 11q1 15 8 44l-2 20l2 23q-3 19 -3 21q0 4 3 30v39v7zM96 488q26 0 43 -18q9 -10 9 -25q0 -20 -22 -39q-14 -11 -22 -11q-12 0 -34 13
q-7 4 -10 12q0 1 -0.5 3t-1 5.5t-0.5 6.5l-3 16q0 4 6.5 16t10.5 15q8 6 24 6z" />
    <glyph glyph-name="k" unicode="k" horiz-adv-x="412" 
d="M146 458v-19q2 -13 0 -36q-1 -17 -1 -35q0 -16 3 -40q2 -12 2 -14q0 -7 -6 -34q-4 -15 -4 -30q0 -21 12 -21q6 0 14 6l16 14q20 11 23 14q9 9 17 19q29 20 49 46q1 12 12 33q6 8 12 8l26 -1q3 0 14 1t14 1q39 0 39 -12q0 -7 -20 -18q-2 -1 -42 -28l-31 -17
q-24 -14 -35 -23q-28 -21 -28 -35q0 -9 30 -40q4 -4 23 -40q8 -15 30 -41q27 -43 31 -48q5 -7 29 -26q15 -10 15 -28q0 -15 -15 -15q-8 0 -24 1h-7q-15 0 -29 -1q-7 -1 -16 -1l-29 -1q-22 1 -22 12q0 8 7 15q11 11 11 16q0 2 -3 7q-11 17 -17 44q-1 5 -14 18q-1 3 -9 16
q-3 7 -21 20q-8 5 -12 12q-24 37 -35 37q-9 0 -9 -26q0 -17 -5 -37l3 -43q0 -2 -0.5 -9t-0.5 -9q0 -21 23 -47q11 -11 11 -17q0 -8 -15 -8q-9 0 -30 6q-3 1 -9 1q-5 0 -28 -4q-18 0 -37 -1h-22q-12 -2 -12 7q0 6 4 10l1 1q1 0 3 1.5t4.5 3.5t6.5 5l8 6q11 8 12 24l6 40l4 21
q0 1 0.5 4.5t1 10.5t0.5 13q2 23 1 29l-1 19l1 19q0 3 -0.5 11.5t-0.5 10.5v14q1 6 1 39l1 26q0 22 -1 38v38v7v11l1 24q0 4 0.5 8.5t0.5 8.5v3q0 6 -2 30q-1 39 -9 62q-5 11 -9 15q-12 6 -20 13q-3 3 -3 6q0 6 26 14q2 1 51 22q16 7 35 26q7 9 15 9q9 0 9 -13t-7 -27
q-12 -27 -14 -37q-5 -35 -5 -69v0q0 -20 1 -46z" />
    <glyph glyph-name="l" unicode="l" horiz-adv-x="213" 
d="M140 647q10 0 10 -13l-4 -20l2 -31v-2q-1 -2 -1.5 -5.5t-0.5 -6.5l-2 -27q0 -16 -1 -31v-4l2 -52l-1 -10l-4 -93l4 -88l2 -66v-9q-3 -23 -3 -28v-1l0.5 -1.5t0.5 -4t0.5 -6t1 -7.5t1 -9t1.5 -11q1 -8 7 -44q8 -20 13 -32l5 -7l13 -12q3 -5 3 -13q0 -10 -8 -12
q-9 -1 -31 -1h-15h-14h-5q-4 0 -10 -0.5t-10 -0.5h-7l-19 1h-3q-22 -2 -25 -2q-14 0 -14 9q0 8 4 12l18 20l9 13q8 15 11 23q2 10 2 30l3 29l1 12l1 10l-3 42v33q0 10 -1 15v7q0 7 5 54v3v5q-3 18 -3 20v38q0 4 1 32.5t1 41.5q0 18 -1 22l-8 27q-1 15 -6 26q-7 12 -11 14
l-22 12q-4 1 -4 14q0 14 35 31q8 3 23 18l23 14q6 4 12.5 8t10 6.5t6.5 4t4 2.5z" />
    <glyph glyph-name="m" unicode="m" horiz-adv-x="644" 
d="M440 330q-28 0 -48 -19q-15 -14 -20 -25q-3 -8 -6 -31q0 -4 -3 -16q-6 -23 -6 -40q0 -5 1 -11q0 -14 1 -20q2 -55 4 -68q2 -11 4 -35q0 -8 8 -19q9 -9 38 -31q3 -1 3 -6q0 -9 -36 -9q-4 0 -21 2t-22 2t-23 -3q-8 -1 -26 -1q-26 0 -26 12q0 5 9 20q15 21 15 94l-3 50
q0 4 3 32q1 9 1 21q0 24 -15 60q-15 37 -57 37q-31 0 -52 -26q-9 -11 -14 -25q-5 -17 -3 -25q1 -13 1 -24q0 -14 -3 -42l-1 -9l-1 -11l1 -25l-1 -36q6 -35 7 -38q1 -2 13 -27q23 -25 23 -28q0 -8 -17 -8q-6 0 -28 3h-7q-9 0 -19 -1h-6q-6 0 -12 1h-8q-4 0 -20 -1.5t-20 -1.5
q-11 0 -11 10q0 8 3 11l21 21q8 8 13 23v29q1 4 1.5 12t0.5 12q1 7 1 13q0 9 -1 17q0 16 -0.5 32.5t-1 24.5t-0.5 11q0 6 2.5 25.5t2.5 24.5q0 23 -14 32q-18 14 -18 18q0 6 3 8l29 17q13 9 43 29q6 3 10 3q11 0 12 -10q3 -22 7 -22l26 13q7 4 44 9q21 4 42 4q43 0 73 -43
q8 -9 12 -9q3 0 20 17q11 11 45 28q25 12 26 12q2 1 25 1q25 0 50 -13q29 -13 60 -60q6 -19 6 -44q0 -15 -1 -30q-1 -5 -1 -16q0 -2 0.5 -6.5t1 -13.5t0.5 -17q2 -30 2 -42q0 -9 -1 -16q-1 -14 -1 -33q0 -22 21 -48q6 -8 24 -21q4 -3 4 -7q0 -10 -31 -10q-32 0 -49 3l-11 2
l-63 -3q-9 0 -9 15q0 7 10 20q14 18 15 21q4 7 6 23q0 2 4 31q2 13 3 27l1 5v9v10q0 7 -1 19l-1 13v18q1 15 1 37q0 44 -23 67q-17 15 -41 15z" />
    <glyph glyph-name="n" unicode="n" horiz-adv-x="399" 
d="M134 369q4 0 6 -3l3 -22q2 -2 4 -2q3 0 28 16q19 12 48 12q11 0 46 -9q33 -4 47 -28q13 -36 14 -57l2 -13v-19l2 -30q0 -1 -0.5 -5t-1 -11t-0.5 -14l2 -42q1 -29 7 -54q1 -8 8 -25q3 -10 19 -30l16 -20q0 -13 -22 -13h-13q-7 0 -13.5 0.5t-9.5 1.5h-3q-1 0 -31 -2
q-5 -1 -9 -1q-36 2 -37 2q-11 2 -11 12q0 5 15 22q3 3 10 23l7 20l-2 47q1 3 2 8q3 17 3 39q0 94 -8 115q-17 42 -52 42q-28 0 -45 -17q-1 -4 -8 -19l-10 -22v-29l-2 -11v-11q0 -3 -1 -8q-1 -1 -1 -12q-2 -21 -4 -32q4 -33 4 -41q0 -3 -1 -14t-1 -13l1 -2q0 -2 1 -8.5
t2 -13.5l2 -18q2 -8 9 -23q10 -12 24 -21q3 -2 3 -6q0 -8 -17 -8q-10 0 -45 5l-27 2q-10 0 -35 -6q-3 -1 -10 -1q-23 0 -23 14q0 8 20 22q7 4 21 34q4 10 6 38q3 40 3 67v30l1 28q0 26 -10 37q-4 4 -19.5 11.5t-17.5 10.5q-2 6 -2 8q0 7 14 15q45 23 51 27q36 27 41 27z" />
    <glyph glyph-name="o" unicode="o" horiz-adv-x="422" 
d="M268 0q-25 -7 -45 -7q-56 0 -103 31q-33 22 -43 32q-49 49 -49 103v10.5t0.5 22.5t0.5 20q0 31 6 41q31 66 96 93q27 11 40 14q30 6 48 6q35 0 46 -3q1 0 36 -15q24 -10 37 -28l14 -18q35 -40 35 -104q0 -56 -31 -119q-14 -31 -52 -56q-27 -19 -36 -23zM184 325
q-18 0 -31 -8q-27 -21 -43 -51q-11 -22 -11 -63q0 -36 1 -47q0 -4 13 -40q1 -4 4.5 -14.5l5.5 -16.5q12 -16 20 -19l12 -6l14 -7q26 -17 31 -17q26 0 55 16q27 14 42 59q12 37 12 74q0 17 -4 24l-11 28q-12 30 -20 47q-27 41 -90 41z" />
    <glyph glyph-name="p" unicode="p" horiz-adv-x="401" 
d="M151 335q7 1 18 11q25 21 53 21q42 0 78 -17q31 -15 41 -33q3 -4 10 -21q8 -17 17 -50q3 -9 4 -20q0 -30 1 -65l1 -26q1 -29 -32 -76q-22 -28 -52 -49q-23 -12 -26 -13q-6 -3 -31 -6l-20 -2l-57 12q-10 -1 -11 -43l-1 -13l3 -35l-1 -97q0 -33 27 -49q1 0 5 -2t11 -5
l14 -6q5 -2 5 -10q0 -12 -15 -12q-4 0 -15.5 0.5t-13.5 0.5q-10 0 -41 -3q-3 -1 -5 -1q-4 0 -21 1.5t-21 1.5q-2 0 -12 -0.5t-12 -0.5q-22 0 -22 14q0 4 8 10q18 14 22 23q5 13 9 25q0 8 2 66l3 41q0 1 -1 4l-2 66v11l1 40l-1 18q0 5 1 12q0 3 0.5 6t1 5t0.5 3v2l-2 26
l-1 25q0 14 -1 21q-1 6 -1 10l1 25l1 48l3 26q0 13 -12 24q-5 3 -17 7q-9 4 -9 14q0 9 11 17q7 5 38 22q10 10 20 23q20 23 41 23q15 0 15 -16q0 -12 -6 -21q-5 -8 -5 -11zM199 303q-39 0 -49 -25q-1 -2 -7 -60l1 -25l-1 -17v-43v-13l2 -20v-20q12 -30 12 -31q12 -17 52 -18
q3 0 25 -2q20 -2 39 22q34 40 34 92q0 160 -108 160z" />
    <glyph glyph-name="q" unicode="q" horiz-adv-x="409" 
d="M165 368l22 -3q16 -2 25 -5q22 -12 27 -12q4 0 6 1.5t1 4.5l-6 32q-1 5 8.5 10.5t15.5 5.5q11 0 24 -10q11 -11 24 -25l23 -17q33 -25 36 -32q1 -3 1 -6q0 -7 -5 -15q-2 -3 -23 -14q-5 -3 -5 -60q0 -5 1 -12q2 -36 2 -40q0 -7 -4 -28v-3q0 -1 4 -28v-13v-3
q-1 -2 -1.5 -7.5t-1 -12t-1 -14t-0.5 -14.5l-1 -38q-3 -18 -3 -24q0 -11 1 -20q1 -6 1 -76q0 -11 -1 -18q-1 -9 -1 -17l6 -44q2 -14 3 -23q1 -6 20 -25q9 -9 9 -16q0 -17 -21 -17h-27h-9h-6h-9q-14 0 -31 -1h-31q-29 0 -29 15q0 5 2 7l11 9l10 12l14 9q5 3 9 25q5 23 5 28
q0 4 -1 8q-1 8 -1 21v8l1 9q0 10 5 25q0 1 1 3t1 3l-5 30l-1 18q-4 19 -5 34q-1 10 -7 10q-8 -1 -27 -9q-9 -3 -15 -3q-12 0 -51 4q-36 4 -74 51q-45 56 -45 98q1 4 2 12v8l-5 27q-2 14 -2 20q0 43 27 81q49 70 107 76zM216 299q-4 0 -30 -6q-24 -6 -29 -9q-16 -8 -32 -36
q-29 -46 -27 -57l2 -21l1 -22l1 -9q0 -37 1 -39q3 -6 11 -14q3 -2 8 -11q13 -22 43 -38q11 -6 29 -6q46 0 60 27q10 17 13 59q1 14 1 30q0 12 -1 25l2 24l-2 21q0 9 -2 37q-5 29 -32 38q-10 6 -17 7z" />
    <glyph glyph-name="r" unicode="r" horiz-adv-x="263" 
d="M137 217v-26v-20q0 -9 -0.5 -17.5t-1 -13t-0.5 -6.5q0 -6 2 -27t2 -27q0 -30 25 -43q28 -16 28 -28q0 -13 -22 -13q-13 0 -54 4h-7l-16 -1q-10 -1 -18 -1v0q-36 0 -36 15q0 5 3 10l20 19q8 8 9 17q1 25 5 82l-1 33q-1 26 -3 65q-4 37 -15 46l-9 5l-8 4q-11 5 -11 15
q0 8 10 15q1 1 26 15t39 26q6 4 19 8l11 -26q20 10 30 17q4 2 16 6q24 6 29 6q24 0 40.5 -18t16.5 -43t-15 -38q-8 -8 -18 -8q-13 0 -27 12q-5 4 -26 35q-2 2 -4 2q-16 0 -30 -41q-9 -27 -9 -60z" />
    <glyph glyph-name="s" unicode="s" horiz-adv-x="307" 
d="M42 127q4 0 10 -11q11 -24 45 -50q12 -9 28 -15q9 -3 13 -3h26q22 4 36 20q12 15 12 38q0 36 -41 56l-26 13q-3 3 -41 28q-13 7 -35 24q-23 26 -23 55q0 33 19 57t54 34q10 2 38 2l23 1q6 0 14 -2q3 -1 8 -3t6 -2l37 8q7 3 9 -20q1 -9 1 -21q0 -8 -1 -23l-1 -12
q0 -27 -9 -27q-10 0 -34 43q-19 37 -47 37q-26 0 -38 -22q-8 -14 -8 -27q0 -16 17 -36q6 -8 14 -11q5 -2 29 -10l20 -11q15 -6 22 -11q30 -25 40 -41q13 -20 13 -55q0 -28 -19 -65q-14 -26 -30 -38q-15 -10 -45 -20q-22 -7 -35 -7q-12 0 -27 5l-21 12q-1 1 -5 1q-7 0 -10 -5
l-9 -13q-3 -3 -15 -3q-10 0 -15.5 4.5t-4.5 12.5v32q0 6 -1 13q-1 3 -1 34v4v7v6q0 17 8 17z" />
    <glyph glyph-name="t" unicode="t" horiz-adv-x="247" 
d="M30 363l21 -2q3 -1 8 -1q13 0 18 18q0 17 1 44q0 12 31 28q26 14 29 14q16 0 16 -16q0 -3 -1 -6q-6 -16 -6 -21q6 -55 10 -55l24 2l7 -1q16 -2 19 -4q11 -6 11 -21q0 -17 -10 -21l-4 -1q-4 0 -13.5 -1.5t-19.5 -2.5q-22 -3 -22 -23q0 -2 0.5 -12.5t0.5 -14.5q0 -5 -3 -29
q0 -4 -2 -42q-1 -19 -1 -42q0 -88 23 -88l41 6q2 0 5 -8t3 -12q0 -14 -10 -25q-4 -4 -19 -12q-13 -12 -17 -14q-11 -7 -30 -7q-37 0 -56 25q-9 10 -9 18l1 49v4q-4 23 -4 33q0 3 6 36q1 3 1 10l-2 26q0 13 -1 30q0 3 -0.5 10t-1.5 10q-2 10 -2 11l2 13q3 20 3 30
q0 19 -22 22q-34 5 -38 13q-5 7 -5 12q0 17 18 18z" />
    <glyph glyph-name="u" unicode="u" horiz-adv-x="383" 
d="M37 361q5 0 8 -1l27 -5q30 5 34 5q37 0 37 -28q0 -1 -0.5 -6t-2 -16t-2.5 -21l1 -173q0 -1 -0.5 -4t-1 -8t-0.5 -9q-1 -5 -1 -10q0 -23 16 -40q9 -9 18 -9q10 0 29 8t26 15t16 26.5t9 28.5l-3 43q4 29 4 35q0 4 -3 29q-1 5 -1 14q0 11 4 54q1 3 1 9q0 12 -4 19l-24 39
q9 6 12 6q1 0 11 -2q2 0 5 -0.5t4.5 -1t2.5 -0.5l45 1q14 0 14 -30v-60l-2 -36l1 -56q0 -15 1 -24q0 -5 1 -7l-3 -51q-1 -6 10 -21q19 -23 19 -26q0 -4 -8 -9l-25 -18q-43 -37 -67 -37q-8 0 -10 8l-4 23q0 3 -4 3q-3 0 -34 -21q-4 -4 -24 -4q-52 0 -89 64q-10 16 -10 69
q0 6 2 52t2 52q0 4 -3 38q-2 25 -6 32q-4 13 -19 25q-25 19 -25 26q0 10 16 10z" />
    <glyph glyph-name="v" unicode="v" horiz-adv-x="328" 
d="M11 333q-8 11 -8 17q0 3 3 9t6 6l42 -3q22 5 24 5q47 0 47 -19q0 -6 -3 -13q-8 -24 -8 -25l16 -43l14 -48q15 -35 25 -52l13 -22q3 0 20 35q21 47 25 77l1 1q0 2 0.5 4t0.5 4q6 18 6 26q0 22 -4 29q-8 21 -8 23q0 9 12 12l17 3l24 4l26 1q22 0 22 -16q0 -6 -8 -20
q-4 -6 -25 -27l-5 -8q-7 -10 -21 -44l-3 -15l-5 -13l-6 -22q-7 -17 -21 -62q-5 -18 -26 -75q-11 -23 -13 -32q-7 -29 -11 -33q-5 -5 -11 -5q-11 0 -18 10q-6 9 -20 57q-14 43 -26 64q0 1 -2 6t-6 16t-9 23q-11 31 -30 65q0 1 -1 3t-2.5 6t-2.5 7q-15 45 -19 53
q-10 17 -22 31z" />
    <glyph glyph-name="w" unicode="w" horiz-adv-x="484" 
d="M323 362q35 0 35 -13q0 -3 -15 -23q-7 -11 -18 -35q-12 -27 -12 -33l2 -44l-1 -14q-1 -7 14 -36q16 -27 18 -27t10 21q1 3 25 44q24 38 24 94q0 16 -15 38q-6 9 -6 14q0 17 31 17q39 0 51 -2q15 -5 15 -19q0 -8 -4 -15q0 -2 -19 -30q-3 -3 -13 -31l-28 -80l-19 -42
l-11 -29q-12 -30 -23 -66q-7 -30 -26 -52q-7 -10 -16 -10q-10 0 -14 12l-16 51q-10 32 -20 53q0 1 -1.5 5.5l-2.5 7.5q-6 19 -12 19q-2 0 -13 -21q-1 -2 -23 -43q-1 -3 -7.5 -15t-11.5 -20q-3 -5 -5 -15q-6 -28 -18 -28q-13 0 -20 24q-7 17 -10 24q-3 8 -8 20.5t-13.5 33.5
t-14.5 37l-28 66l-14 39q-1 2 -5.5 12t-7.5 17q0 1 -13 17q-7 9 -7 10l-10 18l-19 18q-4 4 -4 14q0 19 29 19h1q1 0 5 -0.5t8 -0.5q6 -1 17.5 -1.5t17.5 -0.5h60q9 -1 12 -3q7 -4 7 -10q0 -4 -3 -9l-23 -23q-3 -2 -3 -11q0 -7 2 -13l14 -36q2 -5 6 -31q3 -15 17 -45
q6 -12 13 -23q1 -2 4 -10q4 -18 12 -18t18 18q23 41 23 58q0 7 -21 65q-13 37 -22 44l-11 8q-11 8 -11 22q0 18 20 18q2 0 11 -1t12 -1q7 0 10 1q4 0 9 0.5t8 1t4 0.5q4 0 9.5 -3.5t5.5 -6.5l-3 -14l9 -20q10 -22 16 -22q10 0 10 19q0 10 -8 18q-12 9 -12 12q0 10 9 11l11 2
q23 3 26 3z" />
    <glyph glyph-name="x" unicode="x" horiz-adv-x="338" 
d="M23 359l10 -1l15 1l16 -2l23 1l17 -1l27 1q18 0 18 -15q0 -6 -10 -25q-2 -2 -2 -7q0 -7 12 -21q11 -12 15 -21q6 -18 10 -18q5 0 7 2l16 17l16 13l8 13q5 7 13 21l-4 14t-3 10t-1 4q0 15 18 13l25 -2l32 1q24 0 24 -13q0 -8 -6 -10l-20 -7q-8 -4 -19 -15q-25 -30 -40 -50
q-16 -17 -32 -38q-6 -10 -6 -12l14 -36l9 -16l5 -13q19 -23 22 -31q2 -4 24 -32l18 -22q34 -28 36 -31q4 -5 4 -13q0 -12 -9 -17q-9 0 -18 -1h-19h-12q-6 0 -12.5 0.5t-10 1t-4.5 0.5q-3 0 -6 -1h-17q-38 0 -38 13q0 3 14 25q6 7 6 16q0 15 -22 49q-21 34 -31 34
q-5 0 -17 -14l-13 -13q-30 -24 -30 -55q0 -8 14 -34q3 -6 3 -12q0 -10 -17 -10q-6 0 -26.5 3t-26.5 3q-4 0 -6 -1h-16q-16 0 -16 12q0 6 8 16l3 3q3 2 10 6.5t14 10.5l22 22q17 19 46 56q23 29 23 43q0 10 -3 14l-20 27l-21 40q-1 1 -4 5.5t-7.5 10t-9.5 12.5q-4 6 -23 34
q-4 4 -22 15q-12 8 -12 15q0 11 15 12z" />
    <glyph glyph-name="y" unicode="y" horiz-adv-x="343" 
d="M53 359l16 -2q7 0 43 -4q15 -1 33 -3q7 -4 7 -12q0 -7 -15 -28q-2 -6 -2 -8q0 -1 11 -53q0 -8 4 -33q1 -13 13 -32q8 -22 13 -32q11 -24 17 -24q11 0 19 24q2 6 9 24l13 37q2 5 19 49q6 21 6 33q0 8 -19 45q-2 6 -2 8q0 12 17 12q9 0 13 -1q11 -1 19 -1l28 1q27 1 27 -16
q0 -7 -21 -30l-5 -13q-15 -27 -22 -59q-8 -25 -25 -63q-2 -5 -12 -32l-11 -27l-4 -12l-5 -15l-7 -27l-12 -25q-5 -25 -6 -29q0 -1 -1.5 -4t-4 -8.5t-4.5 -10.5q-12 -26 -26 -51l-16 -30q-12 -23 -21 -51q-21 -47 -26 -54q-40 -66 -69 -71q-4 -1 -19 -1q-25 0 -25 22
q0 12 9 20q7 8 36 15q21 6 55 91l22 54l7 22q9 24 9 63q0 9 -4 25l-4 19l-6 20q-9 40 -11 46q-1 1 -24 54l-1 4q-2 4 -3.5 9.5t-4.5 13.5t-6.5 19t-7.5 23q-15 51 -40 67q-23 17 -23 25q0 12 17 14q21 3 33 3z" />
    <glyph glyph-name="z" unicode="z" horiz-adv-x="320" 
d="M138 321q-30 0 -36 -1q-12 -1 -32 -13q-7 -4 -20 -23q-3 -3 -7 -3q-12 0 -12 54q0 22 14 22l51 -1l26 1q9 1 31 -3q4 0 11 -1t11 -1h13l88 1q8 1 12.5 -3.5t4.5 -13.5t-13 -25q-16 -19 -18 -24l-22 -46l-14 -20l-14 -25q-2 -4 -26 -48q-1 -1 -24 -38q-8 -11 -20 -39
q-11 -17 -11 -22q0 -11 28 -11q4 0 25 3h31q26 -2 52 30q17 20 21 20q10 0 10 -22q0 -5 -2 -27v-14q0 -17 -4 -21q-4 -6 -21 -6q-9 0 -14 1q-14 1 -25 1q-1 0 -4.5 -0.5t-10.5 -1t-14 -0.5q-8 -1 -22 -1q-5 0 -51 3q-1 0 -4.5 -0.5t-9.5 -1t-11 -0.5q-3 0 -6 -1q-3 0 -28 3
q-38 0 -40 1q-10 4 -10 13q0 19 18 45l15 24q1 3 29 32q1 1 5.5 7l7.5 10q5 10 11 25l2 4q1 2 13 18q4 12 15 36q24 27 38 64q9 14 9 20q0 8 -17 11q-22 8 -29 8z" />
    <glyph glyph-name="braceleft" unicode="{" horiz-adv-x="296" 
d="M254 691q23 0 23 -22q0 -14 -9 -14l-28 1q-1 0 -3 -1q-1 0 -25 -2q-26 -2 -38 -51q-10 -39 -10 -65q0 -9 3 -46l-3 -53q0 -26 -1 -42q-4 -27 -28 -62q-12 -17 -22 -21q-30 -11 -30 -17q0 -7 31 -14q24 -5 34 -33q15 -37 15 -49l-1 -14l1 -23l-2 -28q0 -3 1 -6
q2 -26 2 -27q0 -26 4 -45l2 -25q4 -47 24 -61q11 -8 18 -8h21q34 -1 34 -21q0 -14 -14 -12l-24 2l-20 -4h-6q-36 3 -51 8q-28 10 -48 32q-27 30 -26 52l4 56q0 3 2 49q1 11 1 28q0 70 -21 106q-4 6 -22 23q-7 4 -7 15q0 9 6 14q5 5 12 10q29 21 32 79l2 49q-5 27 -6 51
l-5 68q0 60 39 91q30 24 70 26q11 0 27 4h22q4 0 8.5 0.5t7.5 1t4 0.5z" />
    <glyph glyph-name="bar" unicode="|" 
d="M224 667h52v-833h-52v833z" />
    <glyph glyph-name="braceright" unicode="}" horiz-adv-x="296" 
d="M38 -36h18q8 0 13 1q8 1 14 1q19 1 26 17q25 42 20 49l1 23q2 26 2 27v15l-2 33l2 51q1 6 1.5 20t0.5 21q5 31 28 63q12 17 21 20q30 11 30 18t-30 13q-23 5 -35 33q-15 39 -14 49v15v23l1 27q0 3 -1 6q-2 26 -2 28q0 27 -4 44q-1 1 -3 25q-3 49 -22 62q-11 8 -19 8
l-34 1l-9 -2q-12 0 -12 14q0 15 17 17l21 2l20 3l6 -1q13 -1 52 -7q28 -10 48 -32q27 -28 25 -52l-4 -57l1 -20q0 -2 -3 -28q-2 -18 -2 -28q0 -23 5 -61q5 -25 17 -45q4 -7 23 -23q6 -4 6 -16q0 -7 -5 -14l-2 -1q-2 -2 -5 -4l-6 -4q-27 -20 -32 -80q-2 -32 -2 -60
q0 -26 11 -90q1 -2 1 -16q0 -60 -39 -91q-32 -25 -71 -26q-11 0 -27 -4l-22 -1q-4 0 -8.5 -0.5t-7.5 -1t-4 -0.5q-23 0 -23 15q0 18 19 21z" />
    <glyph glyph-name="asciitilde" unicode="~" horiz-adv-x="667" 
d="M530 733l14 -8q-19 -34 -48 -58q-44 -38 -88 -38q-21 0 -63 14q-84 28 -116 28q-37 0 -62 -25q-12 -10 -30 -33l-14 9q61 97 137 97q30 0 92 -22q54 -18 79 -18q54 0 99 54z" />
    <glyph glyph-name="nbspace" unicode="&#xa0;" horiz-adv-x="230" 
 />
    <glyph glyph-name="exclamdown" unicode="&#xa1;" horiz-adv-x="214" 
d="M125 184v-25q0 -8 3 -32q2 -15 5 -49q2 -35 6 -80q1 -4 11 -38q3 -14 4 -39t10 -137q1 -3 1 -9q0 -21 -10 -47q-7 -22 -31 -25q-21 -4 -30 -4q-44 0 -44 90q0 6 4 50q3 47 10 86v35l9 59q2 29 8 50q0 9 1 22l4 74q0 5 1 12t2 12l1 5q0 2 -1 11t-1 11q0 12 16 12t21 -14
v-30zM113 397q9 0 19 -9q16 -15 21 -21q4 -7 4 -23q0 -47 -37 -47q-4 0 -28 11q-24 9 -27 12q-8 10 -8 29q0 23 10 33q14 15 46 15z" />
    <glyph glyph-name="cent" unicode="&#xa2;" horiz-adv-x="339" 
d="M204 605q10 0 15.5 -3t4.5 -8l-1 -12l-1 -19l-3 -18q0 -2 8 -15q5 -8 16 -9q74 -18 74 -67q0 -12 -8.5 -22t-19.5 -10q-33 0 -47 24q-6 10 -10 10q-14 0 -14 -13l2 -72q-2 -11 -3 -28l1 -66q-2 -6 -4 -11q-7 -15 -7 -34q0 -25 13 -38q5 -5 11 -5q33 0 56 15q11 7 17 7
q5 0 5 -5q0 -4 -12 -14q-1 -1 -7.5 -6.5t-11.5 -9.5q-15 -12 -48 -28l-11 -2q-11 -2 -9 -3l4 -36v-5q-1 -5 -3 -19l2 -32q0 -4 -8.5 -9.5t-13.5 -5.5q-9 0 -13 9q-2 5 -3 24q-3 13 -3 17q0 3 5 23l-2 13q-2 21 -5.5 25.5t-24.5 9.5q-48 20 -78 62l-6 9t-8 12.5t-8 13.5
q-4 14 -8 39q-9 45 -9 55q0 63 42 111q38 44 64 51l42 10q12 3 12 32q0 6 -3 36q-1 3 -1 6q0 11 20 11zM169 484q-20 0 -39 -25q-18 -22 -21 -44q-3 -23 -3 -44q0 -3 0.5 -12t0.5 -12v-18q0 -4 5 -16q12 -21 20 -44q8 -16 16 -29q14 -24 19 -24q12 0 12 23v7v12l1 41l3 93
q3 15 3 33v24q0 23 -3 28q-4 7 -14 7z" />
    <glyph glyph-name="sterling" unicode="&#xa3;" horiz-adv-x="490" 
d="M109 351q18 5 18 15q0 9 -23 41q-6 9 -27 51l-10 20q-5 12 -5 24q0 41 11 68q4 9 15 25q6 8 22 24q1 2 6 7q18 23 28 27q2 3 16 7l13 7q19 9 46 9t38 -4l55 -20q64 -16 70 -21q3 -5 9 -30l3 -55l6 -27l-1 -26q0 -5 1 -9q2 -14 2 -16q0 -16 -14 -16q-11 0 -15 10
q-2 2 -3 17q-4 12 -10 25q-7 22 -12 35q0 1 -2 3.5l-6 7.5l-8 10q-6 6 -13 14.5t-11 13t-6 6.5q-11 11 -35 22q-1 0 -32 15q-11 6 -20 6q-47 0 -69 -30q-21 -25 -21 -47t9 -38q0 -1 4 -6.5t8 -10.5q35 -55 70 -84q6 -4 16 -25l10 -13q8 -10 19 -22q13 -10 40 -10q1 0 17 2
l24 -1l15 1q8 1 12 -4t4 -15q0 -22 -14 -22l-12 1l-26 -1h-21q-13 -4 -13 -22q0 -10 3 -24q1 -3 1 -6l-5 -24l-1 -35l-3 -18l-1 -11l-3 -10q-10 -36 -10 -56q0 -12 10 -18l38 -8q18 -6 27 -6q23 0 36 13q8 8 29 40q1 1 9 28l8 26q0 1 2 26q2 35 19 35q10 0 15 -11
q4 -7 4 -22q0 -20 -14 -74l-2 -10l-3 -14q-17 -69 -60 -94q-20 -18 -31 -23q-15 -9 -42 -9q-3 0 -34 9q-11 2 -24 6q-5 1 -30 17q-13 7 -24 7q-7 0 -12 -3l-15 -14q-19 -16 -60 -16q-4 0 -26 7q-4 1 -24 5q-3 2 -10 7q-18 15 -27 38q-3 6 -6 41q0 27 24 57q25 30 59 30
q3 0 15 -1.5t16 -1.5q24 -5 47 -26q10 -10 30 -10q29 0 29 50t-52 109q-17 20 -21 20q-45 -5 -47 -5q-9 0 -17 2q-19 4 -24 4l-6 -2q-12 -3 -19 -3q-13 0 -13 18q0 25 29 25q11 0 38 -4zM98 131q-12 0 -19 -7q-1 -1 -10 -23q-10 -21 -10 -25q0 -10 6 -18q21 -29 65 -29
q41 0 41 29q0 19 -19 42q-14 17 -22 21q-16 10 -32 10z" />
    <glyph glyph-name="currency" unicode="&#xa4;" horiz-adv-x="461" 
d="M310 208q-4 0 -29 -15q-19 -12 -36 -12q-51 0 -88 21q-10 5 -13 5q-8 0 -21 -16q-24 -25 -33 -25q-7 0 -7 9v6v5q0 8 -1 9l-7 7q-2 2 -2 21q0 2 8 10q15 14 15 25q0 7 -10 20q-16 25 -16 69q0 16 13 45q5 13 5 19q0 8 -12 23t-12 22t4 11l10 10q13 19 20 19q10 0 21 -14
q15 -18 23 -18q7 0 15 4q45 21 93 21q12 0 47 -11q8 -2 10 -2q6 0 14 5l29 23q1 1 4 1q8 0 15 -7q12 -10 12 -25q0 -11 -14 -31q-5 -7 -5 -9q0 -6 10 -23q12 -22 12 -57q0 -48 -17 -87q-4 -7 -4 -14q0 -5 7 -12q15 -14 15 -24t-13 -22t-23 -12q-4 0 -20 16q-10 10 -19 10z
M235 432q-19 0 -44 -13q-13 -6 -18 -12q-6 -9 -13 -20q-18 -24 -19 -31q-5 -15 -5 -25q0 -15 15 -47q9 -17 21 -28q22 -17 57 -17q9 0 46 20q15 8 23 16l11 17q13 14 14 20q2 10 2 16q-3 7 -5 48q-2 6 -4 9q-20 27 -33 35q-18 12 -48 12z" />
    <glyph glyph-name="yen" unicode="&#xa5;" horiz-adv-x="506" 
d="M181 382h-22q-2 0 -18 -2l-25 1l-16 -1q-8 -1 -12.5 4t-4.5 15q0 7 4.5 15.5t10.5 8.5l13 -1l26 1l23 -1q10 3 10 12q0 17 -37 76q-32 51 -61 82l-19 20l-15 13q-26 17 -27 19q-5 5 -5 10q0 3 5 8q1 2 39 3q30 3 33 3q7 0 30 -4q7 1 28 3h8q3 0 14 -1.5t15 -1.5h4h6
q29 0 29 -16q0 -6 -6 -13l-16 -17q-8 -10 -8 -21q0 -17 31 -63q7 -9 18 -32q15 -26 22 -37q18 -36 23 -36q5 5 27 33l26 49l13 14l14 27q12 22 12 27q0 17 -12 32q0 2 -10 13q-3 3 -18 14q-5 3 -5 10q0 16 30 16h9q6 0 13.5 -0.5t11.5 -1t6 -0.5q4 0 20 3q5 1 13 1
q11 0 40 -4q29 -5 29 -18q0 -8 -4.5 -12t-34.5 -21q-13 -7 -36 -33q-5 -6 -21 -24q-7 -7 -25 -43l-14 -22l-7 -15q-26 -43 -26 -45q0 -6 4 -6l24 1l6 -2q15 -5 23 -5q5 0 8 1q18 5 20 5q14 0 14 -19q0 -28 -31 -28q-1 0 -3.5 0.5t-6 1t-7.5 0.5l-9 1q-10 0 -28 2q-8 1 -13 1
q-22 0 -27 -14q-5 -22 -5 -35q0 -16 34 -16q15 0 33 2l25 -1l15 1q7 1 11 -3.5t4 -13.5q0 -6 -4 -14q-1 -4 -2 -6t-2 -3t-2 -1l-28 2l-13 -2h-9q-8 0 -13 1q-28 2 -33 2q-16 0 -16 -27q0 -3 2 -17.5t2 -18.5l-2 -29l-2 -81q-1 -24 8 -44q8 -17 31 -36q16 -13 16 -23
q0 -4 -1.5 -6t-5.5 -1l-24 1h-5q-2 -1 -36 -1q-1 0 -4 0.5t-8.5 1t-10.5 0.5h-2q-17 -3 -30 -3q-6 0 -11 1q-11 1 -19 1l-12 -1h-23q-23 -2 -23 10q0 9 5 12l23 10q10 6 28 34q19 23 19 36q0 3 -1 4l-1 18l3 45q0 16 1 28q2 51 4 64q1 4 1 12q0 11 -13 11q-3 -1 -31 -4h-6
q-10 0 -19 1l-21 -2l-9 6l-21 -5q-11 0 -11 18q0 26 30 26q8 0 15 -1q27 -3 54 -4q28 -1 28 20q0 15 -7 30q-3 8 -5 10q-8 5 -26 5z" />
    <glyph glyph-name="brokenbar" unicode="&#xa6;" 
d="M224 667h52v-334h-52v334zM224 153h52v-319h-52v319z" />
    <glyph glyph-name="section" unicode="&#xa7;" 
d="M101 111q26 0 47 -36q10 -16 10 -30q0 -11 -10 -27q-10 -19 -10 -31q0 -20 19 -26q19 -5 81 -13l27 -3q15 0 41 17q14 9 18 15q4 8 13 23q16 17 16 24l-1 26l2 23q0 31 -55 44q-12 3 -41 18l-70 22l-11 4l-18 7l-14 7q-19 7 -24 9q-1 1 -4 3t-8 6l-10 8q-12 7 -28 28
q-7 17 -9 63q-1 12 -1 22v0q0 22 8 35q7 7 18 20q43 46 43 55q0 8 -15 21q-46 39 -46 70q0 24 22 72q12 26 31 46q2 1 12 8.5t20 13.5l26 19q10 6 26 11q21 6 28 5l31 -3q32 -5 48 -10q38 -8 49 -14q17 -10 45 -50q11 -17 11 -35q0 -32 -4 -37q-14 -21 -19 -26
q-13 -13 -32 -13q-7 0 -23 13q-27 19 -27 61q0 4 16 32q2 4 2 7q0 5 -15 16q-17 12 -23 12h-12l-29 1q-45 -5 -67 -19q-10 -6 -16 -14q-6 -9 -13.5 -32t-7.5 -35q0 -28 16 -41q18 -15 40 -20q32 -6 39 -9q19 -12 63 -31q1 0 35 -11q28 -4 35 -8q33 -20 38 -27q38 -50 38 -82
q0 -36 -13 -68q-4 -12 -12 -23q-14 -14 -38 -37q-3 -4 -3 -10q0 -3 2 -7l23 -28q7 -9 14.5 -32.5t7.5 -35.5q0 -41 -23 -85q-9 -17 -21 -30l-10 -9l-8 -7q-17 -18 -32 -25q-10 -6 -43 -16q-11 -4 -34 -5q-16 -6 -21 -6q-18 0 -75 16q-1 0 -26 7q-1 0 -5 2.5t-13.5 8
t-18.5 10.5q-21 12 -28 19q-12 16 -18 27q-12 25 -12 57q0 23 17 46q20 27 39 27zM192 397q-8 0 -34 -25q-3 -3 -13 -26t-10 -29q0 -40 28 -61q20 -15 44 -19q4 0 26 -8q33 -14 38 -14q10 -2 28 -9q6 -3 15 -3q24 0 37 15q4 5 15 32q14 26 14 38q0 29 -29 52q-6 6 -35 12
l-26 13q-5 3 -27 8q-9 1 -46 19l-8 2t-6.5 1.5l-5 1t-3.5 0.5h-2z" />
    <glyph glyph-name="dieresis" unicode="&#xa8;" 
d="M186 497q10 0 24 -11q3 -3 6 -15l5 -22q0 -17 -12 -29q-7 -7 -16 -7q-39 0 -46 28l-4 17q0 19 7 26q13 13 36 13zM298 496q10 0 27 -9q20 -11 20 -34q0 -15 -22 -34q-13 -11 -19 -11q-18 0 -37 17q-6 6 -7 21l-3 14q0 2 6 14t8 14q8 8 27 8z" />
    <glyph glyph-name="copyright" unicode="&#xa9;" horiz-adv-x="754" 
d="M382 686q83 0 137 -24q71 -31 115 -93q16 -23 39 -65q17 -30 34 -82q7 -25 10 -45q0 -3 0.5 -9.5t1 -18t0.5 -22.5q0 -4 0.5 -8.5t0.5 -8.5v-3q0 -36 -16 -85q-6 -19 -16 -37q-1 -2 -4 -7t-8.5 -13t-10.5 -16q-11 -19 -39 -57q-49 -49 -115 -77q-43 -17 -64 -22
q-5 0 -45 -3q-44 -3 -57 -3q-49 0 -83 12q-21 6 -57 32q-1 1 -32 21q-2 2 -26 23q-11 9 -27 24l-13 17l-18 30q-16 25 -30 44l-1 4q-1 3 -3 10l-4 14q-13 33 -13 39q0 12 -1 25q-1 9 -2 23l-2 18v-1q0 4 3 36l-2 46q0 36 19 71l21 40q11 17 13 20l10 11l10 13l16 16
q15 18 28 31q18 17 33 26q87 54 198 54zM349 640q-14 0 -29 -5q-7 -3 -21 -8.5t-26.5 -10.5t-23.5 -10q-7 -3 -64 -52q-15 -13 -40 -50q-22 -31 -25 -38q-5 -10 -11 -28l-5 -18l-3 -43q-10 -21 -10 -29q0 -1 1 -10t3 -31t4 -43q2 -17 20 -68l14 -42q4 -5 40 -36
q19 -24 25 -28q9 -4 34 -19q37 -20 40 -22q27 -11 42 -12l35 -2q10 0 19 -0.5t13.5 -1t5.5 -0.5q39 0 59 5q14 4 35 16q9 5 61 30q14 8 30 30l5 5l4 4q20 20 50 63q16 23 20 34q3 7 5 28l2 7q0 15 4 34q2 14 2 16q0 6 -4.5 27.5t-4.5 29.5q0 24 -2 40q-4 18 -8 33
q-12 37 -37 72q-9 13 -15 21q-4 6 -37 37q-12 9 -40 35l-15 13q-4 4 -57 16l-54 6zM373 545q60 0 115 -30q7 -4 23 -10q12 -4 12 -46q0 -3 -0.5 -15.5t-0.5 -16.5q2 -18 -9 -18q-9 0 -18 24q-11 18 -15 24l-1 1q-6 6 -29 21q-12 9 -33 21q-6 3 -29 6q-21 3 -23 3
q-6 0 -18 -5q-18 -4 -41 -22q-16 -9 -18 -11q-21 -20 -34 -47q-10 -21 -10 -27l1 -28q0 -1 -2 -7q-3 -9 -6 -21l3 -28l-2 -19l2 -12l-1 -19q0 -9 18 -41q13 -25 46 -45q24 -14 53 -13h32q4 0 36 2q8 2 18 3q30 19 37 39q4 7 13 18q1 1 3 8q4 16 14 16q12 0 12 -18v-31
q-1 -3 -1 -16q-2 -25 -5 -27q-1 -1 -42 -22l-19 -6q-26 -8 -36 -8h-41l-10 1l-20 -1q-27 -1 -82 37q-29 19 -42 33q-34 34 -51 79q-8 22 -8 65v13l1 10q1 57 29 86q5 5 15 17l16 26q10 16 87 46q30 11 61 11z" />
    <glyph glyph-name="ordfeminine" unicode="&#xaa;" horiz-adv-x="300" 
d="M139 456q-7 0 -8 -1l-10 -11q-20 -14 -24 -14q-15 0 -15 17q0 24 35 35l8 4q9 4 26 4q24 0 44 -14q22 -16 22 -40q0 -21 -1 -44v-35v-7v-19q-2 -15 32 -32q-4 -11 -12 -18q-17 -20 -31 -20q-9 0 -17 6q-12 8 -16 10q-1 -1 -13 -7q-13 -9 -38 -9q-26 0 -43.5 14.5
t-17.5 43.5q0 24 5 34q11 18 46 35q13 3 49 22q9 9 9 16q0 4 -11 21q-6 9 -19 9zM166 387q-1 1 -18 -13q-5 -4 -9.5 -7.5t-7 -5.5t-3.5 -3q-16 -16 -16 -32q0 -14 16 -21q13 -5 21 -5q19 0 20 27l3 38q0 19 -6 22z" />
    <glyph glyph-name="guillemotleft" unicode="&#xab;" horiz-adv-x="333" 
d="M292 335q11 0 11 -10q0 -4 -8 -17l-9 -18q-3 -6 -29 -40l-14 -19q-28 -28 -28 -43q0 -10 12 -26q8 -21 27 -43q13 -15 20 -30q0 -1 3 -5t5 -8q13 -22 13 -31q0 -14 -14 -14q-11 0 -21 19q0 2 -34 35q-21 21 -33 37q-9 12 -26 28q-17 17 -17 40q0 6 13 25q4 7 14 21
q1 2 27 24q24 32 27 35q1 1 4 3t7 5t9 6l15 15q11 13 26 11zM189 354q11 0 11 -10q-3 -6 -7 -13l-4 -20q-1 -10 -14 -21l-4 -4l-3 -3l-2 -1q-3 -7 -15 -25l-6 -9l-11 -16l-14 -15q-14 -16 -14 -25q0 -6 16 -23q8 -8 17 -30l7 -13l8 -16q7 -7 14 -15q26 -28 26 -50
q0 -15 -15 -15q-5 0 -21 12l-16 11q-6 5 -21 30l-3 3q-2 3 -7.5 9.5t-10.5 13.5l-17 21q-12 8 -32 29q-16 10 -18 14q-4 7 -4 15t5 16q7 7 20 18q13 18 26 28q24 19 54 56l15 13q8 8 32 30q5 5 8 5z" />
    <glyph glyph-name="logicalnot" unicode="&#xac;" 
d="M372 0v227h-336v40h428v-267h-92z" />
    <glyph glyph-name="sfthyphen" unicode="&#xad;" horiz-adv-x="198" 
d="M15 226l20 -1h17l17 -2q6 0 18 4q3 1 8 1q6 0 22.5 -1.5t20.5 -1.5t18 2t18 2q14 0 23 -12q4 -4 4 -8q0 -1 -5 -16q-2 -27 -3 -28q-5 -8 -10 -8q-3 0 -16.5 2.5t-17.5 2.5q-13 0 -27 -3q-1 -1 -3 -1t-3 -1l-28 4l-19 -3q-4 0 -7.5 0.5t-5.5 1t-3 0.5l-20 -3l-12 -1
q-2 -1 -8 -1q-7 0 -12 8q-1 2 -1 4l3 26l3 27q2 4 9 6z" />
    <glyph glyph-name="registered" unicode="&#xae;" horiz-adv-x="766" 
d="M364 684q41 0 120 -25q45 -13 84 -38q16 -9 31 -21q15 -15 33 -32q37 -31 54 -65q18 -33 33 -98q5 -16 12 -46q2 -10 2 -23q0 -62 -24 -127q-17 -44 -32 -69q-10 -11 -30 -34q-72 -86 -126 -102q-7 -2 -43 -7q-4 0 -38 -7q-12 -3 -34 -3l-27 -3l-30 4l-34 8q-34 6 -52 9
q-1 1 -26 15q-34 16 -38 19l-6 5l-11 11q-17 13 -31 26q-5 3 -24 27q-23 21 -41 39q-15 20 -21 34q-3 8 -15 44l-11 34l-1 24l-2 17l-1 23l-2 49q-2 30 24 89q37 90 136 169q67 54 171 54zM395 35l29 -3l44 11q4 1 45 13q18 7 38 22q4 4 24.5 21.5t29.5 26.5q34 34 39 46
q6 8 13 36q9 29 21 64q4 9 4 20q0 4 -3 23v11q-1 28 -9 81q-5 30 -10 39q-3 8 -16 22l-4 7q-9 9 -21 27q-10 16 -32 27q-15 8 -28 23q-23 22 -36 30q-1 0 -3 1t-4 2.5t-5.5 3.5t-7.5 4q-38 18 -77 25q-2 0 -10.5 1.5t-14.5 2.5q-3 1 -11 1q-39 0 -70 -3q-7 0 -13 -0.5
t-9 -1.5h-3q-16 0 -19 -1q-9 -2 -52 -28q-14 -10 -42 -35q-14 -11 -40 -34q-7 -8 -19 -37q-17 -39 -20 -50q-4 -13 -7 -51q-3 -31 -3 -41q0 -17 7 -53q6 -36 9 -44q1 -2 3 -5.5t5 -10.5t6 -12l8 -17l29 -32q9 -23 14 -28q13 -13 64 -53q17 -12 62 -34q44 -21 49 -21z
M447 326q17 -13 25 -42q1 -6 10 -26q6 -27 7 -31q1 -17 8 -32q3 -7 10 -8l13 -2q16 -1 16 -17q0 -10 -13 -17l-14 -7q-32 -16 -43 -16q-8 0 -15 10q-1 1 -7 18q-10 26 -13 48l-6 22l-5 29l-3 15q-6 22 -12 28q-20 23 -46 23q-13 0 -17 -15q-1 -2 -1 -22l-2 -20l-1 -18
l-2 -19q1 -9 3 -28q2 -20 8 -28q2 -2 22 -11q11 -6 11 -15q0 -10 -10 -11q-1 0 -3.5 -0.5t-7.5 -1t-10 -0.5l-20 1h-13q-20 3 -22 3t-13.5 -2t-15.5 -2q-22 0 -22 14q0 8 5 11l15 11q10 13 15 23q1 4 3 67q1 8 1 24l1 11q0 -1 0 2t-0.5 5.5t-0.5 6.5q-1 11 -1 34l1 24v8.5
v8.5t-0.5 7.5t-0.5 4.5v2q0 14 -1 23v9q0 21 -5 49q-3 14 -4 16q-1 6 -11 11q-12 6 -12 14q0 6 0.5 8t8.5 4.5t27 2.5q12 0 18 1h9q4 0 17 -1.5t17 -1.5t7 1q14 2 15 2q17 0 68 -8q11 -1 41 -28q9 -9 24 -41q10 -16 10 -36q0 -28 -18 -55q-16 -25 -45 -40zM364 349h5h17
q19 0 40 21q19 19 19 50q0 2 -2 16q-4 11 -4 15q-1 11 -6 15q-2 1 -15 14q-20 23 -32 24q-6 0 -25 -4q-11 -2 -12 -6q-13 -22 -12 -34l2 -18l-1 -13v-10q0 -5 1 -11q1 -3 1 -7l-1 -27q1 -5 1 -14q1 -8 8 -10q3 -1 16 -1z" />
    <glyph glyph-name="macron" unicode="&#xaf;" 
d="M175 482q2 0 8 -0.5t7 -0.5h4h7q2 0 9 -1t9 -1q5 0 8 1q14 3 16 3q8 0 25 -4q4 -1 10 -1q7 0 23 4t17 4q12 0 21 -11q3 -4 3 -8t-4 -13q-1 -21 -3 -26q-3 -6 -9 -6q-5 0 -17 3q-5 1 -12 1q-17 0 -27 -3q-2 -1 -4 -1l-29 3l-5 -1q-6 -2 -7 -2q-2 0 -9.5 1t-9.5 1l-18 -2
l-19 -2q-11 0 -11 11q0 2 3 22v6v3v6q0 14 14 14z" />
    <glyph glyph-name="degree" unicode="&#xb0;" horiz-adv-x="461" 
d="M328 458q-21 -23 -55 -33q-20 -6 -29 -6q-78 0 -107 35q-12 20 -33 57q-7 10 -7 24q0 36 7 51q6 17 20 34q21 30 54 47q26 14 57 14q15 0 37 -11q23 -7 34 -18q29 -31 40 -71q8 -37 8 -49q0 -22 -15 -52zM222 626q-13 0 -39 -13q-17 -8 -23 -17q-14 -17 -14 -48
q0 -7 17 -38q6 -12 13 -19l13 -9q12 -10 17 -12q10 -2 13 -2l22 3q22 1 26 5q39 28 39 67q0 14 -11 38q-4 9 -9 14q-1 0 -17 11q-29 20 -47 20z" />
    <glyph glyph-name="plusminus" unicode="&#xb1;" horiz-adv-x="461" 
d="M191 302l-28 -1q-24 3 -28 3q-10 -1 -19 -1l-13 -1l-37 -3q-32 0 -32 21q0 33 13 37q9 2 46 4q9 0 17 1h10q5 0 11 -1q18 -2 23 -2q46 0 46 23v3q-1 3 -1.5 8.5t-0.5 11.5v10q0 3 1 13t1 13q0 5 -2.5 20.5t-2.5 19.5q0 9 3 21q3 17 22 17q30 0 34 -13q0 -6 1 -16
q1 -7 1 -17l2 -17q0 -5 -0.5 -20t-0.5 -19q0 -41 11 -52q6 -7 20 -7q6 0 31 6q5 1 13 1q4 0 15 -1.5t14 -1.5q5 0 37 3h13q16 0 16 -16q0 -1 -0.5 -3t-1 -6t-0.5 -8v-13q1 -6 -4 -9t-16 -4q-3 -1 -9.5 -1.5t-9.5 -0.5q-6 -1 -13 -1q-3 0 -23 2q-4 1 -10 1h-8q-9 -1 -20 -1
h-6q-4 0 -8.5 0.5t-7 1t-5 0.5h-3.5q-12 0 -17 -15q-3 -10 -3 -16l2 -30l1 -33l3 -20l-3 -25q-2 -9 -5.5 -13.5t-10.5 -3.5l-14 1l-21 -3q-12 0 -12 25v6l2 36l-3 38l4 18q1 3 1 9q0 17 -15 21zM102 101q2 0 14 -1t14 -1q11 0 26 1q5 1 13 1q9 0 42 -4q9 1 26 1t63 -2h12
q20 -4 29 -4h13q34 2 38 2q12 0 17.5 -3t4.5 -10l-2 -15q0 -21 -5 -26q-6 -6 -27 -5q-3 0 -8 -0.5t-15.5 -1t-19.5 -0.5h-11q-1 0 -5 0.5t-11.5 1t-14.5 0.5q-37 0 -92 4q-9 1 -20 1q-13 0 -34 -3h-3l-47 2q-22 -2 -27 -2q-13 0 -19 3t-5 10l2 20l-1 18q1 8 15 10q1 1 38 3z
" />
    <glyph glyph-name="twosuperior" unicode="&#xb2;" horiz-adv-x="300" 
d="M166 333l25 -2q17 0 27 10q19 17 20 17q4 0 8 -6.5t4 -10.5q0 -6 -3 -21q0 -1 -1 -4.5t-2 -10t-2 -12.5q-4 -28 -22 -28q-4 0 -17.5 1t-17.5 1q-8 0 -15 -1h-10q-21 0 -34 -1q-4 -1 -17 -1q-9 0 -28 3l-34 -3q-18 -2 -18 17q0 25 41 69q6 8 34 43l9 11q4 4 11 12.5
t13.5 16.5t13.5 16q13 13 17 22q31 52 31 93q0 8 -7 32q-3 8 -9 11q-30 19 -36 18l-20 -5q-29 -3 -51 -19q-2 -2 -6 -2q-10 0 -10 10t20 36q26 32 64 32q24 0 42 -2q12 -4 19 -8l1 -1l4 -2l4 -2q38 -19 46 -51q3 -11 3 -41q2 -32 -12 -62q-21 -29 -33 -43l-8 -8l-5.5 -5.5
l-9.5 -9.5l-11 -11l-36 -39l-16 -19q-4 -5 -14 -17q-2 -4 -2 -7q0 -17 16 -17q6 0 12 1h22z" />
    <glyph glyph-name="threesuperior" unicode="&#xb3;" horiz-adv-x="300" 
d="M51 381q13 0 30 -18q9 -9 9 -21l-2 -27q-2 -5 15 -16q16 -10 26 -10q1 0 30 8l7 8l7 7l6 8l9 12l4 10q7 7 13 18q2 18 2 25q0 9 -5 27q-2 4 -17 20q-9 9 -31 29q-7 2 -23 6q-15 5 -15 15q0 11 12 17l8 3q8 2 15 4q8 3 12 10q4 4 13 18q14 28 14 42q0 29 -22 45
q-17 14 -40 14q-28 0 -41 -9q-10 -5 -14 -5q-10 0 -10 12q0 20 31 35q22 11 38 11t49 -15q31 -15 45 -27q28 -27 27 -48l-1 -16q2 -39 -45 -75q-10 -7 -10 -11t10 -11q55 -43 55 -92q0 -39 -3 -51q-9 -33 -32 -47q-7 -4 -27 -12l-8 -4l-18 -7l-9 -4q-43 -6 -49 -6
q-19 1 -58 36q-32 29 -32 57q0 35 25 35z" />
    <glyph glyph-name="acute" unicode="&#xb4;" 
d="M329 510q30 0 30 -29q0 -20 -19 -33q-12 -9 -27 -11l-17 -2q-12 -3 -24 -7q-11 -4 -14 -5q-7 -3 -31 -14q-1 -1 -2 -1q-10 0 -10 9q0 7 23 21q30 20 52 48q18 24 39 24z" />
    <glyph glyph-name="paragraph" unicode="&#xb6;" horiz-adv-x="520" 
d="M228 -133q-2 0 -5 -0.5t-9 -1t-11 -0.5q-14 -2 -16 -2q-15 0 -15 9q0 7 14 16q45 30 45 102v4q0 5 -0.5 14t-0.5 21t-0.5 30.5t-0.5 38.5v32q0 21 2 39l3 20l-2 29l-2 30q-2 8 -3.5 17.5t-1.5 11.5q-5 12 -17 11l-25 -1l-33 3h-7q-1 0 -22 8q-18 8 -35 19q-16 13 -18 15
l-10 18q-28 34 -31 105v14q-1 30 8 52l8 19l-5 58q-1 4 19.5 14t62.5 28q12 6 31 16q13 4 38 10q17 4 47 4q2 0 9.5 -0.5t22 -1t30.5 -0.5l48 3q18 -1 56 -3q35 4 48 4q44 0 44 -25q0 -8 -10 -15q-18 -14 -23 -26q-10 -30 -10 -142q0 2 0.5 -6t0.5 -16q2 -38 2 -61v-27
q0 -52 -3 -85q-1 -3 -1 -12t1 -17q1 -26 1 -85q0 -38 -1 -91v-9q0 -10 4 -33l1 -50l2 -17q3 -7 10 -21q3 -8 21 -32q11 -9 11 -19q0 -8 -2.5 -12.5t-7.5 -3.5l-28 1q-1 -1 -4 -1q-14 -3 -25 -3q-4 0 -8 1q-1 0 -3.5 0.5t-7 1t-9.5 0.5q-26 3 -32 11q-12 18 -12 55q0 10 1 24
q1 7 1 27q0 3 5 76q1 4 1 12q0 7 -1.5 34t-1.5 35q0 30 4 102q1 7 1 16q0 4 -5 59l3 32l-1 2q0 3 -0.5 8t-0.5 10v6v96q0 7 -1 12q-1 10 -5 51q0 16 -2 58q-5 18 -11 18q-25 0 -26 -64q0 -4 -1.5 -22.5t-1.5 -24.5t0.5 -26t0.5 -25q0 -8 -1 -22q-2 -30 -2 -45l-1 -44l-1 -37
l2 -18l1 -11v-6q-3 -41 -2 -110q0 -5 -8 -170l-1 -8l1 -60q0 -24 -12 -37q-12 -15 -34 -14h-34z" />
    <glyph glyph-name="periodcentered" unicode="&#xb7;" horiz-adv-x="200" 
d="M83 238l9 -3q8 -2 14 -4q6 -1 25 -5q17 -9 17 -42q0 -19 -10 -28q-4 -6 -27 -15q-7 -3 -14 -3q-14 0 -36 20q-13 12 -13 44q0 14 10.5 25t24.5 11z" />
    <glyph glyph-name="cedilla" unicode="&#xb8;" horiz-adv-x="499" 
d="M221 -66q5 0 10 -9q2 -6 15 -17q15 -5 23 -5q16 0 16 17q0 16 -6 19l-27 15q-5 2 -5 7l1 20q2 20 2 21q4 9 16 9q10 0 15 -3t4 -9v-19l17 -8q8 -3 18 -21q4 -5 4 -8l-4 -21v-14q2 -9 -9 -18q-26 -23 -43 -23q-26 0 -38 6q-9 5 -21 20q-9 9 -9 21q0 7 7 13.5t14 6.5z" />
    <glyph glyph-name="onesuperior" unicode="&#xb9;" horiz-adv-x="300" 
d="M180 389v-3q0 -2 0.5 -10t0.5 -22l2 -14q0 -13 2 -23q3 -5 10 -15t7 -16t-6 -12.5t-12 -6.5l-35 1q-2 0 -11.5 -1t-12.5 -1q-26 0 -26 16q0 10 19 39q2 5 3 59l2 19q2 31 1 42q0 9 -1 16v7q0 10 1 22q1 10 1 56l1 14q-4 31 -4 40q-2 14 -6 20q-25 16 -27 17q-4 1 -4 10
q0 6 4 10t24 10q1 0 4 1.5t8.5 3.5t9.5 3q24 10 37 10q16 0 16 -19q0 -16 -1 -27v-14v-57l-3 -48l-4 -64v-28v-9v-26z" />
    <glyph glyph-name="ordmasculine" unicode="&#xba;" horiz-adv-x="300" 
d="M188 267q-20 -5 -30 -5q-53 0 -95 39q-31 30 -31 61v14q0 38 4 45q16 28 29 38q43 30 90 30q25 0 42 -6q27 -10 38 -25q7 -8 21 -26q9 -15 9 -46q0 -30 -20 -72q-10 -17 -36 -34q-14 -8 -21 -13zM133 458q-12 0 -17 -4q-20 -14 -27 -29q-6 -11 -6 -29v-33q2 -10 8 -23
q7 -19 10 -22q9 -7 24 -13l19 -10l9 1q23 5 33 16q22 25 22 67q0 6 -8 30q-12 29 -24 39q-13 10 -43 10z" />
    <glyph glyph-name="guillemotright" unicode="&#xbb;" horiz-adv-x="333" 
d="M50 353q12 0 21 -19q1 -2 34 -35q19 -17 33 -37q9 -12 25 -28q18 -16 18 -40q0 -6 -13 -25q-4 -7 -14 -21q-2 -2 -27 -24q-15 -19 -27 -35q-1 -1 -4 -3t-7 -5t-9 -6q-18 -20 -22 -21q-12 -5 -20 -5q-10 0 -10 11q0 3 7 16q6 10 10 18q7 14 29 41l14 18q28 28 28 43
q0 3 -11 27q-13 24 -28 42q-13 15 -20 30l-1 1q-1 1 -1.5 2.5t-2 4t-3.5 5.5q-12 22 -12 30q0 15 13 15zM152 354q4 0 21 -12l16 -11q6 -5 21 -30l2 -3q3 -3 8.5 -9.5t10.5 -13.5l17 -22q12 -7 32 -28q16 -11 18 -15q4 -5 4 -15q0 -8 -5 -15q-7 -7 -20 -18q-9 -15 -26 -28
q-24 -20 -54 -56l-14 -13q-20 -18 -32 -30q-5 -5 -9 -5q-11 0 -11 10q3 6 7 13l4 20q1 10 14 21q3 3 8 7l2 1l14 24l7 10l10 16l14 15q14 16 14 24q0 1 -15 24t-18 30l-7 13l-8 15l-14 16q-26 28 -26 50q0 15 15 15z" />
    <glyph glyph-name="onequarter" unicode="&#xbc;" horiz-adv-x="675" 
d="M180 389v-3q0 -2 0.5 -10t0.5 -22l2 -14q0 -13 2 -23q3 -5 10 -15t7 -16t-6 -12.5t-12 -6.5l-35 1q-2 0 -11.5 -1t-12.5 -1q-26 0 -26 16q0 10 19 39q2 5 3 59l2 19q2 31 1 42q0 9 -1 16v7q0 10 1 22q1 10 1 56l1 14q-4 31 -4 40q-2 14 -6 20q-25 16 -27 17q-4 1 -4 10
q0 6 4 10t24 10q1 0 4 1.5t8.5 3.5t9.5 3q24 10 37 10q16 0 16 -19q0 -16 -1 -27v-14v-57l-3 -48l-4 -64v-28v-9v-26zM527 684q23 0 23 -15q0 -8 -4 -13l-65 -111q-11 -24 -15 -33q-6 -12 -22 -36q-2 -4 -52 -90q-8 -16 -9 -17l-15 -17q-2 -2 -10 -22q-2 -5 -9 -19
q-33 -61 -43 -87q-5 -15 -15 -26l-30 -33l-6 -14q-2 -4 -13 -27q-10 -12 -24 -41q-1 -2 -31 -42q-33 -54 -35 -55q-3 -3 -11 -3q-28 0 -28 16q0 3 6 10q5 10 12 23q7 15 23 40q3 7 28 38l13 27l30 51l6 12l11 18q9 16 24 33q14 16 35 66q6 13 20 32l12 25l25 38l16 32
q23 35 34 54q1 2 4.5 9.5t12 26t16.5 35.5l12 17q9 16 26 49q17 30 27 41q8 8 21 8zM517 171q2 0 -6 -0.5t-15 -0.5h-23h-23l-28 1q-32 0 -32 18q0 7 5.5 15t19.5 22t22 24q21 26 33 36t20 19l8 8l12 15q8 7 22 25l13 13l14 16l9 11l6 7q9 13 19 13q15 0 15 -17v-7
q-1 -9 -1 -27q0 -5 1 -14v-24l-1 -58v-12q1 -3 1 -10q0 -13 -1 -20q-1 -3 -1 -6q0 -5 2 -7l11 -10q2 -2 2 -10q0 -9 -1 -14q-2 -5 -15 -15q-1 -1 -1 -6v-11v-7v-21v-20v-43v-12v-8q0 -33 -21 -33q-22 0 -30 2q-4 0 -9.5 5t-4.5 8q3 17 5 50q-4 20 -4 28q0 9 2 45v7l2 10
q-2 15 -27 15zM458 216q3 -1 7 -1q11 -3 15 -3q8 0 15 4q9 -1 18.5 -2.5t13.5 -2t5 -0.5q10 0 11 4q1 1 7 46v27v13q-1 10 -1 18q-13 -10 -43 -39q-3 -3 -8 -9.5t-8 -10.5q-13 -22 -32 -44z" />
    <glyph glyph-name="onehalf" unicode="&#xbd;" horiz-adv-x="675" 
d="M180 389v-3q0 -2 0.5 -10t0.5 -22l2 -14q0 -13 2 -23q3 -5 10 -15t7 -16t-6 -12.5t-12 -6.5l-35 1q-2 0 -11.5 -1t-12.5 -1q-26 0 -26 16q0 10 19 39q2 5 3 59l2 19q2 31 1 42q0 9 -1 16v7q0 10 1 22q1 10 1 56l1 14q-4 31 -4 40q-2 14 -6 20q-25 16 -27 17q-4 1 -4 10
q0 6 4 10t24 10q1 0 4 1.5t8.5 3.5t9.5 3q24 10 37 10q16 0 16 -19q0 -16 -1 -27v-14v-57l-3 -48l-4 -64v-28v-9v-26zM527 684q23 0 23 -15q0 -8 -4 -13l-65 -111q-11 -24 -15 -33q-6 -12 -22 -36q-2 -4 -52 -90q-8 -16 -9 -17l-15 -17q-2 -2 -10 -22q-2 -5 -9 -19
q-33 -61 -43 -87q-5 -15 -15 -26l-30 -33l-6 -14q-2 -4 -13 -27q-10 -12 -24 -41q-1 -2 -31 -42q-33 -54 -35 -55q-3 -3 -11 -3q-28 0 -28 16q0 3 6 10q5 10 12 23q7 15 23 40q3 7 28 38l13 27l30 51l6 12l11 18q9 16 24 33q14 16 35 66q6 13 20 32l12 25l25 38l16 32
q23 35 34 54q1 2 4.5 9.5t12 26t16.5 35.5l12 17q9 16 26 49q17 30 27 41q8 8 21 8zM481 68q4 -1 8 -1l11 -1l40 1l26 -3q16 0 27 11q5 5 10 9t7 6l3 2q4 0 8 -7t4 -11q0 -5 -3 -20q0 -1 -1 -4.5t-2 -10t-2 -12.5q-4 -28 -22 -28q-4 0 -17.5 0.5t-17.5 0.5h-15h-10
q-21 0 -34 -1h-17q-15 0 -28 1l-35 -1q-17 -2 -17 15q0 25 41 69q3 4 34 43l9 11q12 15 38 45q14 15 17 22q31 52 31 94q0 5 -8 31q-3 10 -30 25q-13 5 -14 4l-20 -4q-30 -5 -51 -20q-1 -1 -6 -1q-10 0 -10 10q0 9 20 35q26 32 64 32q24 0 42 -2q11 -4 19 -8l2 -1q1 -1 3 -2
l4 -2q39 -19 46 -50q3 -11 3 -41q2 -33 -12 -63q-5 -11 -22 -31q-16 -14 -45 -46l-36 -39q-3 -4 -30 -35q-9 -11 -12 -22z" />
    <glyph glyph-name="threequarters" unicode="&#xbe;" horiz-adv-x="675" 
d="M51 381q13 0 30 -18q9 -9 9 -21l-2 -27q-2 -5 15 -16q16 -10 26 -10q1 0 30 8l7 8l7 7l6 8l9 12l4 10q7 7 13 18q2 18 2 25q0 9 -5 27q-2 4 -17 20q-9 9 -31 29q-7 2 -23 6q-15 5 -15 15q0 11 12 17l8 3q8 2 15 4q8 3 12 10q4 4 13 18q14 28 14 42q0 29 -22 45
q-17 14 -40 14q-28 0 -41 -9q-10 -5 -14 -5q-10 0 -10 12q0 20 31 35q22 11 38 11t49 -15q31 -15 45 -27q28 -27 27 -48l-1 -16q2 -39 -45 -75q-10 -7 -10 -11t10 -11q55 -43 55 -92q0 -39 -3 -51q-9 -33 -32 -47q-7 -4 -27 -12l-8 -4l-18 -7l-9 -4q-43 -6 -49 -6
q-19 1 -58 36q-32 29 -32 57q0 35 25 35zM527 684q23 0 23 -15q0 -8 -4 -13l-65 -111q-7 -19 -15 -33q-6 -12 -22 -36q-21 -35 -52 -90q-8 -16 -9 -17l-15 -17q-2 -2 -10 -22q-2 -5 -9 -19q-33 -61 -43 -87q-5 -14 -15 -26l-30 -33l-6 -14q-10 -21 -13 -27q-5 -9 -14 -20
q-6 -8 -10 -21q-1 -2 -31 -42q-33 -54 -35 -55q-3 -3 -11 -3q-28 0 -28 16q0 3 6 10q5 10 12 23q7 15 23 40q3 7 28 38l13 27l30 51l6 12l11 18q9 16 24 33q14 16 35 66q6 13 20 32l12 25l25 38l16 32q23 35 34 54q1 2 4.5 9.5t12 26t16.5 35.5l12 17q9 16 26 49
q17 30 27 41q8 8 21 8zM517 171q2 0 -6 -0.5t-15 -0.5h-23h-23l-28 1q-32 0 -32 18q0 11 15 25q2 3 8 9.5l12 13t12 13.5l8 10q15 14 45 45l8 8l12 15q8 7 22 25q3 4 13 13q3 2 14 16l9 11l6 7q9 13 19 13q15 0 15 -17q0 -8 -1 -21v-13q0 -5 1 -14v-24l-1 -58v-12
q1 -3 1 -10q0 -13 -1 -20q-1 -3 -1 -6q0 -5 2 -7l11 -10q2 -2 2 -10q0 -9 -1 -14q-2 -5 -15 -15q-1 -1 -1 -6v-11v-7v-21v-20v-43v-12v-8q0 -33 -21 -33q-22 0 -30 2q-4 0 -9.5 5t-4.5 8q3 16 5 50q-4 20 -4 28v2q0 1 0.5 4.5t0.5 9t0.5 13t0.5 16.5v12l2 5q-2 15 -27 15z
M458 216q3 -1 7 -1q11 -3 15 -3q8 0 15 4q9 -1 18.5 -2.5t13.5 -2t5 -0.5q10 0 11 4q1 1 7 46v27v13q-1 10 -1 18q-13 -10 -43 -39q-3 -3 -8 -9.5t-8 -10.5q-13 -22 -32 -44z" />
    <glyph glyph-name="questiondown" unicode="&#xbf;" horiz-adv-x="367" 
d="M215 224q14 0 14 -16q0 -4 -6 -64q-2 -13 -10 -36q-1 -4 -2.5 -9.5t-4 -14.5t-4.5 -16q-4 -11 -26 -68l-16 -42l-7 -15l-7 -21q-16 -44 -16 -49q0 -32 7 -59l3 -15q7 -33 30 -56q15 -15 45 -15t50 16q16 12 16 39q0 4 -2 14l-2 3q-2 3 -7 9l-10 12q-4 5 -4 20q0 43 33 43
q11 0 19 -4q5 -3 16 -18q2 -2 6 -9q10 -14 10 -25q0 -14 -7 -41q-4 -15 -16 -34q0 -1 -17 -19q-23 -24 -65 -35q-25 -6 -33 -6q-10 0 -23 4q-6 1 -17 2.5t-16 1.5q-14 5 -31 22q-37 38 -49 56q-19 31 -19 112q0 11 12 43l9 23l23 33q3 5 29 45q6 6 18 22q1 0 30 50l10 18
q15 39 22 59q1 4 1 20q0 20 14 20zM202 394q9 0 31 -18q16 -12 16 -42q0 -41 -36 -41q-6 0 -25 8q-27 7 -30 12q-9 11 -9 33q0 23 10 30q7 6 30 15q8 3 13 3z" />
    <glyph glyph-name="Agrave" unicode="&#xc0;" horiz-adv-x="535" 
d="M401 4q-2 0 -4 -1q-20 -7 -36 -7t-16 10q0 7 14 18q30 24 30 55q0 17 -9 45q0 1 -2.5 6.5t-7 16t-9.5 22.5q-3 6 -16 61q-13 37 -49 37l-32 8q-16 6 -38 6q-34 0 -51 -9q-13 -4 -24 -41q-6 -26 -13 -37q-14 -23 -19 -41q0 -1 -4 -21q-5 -38 -5 -41q0 -20 5 -28l4 -4
q4 -4 12 -13t18 -19q11 -11 11 -15q0 -13 -24 -13q-13 0 -32 1h-10h-9h-17l-44 -1q-24 0 -24 15q0 9 5 12l19 15q6 4 20 37q1 3 17 24q4 5 14 44q3 5 25 62l16 44q24 64 51 139q0 2 3.5 10.5t11.5 28.5l16 40q25 60 30 77q16 48 23 103q6 37 24 37q6 0 14 -17q5 -10 33 -94
q0 -1 17 -36q1 -7 6 -28q1 -3 2.5 -9t4.5 -16.5t5 -18.5t17 -39l27 -70l9 -35l17 -55q9 -29 24 -78q7 -18 23 -71q15 -48 35 -70q3 -1 23 -17q6 -5 6 -14q0 -14 -19 -17l-57 -2l-25 -2q-3 0 -36 6zM259 478q-3 0 -5 -2l-10 -17q-11 -19 -20 -35q-15 -44 -15 -63q0 -11 3 -18
q6 -14 40 -21q9 -1 14 -3q13 -4 23 -4q13 0 13 14q0 54 -13 96q-17 53 -30 53zM206 833q6 0 19 -8q1 -1 5.5 -6t14 -15.5t20.5 -22.5l24 -22q18 -15 18 -28q0 -10 -11 -10q-1 0 -34 14l-41 12l-13 5q-22 7 -28 10q-13 9 -13 25t12 31t27 15z" />
    <glyph glyph-name="Aacute" unicode="&#xc1;" horiz-adv-x="535" 
d="M401 4q-2 0 -4 -1q-20 -7 -36 -7t-16 10q0 7 14 18q30 24 30 55q0 17 -9 45q0 1 -2.5 6.5t-7 16t-9.5 22.5q-3 6 -16 61q-13 37 -49 37l-32 8q-16 6 -38 6q-34 0 -51 -9q-13 -4 -24 -41q-6 -26 -13 -37q-14 -23 -19 -41q0 -1 -4 -21q-5 -38 -5 -41q0 -20 5 -28l4 -4
q4 -4 12 -13t18 -19q11 -11 11 -15q0 -13 -24 -13q-13 0 -32 1h-10h-9h-17l-44 -1q-24 0 -24 15q0 9 5 12l19 15q6 4 20 37q1 3 17 24q4 5 14 44q3 5 25 62l16 44q24 64 51 139q0 2 3.5 10.5t11.5 28.5l16 40q25 60 30 77q16 48 23 103q6 37 24 37q6 0 14 -17q5 -10 33 -94
q0 -1 17 -36q1 -7 6 -28q1 -3 2.5 -9t4.5 -16.5t5 -18.5t17 -39l27 -70l9 -35l17 -55q9 -29 24 -78q7 -18 23 -71q15 -48 35 -70q3 -1 23 -17q6 -5 6 -14q0 -14 -19 -17l-57 -2l-25 -2q-3 0 -36 6zM259 478q-3 0 -5 -2l-10 -17q-11 -19 -20 -35q-15 -44 -15 -63q0 -11 3 -18
q6 -14 40 -21q9 -1 14 -3q13 -4 23 -4q13 0 13 14q0 54 -13 96q-17 53 -30 53zM353 830q30 0 30 -30q0 -22 -19 -35q-14 -11 -27 -12l-17 -2l-4 -1q-4 -1 -9 -3t-11 -4q-3 -1 -13 -5q-8 -2 -11 -4q-22 -11 -25 -11q-7 0 -7 8t22 23q27 19 52 51q18 25 39 25z" />
    <glyph glyph-name="Acircumflex" unicode="&#xc2;" horiz-adv-x="535" 
d="M401 4q-2 0 -4 -1q-20 -7 -36 -7t-16 10q0 7 14 18q30 24 30 55q0 17 -9 45q0 1 -2.5 6.5t-7 16t-9.5 22.5q-3 6 -16 61q-13 37 -49 37l-32 8q-16 6 -38 6q-34 0 -51 -9q-13 -4 -24 -41q-6 -26 -13 -37q-14 -23 -19 -41q0 -1 -4 -21q-5 -38 -5 -41q0 -20 5 -28l4 -4
q4 -4 12 -13t18 -19q11 -11 11 -15q0 -13 -24 -13q-13 0 -32 1h-10h-9h-17l-44 -1q-24 0 -24 15q0 9 5 12l19 15q6 4 20 37q1 3 17 24q4 5 14 44q3 5 25 62l16 44q24 64 51 139q0 2 3.5 10.5t11.5 28.5l16 40q25 60 30 77q16 48 23 103q6 37 24 37q6 0 14 -17q5 -10 33 -94
q0 -1 17 -36q1 -7 6 -28q1 -3 2.5 -9t4.5 -16.5t5 -18.5t17 -39l27 -70l9 -35l17 -55q9 -29 24 -78q7 -18 23 -71q15 -48 35 -70q3 -1 23 -17q6 -5 6 -14q0 -14 -19 -17l-57 -2l-25 -2q-3 0 -36 6zM259 478q-3 0 -5 -2l-10 -17q-11 -19 -20 -35q-15 -44 -15 -63q0 -11 3 -18
q6 -14 40 -21q9 -1 14 -3q13 -4 23 -4q13 0 13 14q0 54 -13 96q-17 53 -30 53zM280 842q7 0 13 -3q1 -1 5.5 -7t8.5 -12l17 -25l10 -14q2 -4 7.5 -14.5t8.5 -15.5q5 -11 9 -19q4 -5 4 -10q0 -8 -9 -8q-7 0 -50 34q-22 36 -28 36q-13 0 -24 -23q-6 -11 -10 -15.5t-13.5 -11
t-18.5 -15.5q-8 -8 -15 -8t-7 10q0 1 14 23l12 21l13 19l7 13l16 19q9 19 10 21q5 5 20 5z" />
    <glyph glyph-name="Atilde" unicode="&#xc3;" horiz-adv-x="535" 
d="M401 4q-2 0 -4 -1q-20 -7 -36 -7t-16 10q0 7 14 18q30 24 30 55q0 17 -9 45q0 1 -2.5 6.5t-7 16t-9.5 22.5q-3 6 -16 61q-13 37 -49 37l-32 8q-16 6 -38 6q-34 0 -51 -9q-13 -4 -24 -41q-6 -26 -13 -37q-14 -23 -19 -41q0 -1 -4 -21q-5 -38 -5 -41q0 -20 5 -28l4 -4
q4 -4 12 -13t18 -19q11 -11 11 -15q0 -13 -24 -13q-13 0 -32 1h-10h-9h-17l-44 -1q-24 0 -24 15q0 9 5 12l19 15q6 4 20 37q1 3 17 24q4 5 14 44q3 5 25 62l16 44q24 64 51 139q0 2 3.5 10.5t11.5 28.5l16 40q25 60 30 77q16 48 23 103q6 37 24 37q6 0 14 -17q5 -10 33 -94
q0 -1 17 -36q1 -7 6 -28q1 -3 2.5 -9t4.5 -16.5t5 -18.5t17 -39l27 -70l9 -35l17 -55q9 -29 24 -78q7 -18 23 -71q15 -48 35 -70q3 -1 23 -17q6 -5 6 -14q0 -14 -19 -17l-57 -2l-25 -2q-3 0 -36 6zM259 478q-3 0 -5 -2l-10 -17q-11 -19 -20 -35q-15 -44 -15 -63q0 -11 3 -18
q6 -14 40 -21q9 -1 14 -3q13 -4 23 -4q13 0 13 14q0 54 -13 96q-17 53 -30 53zM237 821q7 0 11 -1q1 0 25 -11l16 -6q37 -19 45 -19q6 0 12.5 2.5t12.5 6t10.5 6.5l7.5 5l3 3q6 0 6 -8q0 -6 -7 -13q-1 -2 -5.5 -8l-7.5 -10q-24 -36 -49 -36q-14 0 -26 4q-5 2 -29 13l-20 6
q-29 13 -42 13q-9 0 -17 -11q-9 -15 -12 -15q-9 0 -9 8q0 2 14 24l12 13q7 10 22 25q15 9 27 9z" />
    <glyph glyph-name="Adieresis" unicode="&#xc4;" horiz-adv-x="535" 
d="M401 4q-2 0 -4 -1q-20 -7 -36 -7t-16 10q0 7 14 18q30 24 30 55q0 17 -9 45q0 1 -2.5 6.5t-7 16t-9.5 22.5q-3 6 -16 61q-13 37 -49 37l-32 8q-16 6 -38 6q-34 0 -51 -9q-13 -4 -24 -41q-6 -26 -13 -37q-14 -23 -19 -41q0 -1 -4 -21q-5 -38 -5 -41q0 -20 5 -28l4 -4
q4 -4 12 -13t18 -19q11 -11 11 -15q0 -13 -24 -13q-13 0 -32 1h-10h-9h-17l-44 -1q-24 0 -24 15q0 9 5 12l19 15q6 4 20 37q1 3 17 24q4 5 14 44q3 5 25 62l16 44q24 64 51 139q0 2 3.5 10.5t11.5 28.5l16 40q25 60 30 77q16 48 23 103q6 37 24 37q6 0 14 -17q5 -10 33 -94
q0 -1 17 -36q1 -7 6 -28q1 -3 2.5 -9t4.5 -16.5t5 -18.5t17 -39l27 -70l9 -35l17 -55q9 -29 24 -78q7 -18 23 -71q15 -48 35 -70q3 -1 23 -17q6 -5 6 -14q0 -14 -19 -17l-57 -2l-25 -2q-3 0 -36 6zM259 478q-3 0 -5 -2l-10 -17q-11 -19 -20 -35q-15 -44 -15 -63q0 -11 3 -18
q6 -14 40 -21q9 -1 14 -3q13 -4 23 -4q13 0 13 14q0 54 -13 96q-17 53 -30 53zM183 821q10 0 31 -15q11 -8 12 -14q0 -7 1 -15q3 -13 3 -16q0 -5 -6 -15q-7 -17 -14 -21.5t-26 -4.5q-10 0 -26 10q-22 13 -22 37q0 16 13 30q23 24 34 24zM360 813q22 2 35 -7q17 -11 17 -41
q0 -12 -4 -24q-1 -7 -15 -13q-18 -9 -26 -9q-38 0 -38 55q0 15 9.5 27t21.5 12z" />
    <glyph glyph-name="Aring" unicode="&#xc5;" horiz-adv-x="535" 
d="M401 4q-2 0 -4 -1q-20 -7 -36 -7t-16 10q0 7 14 18q30 24 30 55q0 17 -9 45q0 1 -2.5 6.5t-7 16t-9.5 22.5q-3 6 -16 61q-13 37 -49 37l-32 8q-16 6 -38 6q-34 0 -51 -9q-13 -4 -24 -41q-6 -26 -13 -37q-14 -23 -19 -41q0 -1 -4 -21q-5 -38 -5 -41q0 -20 5 -28l4 -4
q4 -4 12 -13t18 -19q11 -11 11 -15q0 -13 -24 -13q-13 0 -32 1h-10h-9h-17l-44 -1q-24 0 -24 15q0 9 5 12l19 15q6 4 20 37q1 3 17 24q4 5 14 44q3 5 25 62l16 44q24 64 51 139q0 2 3.5 10.5t11.5 28.5l16 40q25 60 30 77q16 48 23 103q6 37 24 37q6 0 14 -17q5 -10 33 -94
q0 -1 17 -36q1 -7 6 -28q1 -3 2.5 -9t4.5 -16.5t5 -18.5t17 -39l27 -70l9 -35l17 -55q9 -29 24 -78q7 -18 23 -71q15 -48 35 -70q3 -1 23 -17q6 -5 6 -14q0 -14 -19 -17l-57 -2l-25 -2q-3 0 -36 6zM259 478q-3 0 -5 -2l-10 -17q-11 -19 -20 -35q-15 -44 -15 -63q0 -11 3 -18
q6 -14 40 -21q9 -1 14 -3q13 -4 23 -4q13 0 13 14q0 54 -13 96q-17 53 -30 53zM272 847q6 0 24 -8t23 -14q9 -9 13 -24l3 -13q0 -18 -9 -34q-19 -34 -58 -34q-55 0 -55 71q0 24 36 46q12 8 23 10zM269 814q-9 0 -16.5 -9.5t-7.5 -19.5q0 -7 6.5 -17.5t12.5 -12.5h14
q14 2 20 16q4 9 4 14q0 14 -16 24q-8 5 -17 5z" />
    <glyph glyph-name="AE" unicode="&#xc6;" horiz-adv-x="805" 
d="M676 3q-27 -4 -32 -4q-1 0 -6.5 0.5t-17.5 1t-26 0.5l-73 -3q-4 0 -17.5 1t-17.5 1h-7q-34 0 -71 -1l-44 -2q-16 0 -16 10q0 13 12 20q13 7 22 10q17 21 21 29q2 10 5 34l3 28l-1 20q0 8 -2 40l-1 8q0 8 -1 11q-3 52 -25 52h-45q-6 0 -23 9q-23 12 -42 12q-29 0 -36 -12
l-5 -7l-6 -9l-9 -18q-18 -27 -52 -100q-10 -17 -21 -44q-1 -7 -1 -33q0 -18 19 -25q23 -9 23 -25q0 -10 -12 -10q-3 0 -11 2t-9 2l-14 -1h-8l-10 -2q-2 0 -24 2h-70q-25 1 -25 9q0 7 6 15q2 2 25 18q8 4 27 29q12 13 21 28q2 3 6 11l11.5 23t14.5 28q5 10 25 33q9 13 23 35
l14 25l10 15q16 31 40 68q13 17 30 39l1 3q2 3 4 7l5 10t7 14.5t9 17.5q4 8 24 35q12 16 25 43l26 39l13 24q15 27 15 43q0 10 -15 20t-15 17q0 21 24 21q8 0 17 -1h10q2 0 50 2q11 0 24 1q2 0 12 0.5t14 0.5q21 0 50 -7q3 -1 6 -1t22 3q1 1 13 1q14 0 26 1q10 1 25 1
q22 0 45 -5q2 0 5 -1t4 -1q2 0 14.5 2t16.5 2q20 0 22 -17q1 -4 4 -50q0 -12 -1 -17q0 -13 5 -41q2 -14 2 -20q0 -18 -9 -18q-7 4 -21 14q-5 3 -20 39l-10 15q-1 3 -13 19q-9 10 -29 16l-15 2l-16 1q-3 0 -14 4q-30 10 -49 10q-45 0 -49 -25l-2 -22l-2 -15v-8q-6 -35 -6 -52
q0 -22 1 -45q0 -14 -1 -31v-10q0 -48 35 -48q14 0 28 9q36 25 50 42q8 11 15 11q8 0 13 -11q1 -8 2 -24l1 -19q1 -19 -2 -55l-2 -18q0 -3 1 -11t1 -10q0 -11 1 -12q1 -3 1 -6q0 -7 -8 -25q-2 -5 -7 -5q-2 0 -8 2l-9 12l-11 14l-8 22l-17 17q-7 10 -12 12q-7 6 -30 6
q-19 0 -22 -9q-1 -2 -1 -49q-2 -15 -7 -33q-6 -21 -6 -38q0 -1 2 -25l-1 -25q0 -7 -2 -45q0 -3 -0.5 -5.5t-0.5 -4.5t-0.5 -3.5t-0.5 -2.5v-1q0 -34 61 -35q32 -4 43 -4q8 0 37 8q16 4 22 10l19 18q24 15 26 20q0 1 2.5 6.5t8 19.5t11.5 28q5 14 18 14q12 0 12 -21
q0 -69 -4 -92l-3 -39q-5 -20 -23 -20q-3 0 -56 11zM412 538q-10 0 -34 -29q-16 -19 -26 -38l-4 -7q-3 -8 -10 -23t-15 -32q-5 -7 -24 -33q-13 -14 -13 -27q0 -8 6 -11q1 -1 33 -7q29 0 32 -1l34 -8q22 0 22 25v12q-1 48 2 114q2 16 2 19q0 4 1.5 17t1.5 16q0 13 -8 13z" />
    <glyph glyph-name="Ccedilla" unicode="&#xc7;" horiz-adv-x="635" 
d="M392 -18q-24 0 -24 -14q0 -8 6 -9l20 -9q3 -1 11 -12.5t7 -14.5l-4 -21l1 -8v-6q0 -11 -10 -18q-25 -23 -43 -23q-26 0 -38 6q-9 5 -21 20q-9 9 -9 21q0 6 6.5 13t13.5 7q6 0 18 -22q4 -9 31 -9q17 0 17 17q0 16 -6 19l-28 14q-5 3 -5 11q0 2 1 11.5t1 13.5q0 6 -1 9
q-2 6 -22 6q-16 0 -48 17q-13 7 -65 41q-43 31 -66 55q-25 29 -61 93q-14 25 -26 65q-5 18 -5 86q0 56 7 91q11 52 40 87q7 8 13 15.5t9 11.5l3 3l26 43q13 22 87 55q53 24 70 29q39 11 73 11q92 0 180 -52q7 -4 38 -16q12 -5 13 -18q3 -24 3 -66q0 -2 -1 -12t-1 -14v-31
q0 -10 -10 -10q-8 0 -14 12q0 1 -11 24q-21 39 -23 41q-7 12 -18 18l-30 21q-15 12 -54 37q-9 4 -48 10q-28 5 -37 5q-16 0 -31 -9q-31 -7 -66 -38q-23 -13 -30 -19q-32 -35 -47 -66q-23 -51 -23 -63v-46q0 -1 -2 -11q-10 -31 -10 -41q0 -3 1 -6q3 -19 3 -39v-6l-2 -26v-5
l2 -14v-37q0 -14 22 -57q17 -31 32 -47q41 -44 83 -58q26 -8 54 -8l50 1q36 0 46 1q2 1 6 1.5t6 0.5q22 1 32 7q24 15 44 41q12 22 30 49q8 9 11 23q3 23 18 23q14 0 14 -23q0 -4 -2 -54v-28q-2 -29 -4 -37q-1 -5 -9 -10l-10 -5l-6 -3q-3 -1 -4 -2q-34 -21 -39 -21l-29 -9
q-40 -15 -60 -14z" />
    <glyph glyph-name="Egrave" unicode="&#xc8;" horiz-adv-x="496" 
d="M71 670l22 -1q3 0 9.5 0.5t18.5 1t23 0.5q10 0 23 1q2 0 12.5 0.5t14.5 0.5q21 0 50 -7q3 -1 6 -1t22 3q1 1 13 1q13 0 26 1q10 1 24 1q21 0 46 -5q1 0 4 -1t5 -1q3 1 23 4h7q21 0 23 -17q1 -4 4 -51q-1 -9 -1 -17q0 -1 0.5 -5t2 -14.5t2.5 -20.5q0 -3 0.5 -7t1 -6.5
t0.5 -5v-3.5q0 -16 -9 -16q-7 4 -21 14q-5 3 -20 39l-10 15q-1 3 -13 19q-9 10 -29 16q-9 2 -31 3q-1 1 -14 4q-31 10 -49 10q-48 0 -49 -25l-2 -22l-2 -15v-8q-6 -35 -6 -52v-3v-8t0.5 -10.5t0.5 -12v-11.5l-1 -41q0 -48 34 -48q16 0 29 9q36 25 50 42q8 11 15 11t12 -11
q0 -1 0.5 -4t1 -9t0.5 -11l2 -19q1 -19 -2 -55l-2 -18l2 -21q0 -3 0.5 -7.5t1.5 -7.5v-3q0 -7 -8 -25q-2 -5 -7 -5t-17 14l-11 14l-8 22l-17 17q-7 10 -11 12q-7 6 -31 6q-18 0 -22 -9q0 -1 -2 -49q0 -8 -5.5 -35.5t-5.5 -37.5q0 -11 1 -22l-1 -26q0 -7 -2 -45
q0 -3 -0.5 -5.5t-0.5 -4.5t-0.5 -3.5t-0.5 -2.5v-1q0 -33 60 -35q36 -4 44 -4t37 8q16 4 22 10l19 18q23 15 26 20q6 11 22 54q5 14 17 14q13 0 13 -21q0 -69 -4 -92l-3 -39q-5 -20 -23 -20q-3 0 -56 11q-27 -4 -32 -4q-1 0 -6.5 0.5t-17.5 1t-26 0.5l-74 -3q-3 0 -16.5 1
t-17.5 1h-7q-33 0 -71 -1l-43 -2q-17 0 -17 10q0 13 12 20q13 7 22 10q17 21 21 29q2 10 5 34l3 29q0 5 -0.5 20.5t-0.5 19.5v36q-1 11 -1 20l1 10v8q0 66 5 87q-1 10 -2 29t0 43v28l2 43q2 28 6 53l-7 31q-6 32 -13 42q-13 19 -46 40q-4 3 -4 10q0 21 29 21zM193 833
q6 0 19 -8q1 -1 5.5 -6t14 -15.5t20.5 -22.5l24 -22q18 -15 18 -28q0 -10 -11 -10q-1 0 -34 14l-41 12l-13 5q-22 7 -28 10q-13 9 -13 25t12 31t27 15z" />
    <glyph glyph-name="Eacute" unicode="&#xc9;" horiz-adv-x="496" 
d="M71 670l22 -1q3 0 9.5 0.5t18.5 1t23 0.5q10 0 23 1q2 0 12.5 0.5t14.5 0.5q21 0 50 -7q3 -1 6 -1t22 3q1 1 13 1q13 0 26 1q10 1 24 1q21 0 46 -5q1 0 4 -1t5 -1q3 1 23 4h7q21 0 23 -17q1 -4 4 -51q-1 -9 -1 -17q0 -1 0.5 -5t2 -14.5t2.5 -20.5q0 -3 0.5 -7t1 -6.5
t0.5 -5v-3.5q0 -16 -9 -16q-7 4 -21 14q-5 3 -20 39l-10 15q-1 3 -13 19q-9 10 -29 16q-9 2 -31 3q-1 1 -14 4q-31 10 -49 10q-48 0 -49 -25l-2 -22l-2 -15v-8q-6 -35 -6 -52v-3v-8t0.5 -10.5t0.5 -12v-11.5l-1 -41q0 -48 34 -48q16 0 29 9q36 25 50 42q8 11 15 11t12 -11
q0 -1 0.5 -4t1 -9t0.5 -11l2 -19q1 -19 -2 -55l-2 -18l2 -21q0 -3 0.5 -7.5t1.5 -7.5v-3q0 -7 -8 -25q-2 -5 -7 -5t-17 14l-11 14l-8 22l-17 17q-7 10 -11 12q-7 6 -31 6q-18 0 -22 -9q0 -1 -2 -49q0 -8 -5.5 -35.5t-5.5 -37.5q0 -11 1 -22l-1 -26q0 -7 -2 -45
q0 -3 -0.5 -5.5t-0.5 -4.5t-0.5 -3.5t-0.5 -2.5v-1q0 -33 60 -35q36 -4 44 -4t37 8q16 4 22 10l19 18q23 15 26 20q6 11 22 54q5 14 17 14q13 0 13 -21q0 -69 -4 -92l-3 -39q-5 -20 -23 -20q-3 0 -56 11q-27 -4 -32 -4q-1 0 -6.5 0.5t-17.5 1t-26 0.5l-74 -3q-3 0 -16.5 1
t-17.5 1h-7q-33 0 -71 -1l-43 -2q-17 0 -17 10q0 13 12 20q13 7 22 10q17 21 21 29q2 10 5 34l3 29q0 5 -0.5 20.5t-0.5 19.5v36q-1 11 -1 20l1 10v8q0 66 5 87q-1 10 -2 29t0 43v28l2 43q2 28 6 53l-7 31q-6 32 -13 42q-13 19 -46 40q-4 3 -4 10q0 21 29 21zM340 830
q30 0 30 -30q0 -22 -19 -35q-13 -11 -27 -12l-17 -2l-4 -1q-4 -1 -9 -3t-11 -4q-3 -1 -13 -5q-8 -2 -11 -4q-22 -11 -25 -11q-7 0 -7 8t22 23q27 19 52 51q18 25 39 25z" />
    <glyph glyph-name="Ecircumflex" unicode="&#xca;" horiz-adv-x="496" 
d="M71 670l22 -1q3 0 9.5 0.5t18.5 1t23 0.5q10 0 23 1q2 0 12.5 0.5t14.5 0.5q21 0 50 -7q3 -1 6 -1t22 3q1 1 13 1q13 0 26 1q10 1 24 1q21 0 46 -5q1 0 4 -1t5 -1q3 1 23 4h7q21 0 23 -17q1 -4 4 -51q-1 -9 -1 -17q0 -1 0.5 -5t2 -14.5t2.5 -20.5q0 -3 0.5 -7t1 -6.5
t0.5 -5v-3.5q0 -16 -9 -16q-7 4 -21 14q-5 3 -20 39l-10 15q-1 3 -13 19q-9 10 -29 16q-9 2 -31 3q-1 1 -14 4q-31 10 -49 10q-48 0 -49 -25l-2 -22l-2 -15v-8q-6 -35 -6 -52v-3v-8t0.5 -10.5t0.5 -12v-11.5l-1 -41q0 -48 34 -48q16 0 29 9q36 25 50 42q8 11 15 11t12 -11
q0 -1 0.5 -4t1 -9t0.5 -11l2 -19q1 -19 -2 -55l-2 -18l2 -21q0 -3 0.5 -7.5t1.5 -7.5v-3q0 -7 -8 -25q-2 -5 -7 -5t-17 14l-11 14l-8 22l-17 17q-7 10 -11 12q-7 6 -31 6q-18 0 -22 -9q0 -1 -2 -49q0 -8 -5.5 -35.5t-5.5 -37.5q0 -11 1 -22l-1 -26q0 -7 -2 -45
q0 -3 -0.5 -5.5t-0.5 -4.5t-0.5 -3.5t-0.5 -2.5v-1q0 -33 60 -35q36 -4 44 -4t37 8q16 4 22 10l19 18q23 15 26 20q6 11 22 54q5 14 17 14q13 0 13 -21q0 -69 -4 -92l-3 -39q-5 -20 -23 -20q-3 0 -56 11q-27 -4 -32 -4q-1 0 -6.5 0.5t-17.5 1t-26 0.5l-74 -3q-3 0 -16.5 1
t-17.5 1h-7q-33 0 -71 -1l-43 -2q-17 0 -17 10q0 13 12 20q13 7 22 10q17 21 21 29q2 10 5 34l3 29q0 5 -0.5 20.5t-0.5 19.5v36q-1 11 -1 20l1 10v8q0 66 5 87q-1 10 -2 29t0 43v28l2 43q2 28 6 53l-7 31q-6 32 -13 42q-13 19 -46 40q-4 3 -4 10q0 21 29 21zM266 842
q7 0 13 -3q1 -1 5.5 -7t8.5 -12l17 -25l10 -14q2 -4 7.5 -14.5t8.5 -15.5q5 -11 9 -19q4 -5 4 -10q0 -8 -9 -8q-7 0 -50 34q-22 36 -28 36q-13 0 -24 -23q-6 -11 -10 -15.5t-13.5 -11t-18.5 -15.5q-8 -8 -15 -8t-7 10q0 1 14 23l12 21l13 19l7 13l16 19q9 19 10 21q5 5 20 5
z" />
    <glyph glyph-name="Edieresis" unicode="&#xcb;" horiz-adv-x="496" 
d="M71 670l22 -1q3 0 9.5 0.5t18.5 1t23 0.5q10 0 23 1q2 0 12.5 0.5t14.5 0.5q21 0 50 -7q3 -1 6 -1t22 3q1 1 13 1q13 0 26 1q10 1 24 1q21 0 46 -5q1 0 4 -1t5 -1q3 1 23 4h7q21 0 23 -17q1 -4 4 -51q-1 -9 -1 -17q0 -1 0.5 -5t2 -14.5t2.5 -20.5q0 -3 0.5 -7t1 -6.5
t0.5 -5v-3.5q0 -16 -9 -16q-7 4 -21 14q-5 3 -20 39l-10 15q-1 3 -13 19q-9 10 -29 16q-9 2 -31 3q-1 1 -14 4q-31 10 -49 10q-48 0 -49 -25l-2 -22l-2 -15v-8q-6 -35 -6 -52v-3v-8t0.5 -10.5t0.5 -12v-11.5l-1 -41q0 -48 34 -48q16 0 29 9q36 25 50 42q8 11 15 11t12 -11
q0 -1 0.5 -4t1 -9t0.5 -11l2 -19q1 -19 -2 -55l-2 -18l2 -21q0 -3 0.5 -7.5t1.5 -7.5v-3q0 -7 -8 -25q-2 -5 -7 -5t-17 14l-11 14l-8 22l-17 17q-7 10 -11 12q-7 6 -31 6q-18 0 -22 -9q0 -1 -2 -49q0 -8 -5.5 -35.5t-5.5 -37.5q0 -11 1 -22l-1 -26q0 -7 -2 -45
q0 -3 -0.5 -5.5t-0.5 -4.5t-0.5 -3.5t-0.5 -2.5v-1q0 -33 60 -35q36 -4 44 -4t37 8q16 4 22 10l19 18q23 15 26 20q6 11 22 54q5 14 17 14q13 0 13 -21q0 -69 -4 -92l-3 -39q-5 -20 -23 -20q-3 0 -56 11q-27 -4 -32 -4q-1 0 -6.5 0.5t-17.5 1t-26 0.5l-74 -3q-3 0 -16.5 1
t-17.5 1h-7q-33 0 -71 -1l-43 -2q-17 0 -17 10q0 13 12 20q13 7 22 10q17 21 21 29q2 10 5 34l3 29q0 5 -0.5 20.5t-0.5 19.5v36q-1 11 -1 20l1 10v8q0 66 5 87q-1 10 -2 29t0 43v28l2 43q2 28 6 53l-7 31q-6 32 -13 42q-13 19 -46 40q-4 3 -4 10q0 21 29 21zM170 821
q10 0 31 -15q11 -8 12 -14q0 -7 1 -15q3 -13 3 -16q0 -5 -6 -15q-7 -17 -14 -21.5t-26 -4.5q-10 0 -26 10q-22 13 -22 37q0 16 13 30q22 24 34 24zM347 813q22 2 35 -7q17 -11 17 -41q0 -12 -4 -24q-1 -7 -15 -13q-18 -9 -26 -9q-38 0 -38 55q0 15 9.5 27t21.5 12z" />
    <glyph glyph-name="Igrave" unicode="&#xcc;" horiz-adv-x="278" 
d="M74 671l60 -3q35 4 48 4q44 0 44 -25q0 -7 -11 -15q-18 -15 -22 -26q-10 -30 -10 -142q0 2 0.5 -6t0.5 -16q2 -36 2 -61v-27q0 -52 -3 -85q-1 -3 -1 -13q0 -9 1 -16q1 -15 1 -30v-4q-1 -4 -1 -9v-10q0 -8 4 -31l1 -52l1 -17q5 -7 11 -21q1 -3 4 -9t4 -9l15 -15
q8 -11 8 -17q0 -16 -10 -16h-27h-4q-20 -2 -25 -2q-1 0 -4 0.5t-8 1t-10 0.5l-44 -1q-15 -1 -34 6q-9 5 -9 15q0 6 3 9l26 22q9 12 10 32q0 2 1 8t2 15.5t2 19.5q1 3 1 8q0 4 -1.5 18t-1.5 18q0 6 2 44q3 30 3 45q0 4 -5 59l3 32q0 1 -0.5 3.5t-1 7t-0.5 9.5v7v95q0 7 -1 12
q-1 10 -5 51l-1 54q-2 23 -24 42q-17 14 -17 22q0 16 23 18zM71 833q6 0 19 -8q1 -1 5.5 -6t14 -15.5t20.5 -22.5l24 -22q18 -15 18 -28q0 -10 -11 -10q-1 0 -34 14l-41 12l-13 5q-22 7 -28 10q-13 9 -13 25t12 31t27 15z" />
    <glyph glyph-name="Iacute" unicode="&#xcd;" horiz-adv-x="278" 
d="M74 671l60 -3q35 4 48 4q44 0 44 -25q0 -7 -11 -15q-18 -15 -22 -26q-10 -30 -10 -142q0 2 0.5 -6t0.5 -16q2 -36 2 -61v-27q0 -52 -3 -85q-1 -3 -1 -13q0 -9 1 -16q1 -15 1 -30v-4q-1 -4 -1 -9v-10q0 -8 4 -31l1 -52l1 -17q5 -7 11 -21q1 -3 4 -9t4 -9l15 -15
q8 -11 8 -17q0 -16 -10 -16h-27h-4q-20 -2 -25 -2q-1 0 -4 0.5t-8 1t-10 0.5l-44 -1q-15 -1 -34 6q-9 5 -9 15q0 6 3 9l26 22q9 12 10 32q0 2 1 8t2 15.5t2 19.5q1 3 1 8q0 4 -1.5 18t-1.5 18q0 6 2 44q3 30 3 45q0 4 -5 59l3 32q0 1 -0.5 3.5t-1 7t-0.5 9.5v7v95q0 7 -1 12
q-1 10 -5 51l-1 54q-2 23 -24 42q-17 14 -17 22q0 16 23 18zM218 830q30 0 30 -30q0 -22 -19 -35q-13 -11 -27 -12l-17 -2l-4 -1q-4 -1 -9 -3t-11 -4q-3 -1 -13 -5q-8 -2 -11 -4q-22 -11 -25 -11q-7 0 -7 8t22 23q27 19 52 51q18 25 39 25z" />
    <glyph glyph-name="Icircumflex" unicode="&#xce;" horiz-adv-x="278" 
d="M74 671l60 -3q35 4 48 4q44 0 44 -25q0 -7 -11 -15q-18 -15 -22 -26q-10 -30 -10 -142q0 2 0.5 -6t0.5 -16q2 -36 2 -61v-27q0 -52 -3 -85q-1 -3 -1 -13q0 -9 1 -16q1 -15 1 -30v-4q-1 -4 -1 -9v-10q0 -8 4 -31l1 -52l1 -17q5 -7 11 -21q1 -3 4 -9t4 -9l15 -15
q8 -11 8 -17q0 -16 -10 -16h-27h-4q-20 -2 -25 -2q-1 0 -4 0.5t-8 1t-10 0.5l-44 -1q-15 -1 -34 6q-9 5 -9 15q0 6 3 9l26 22q9 12 10 32q0 2 1 8t2 15.5t2 19.5q1 3 1 8q0 4 -1.5 18t-1.5 18q0 6 2 44q3 30 3 45q0 4 -5 59l3 32q0 1 -0.5 3.5t-1 7t-0.5 9.5v7v95q0 7 -1 12
q-1 10 -5 51l-1 54q-2 23 -24 42q-17 14 -17 22q0 16 23 18zM145 842q7 0 13 -3q1 -1 5.5 -7t8.5 -12l17 -25l10 -14q2 -4 7.5 -14.5t8.5 -15.5q5 -11 9 -19q4 -5 4 -10q0 -8 -9 -8q-7 0 -50 34q-22 36 -28 36q-13 0 -24 -23q-6 -11 -10 -15.5t-13.5 -11t-18.5 -15.5
q-8 -8 -15 -8t-7 10q0 1 14 23l12 21l13 19l7 13l16 19q9 19 10 21q5 5 20 5z" />
    <glyph glyph-name="Idieresis" unicode="&#xcf;" horiz-adv-x="278" 
d="M74 671l60 -3q35 4 48 4q44 0 44 -25q0 -7 -11 -15q-18 -15 -22 -26q-10 -30 -10 -142q0 2 0.5 -6t0.5 -16q2 -36 2 -61v-27q0 -52 -3 -85q-1 -3 -1 -13q0 -9 1 -16q1 -15 1 -30v-4q-1 -4 -1 -9v-10q0 -8 4 -31l1 -52l1 -17q5 -7 11 -21q1 -3 4 -9t4 -9l15 -15
q8 -11 8 -17q0 -16 -10 -16h-27h-4q-20 -2 -25 -2q-1 0 -4 0.5t-8 1t-10 0.5l-44 -1q-15 -1 -34 6q-9 5 -9 15q0 6 3 9l26 22q9 12 10 32q0 2 1 8t2 15.5t2 19.5q1 3 1 8q0 4 -1.5 18t-1.5 18q0 6 2 44q3 30 3 45q0 4 -5 59l3 32q0 1 -0.5 3.5t-1 7t-0.5 9.5v7v95q0 7 -1 12
q-1 10 -5 51l-1 54q-2 23 -24 42q-17 14 -17 22q0 16 23 18zM75 821q10 0 31 -15q11 -8 12 -14v-15q3 -13 3 -16t-5 -15q-7 -17 -14 -21.5t-26 -4.5q-10 0 -26 10q-22 13 -22 37q0 16 13 30q23 24 34 24zM199 813q21 2 35 -7q17 -11 17 -41q0 -12 -4 -24q-1 -6 -16 -13
q-18 -9 -25 -9q-39 0 -39 55q0 13 10 26t22 13z" />
    <glyph glyph-name="Eth" unicode="&#xd0;" horiz-adv-x="627" 
d="M91 306l-13 -2q-4 0 -7.5 -0.5t-5.5 -1t-4 -0.5h-3q-16 0 -16 36q0 7 6.5 18.5t12.5 10.5h9l12 -1l10 -2q10 1 8 19q-4 44 -4 56q0 30 2 44q4 20 4 27q0 8 -3 25q-1 18 -3 26q-6 29 -10 36q-4 9 -14 21q-14 10 -23 15q-6 5 -6 15q0 18 41 18q22 0 44 -5q8 -2 9 -2
q3 0 44 9l55 3q1 0 48 -2q33 -1 83 -3q13 -1 70 -34l7 -4l13 -12q39 -23 62 -53q17 -14 43 -53q17 -46 20 -64q6 -42 6 -63v-52v-48q1 -24 -17 -84q-6 -22 -10 -28q-4 -9 -19 -34q-19 -33 -32 -48q-20 -20 -38 -31q-2 -1 -10.5 -6t-13.5 -8q-10 -5 -61 -23q-6 -3 -18 -7
q-40 -14 -58 -16q-13 0 -36 -1q-29 -2 -30 -2q-3 -1 -8 -1t-7 -1q-2 0 -11.5 1.5t-17.5 3.5q-6 1 -37 1q-17 0 -30 1l-29 -1l-35 1l-10 -1h-7q-15 1 -15 20q0 10 7 16l25 15q26 20 25 66q-1 8 3 34t4 33q0 12 -2 46q-1 4 -1 7q0 6 1 9q1 13 1 49q0 11 -10 12zM294 622
q-88 0 -91 -62q-2 -24 -8 -52q-1 -1 -1 -3q0 -3 8 -37v-13q0 -8 -5 -66v-8q0 -19 14 -19q7 0 24 5t21 5q8 0 20 -12q3 -2 5 -11l3 -12l-9 -20q-4 -13 -12 -13q-4 0 -17 2.5t-17 2.5q-8 0 -19 -4q-14 -5 -14 -10l3 -31l-2 -17l-1 -12l-1 -24l-2 -25q5 -42 5 -43t-0.5 -5
t-1 -12.5t-0.5 -17.5v-3q0 -34 25 -53q17 -14 32 -14q5 0 36 9l30 5l23 5q17 4 31 12q7 5 21 21l23 27q4 5 14 15q1 2 19 30q2 3 7.5 10.5t8.5 11.5q6 9 10 25q0 1 1.5 16.5t3.5 28.5l7 39q0 8 2.5 32.5t2.5 30.5l-3 27l-1 27q0 11 -2 45q-1 6 -22 41q-9 20 -34 55
q-13 13 -44 31q-18 11 -22 14q-27 18 -34 21q-15 5 -37 5z" />
    <glyph glyph-name="Ntilde" unicode="&#xd1;" horiz-adv-x="671" 
d="M103 478v25q0 32 -4 48q-7 35 -16 46q-6 6 -43 26q-16 7 -16 22q0 18 14 18l26 -1q4 1 26 3q1 0 6.5 0.5t18 1t26.5 0.5l64 3q28 0 28 -20q0 -5 -1 -8q-3 -20 -3 -27q0 -25 61 -116l10 -16q3 -4 16 -25.5t31 -48.5t41 -55t56 -63q2 -3 4.5 -5.5t4 -4.5t3 -3.5l2.5 -2.5
q11 -18 22 -23l26 -13q11 0 17 21q3 9 8 61l4 52l-1 53q0 7 2 29q1 2 1 5l-3 27l-1 14q-6 35 -9 74q-7 29 -54 58q-11 6 -11 16q0 3 4 10t7 7l59 -6q1 0 14 4t18 4h30q28 0 34 -2q12 -4 12 -15q0 -8 -7 -12l-19 -11q-29 -15 -30 -43q-1 -12 -3 -65q0 -7 -0.5 -15t-1.5 -13
v-5v-3q1 -4 1.5 -11.5t0.5 -15.5q0 -24 1 -51v-24l-1 -4q0 -3 -0.5 -8t-1 -11.5t-1 -14t-0.5 -13.5v-75q-4 -31 -4 -40t4 -45v-35v-21q1 -23 1 -43q0 -14 1 -18q0 -6 0.5 -12t1 -9.5t0.5 -4.5q0 -32 -23 -32q-10 0 -11 4l-25 40q0 1 -13 17q-31 30 -36 38q-14 22 -23 35
q-5 7 -35 42l-9 9l-17 23l-20 25l-19 25l-21 26q-4 5 -14.5 18.5t-17.5 21.5q-2 2 -13.5 18t-21.5 30q-15 21 -24 36q-8 12 -41 56l-35 50q-11 0 -14 -18v-58l-1 -47q-1 -65 -4 -128q-3 -37 -3 -47q0 -12 3 -31q0 -2 2 -36l1 -13q2 -30 3 -42q7 -48 61 -58q16 -3 16 -21
q0 -12 -44 -12q-10 0 -21 1q-20 1 -58 1q-16 0 -25 -1h-7q-10 0 -32 5q-15 5 -15 15q0 6 8 12q15 8 21 11q24 12 33 40q8 23 9 93q0 21 1 32l1 15q0 10 -1 31v10q0 14 4 45q1 7 1 11l-1 18v20q0 4 -0.5 9t-1 8t-0.5 4q0 10 4 34q1 3 1 25q0 4 1 19.5t1 20.5zM298 821
q7 0 11 -1q1 0 25 -11l16 -6q37 -19 45 -19q6 0 12.5 2.5t12.5 6t10.5 6.5l7.5 5l3 3q6 0 6 -8q0 -6 -7 -13q-1 -2 -5.5 -8l-7.5 -10q-24 -36 -49 -36q-14 0 -26 4q-5 2 -29 13l-20 6q-29 13 -42 13q-9 0 -17 -11q-9 -15 -12 -15q-9 0 -9 8q0 2 14 24l12 13q8 10 22 25
q15 9 27 9z" />
    <glyph glyph-name="Ograve" unicode="&#xd2;" horiz-adv-x="741" 
d="M401 686q46 0 79 -12q23 -9 55 -34q2 -2 29 -21l3 -3q3 -2 9 -7.5t13 -12.5q14 -12 26 -24q4 -4 12 -17l18 -30q24 -37 28 -44q1 -1 7 -28q7 -17 14 -39q0 -16 1 -25l3 -40q0 -5 -3 -36l2 -45q1 -12 -4 -36q-3 -12 -24 -56l-16 -32l-15 -18l-11 -13l-14 -17
q-15 -18 -58 -56q-83 -53 -188 -53q-63 0 -96 10q-112 33 -170 145q-29 56 -41 95q-9 28 -13 54l-1 6q0 6 -0.5 19.5t-0.5 28.5q0 3 -0.5 8t-0.5 9l-1 3q0 37 16 85q7 21 37 72q2 3 37 57q44 47 110 77q46 20 61 23q3 1 42 4q43 3 55 3zM345 640q-20 -2 -38 -14
q-23 -15 -38 -25q-25 -25 -47 -54q-7 -8 -25 -43l-14 -25l-8 -21q-1 -3 -13 -31q-3 -12 -3 -43q0 -15 1 -27v-30l-2 -64q0 -5 15 -67q5 -18 12 -42q1 -4 30 -36q12 -21 19 -28q12 -8 27 -19q32 -24 46 -29q10 -4 44 -7q7 0 13.5 -0.5t10.5 -1t5 -0.5q30 0 45 5q12 5 27 16
q10 8 45 30q11 8 24 30q0 2 6 9q16 22 50 85q6 21 7 40q0 5 0.5 9t0.5 5v1v26v11v13v19v4v6.5t-0.5 10.5t-0.5 14q-1 7 -1.5 23t-0.5 24q-2 4 -6 21q-9 40 -34 82q-11 21 -52 66q-18 22 -26 30q-7 7 -34 13q-1 0 -5 1t-5 2q-14 5 -43 6zM303 833q6 0 19 -8q1 -1 5.5 -6
t14 -15.5t20.5 -22.5q2 -2 5 -4.5t9 -8t10 -9.5q18 -15 18 -28q0 -10 -11 -10q-1 0 -34 14l-41 12l-13 5q-22 7 -28 10q-13 9 -13 25t12 31t27 15z" />
    <glyph glyph-name="Oacute" unicode="&#xd3;" horiz-adv-x="741" 
d="M401 686q46 0 79 -12q23 -9 55 -34q2 -2 29 -21l3 -3q3 -2 9 -7.5t13 -12.5q14 -12 26 -24q4 -4 12 -17l18 -30q24 -37 28 -44q1 -1 7 -28q7 -17 14 -39q0 -16 1 -25l3 -40q0 -5 -3 -36l2 -45q1 -12 -4 -36q-3 -12 -24 -56l-16 -32l-15 -18l-11 -13l-14 -17
q-15 -18 -58 -56q-83 -53 -188 -53q-63 0 -96 10q-112 33 -170 145q-29 56 -41 95q-9 28 -13 54l-1 6q0 6 -0.5 19.5t-0.5 28.5q0 3 -0.5 8t-0.5 9l-1 3q0 37 16 85q7 21 37 72q2 3 37 57q44 47 110 77q46 20 61 23q3 1 42 4q43 3 55 3zM345 640q-20 -2 -38 -14
q-23 -15 -38 -25q-25 -25 -47 -54q-7 -8 -25 -43l-14 -25l-8 -21q-1 -3 -13 -31q-3 -12 -3 -43q0 -15 1 -27v-30l-2 -64q0 -5 15 -67q5 -18 12 -42q1 -4 30 -36q12 -21 19 -28q12 -8 27 -19q32 -24 46 -29q10 -4 44 -7q7 0 13.5 -0.5t10.5 -1t5 -0.5q30 0 45 5q12 5 27 16
q10 8 45 30q11 8 24 30q0 2 6 9q16 22 50 85q6 21 7 40q0 5 0.5 9t0.5 5v1v26v11v13v19v4v6.5t-0.5 10.5t-0.5 14q-1 7 -1.5 23t-0.5 24q-2 4 -6 21q-9 40 -34 82q-11 21 -52 66q-18 22 -26 30q-7 7 -34 13q-1 0 -5 1t-5 2q-14 5 -43 6zM450 830q30 0 30 -30q0 -22 -19 -35
q-13 -11 -27 -12l-17 -2l-24 -8q-3 -1 -13 -5q-8 -2 -11 -4q-22 -11 -25 -11q-7 0 -7 8t22 23q27 19 52 51q18 25 39 25z" />
    <glyph glyph-name="Ocircumflex" unicode="&#xd4;" horiz-adv-x="741" 
d="M401 686q46 0 79 -12q23 -9 55 -34q2 -2 29 -21l3 -3q3 -2 9 -7.5t13 -12.5q14 -12 26 -24q4 -4 12 -17l18 -30q24 -37 28 -44q1 -1 7 -28q7 -17 14 -39q0 -16 1 -25l3 -40q0 -5 -3 -36l2 -45q1 -12 -4 -36q-3 -12 -24 -56l-16 -32l-15 -18l-11 -13l-14 -17
q-15 -18 -58 -56q-83 -53 -188 -53q-63 0 -96 10q-112 33 -170 145q-29 56 -41 95q-9 28 -13 54l-1 6q0 6 -0.5 19.5t-0.5 28.5q0 3 -0.5 8t-0.5 9l-1 3q0 37 16 85q7 21 37 72q2 3 37 57q44 47 110 77q46 20 61 23q3 1 42 4q43 3 55 3zM345 640q-20 -2 -38 -14
q-23 -15 -38 -25q-25 -25 -47 -54q-7 -8 -25 -43l-14 -25l-8 -21q-1 -3 -13 -31q-3 -12 -3 -43q0 -15 1 -27v-30l-2 -64q0 -5 15 -67q5 -18 12 -42q1 -4 30 -36q12 -21 19 -28q12 -8 27 -19q32 -24 46 -29q10 -4 44 -7q7 0 13.5 -0.5t10.5 -1t5 -0.5q30 0 45 5q12 5 27 16
q10 8 45 30q11 8 24 30q0 2 6 9q16 22 50 85q6 21 7 40q0 5 0.5 9t0.5 5v1v26v11v13v19v4v6.5t-0.5 10.5t-0.5 14q-1 7 -1.5 23t-0.5 24q-2 4 -6 21q-9 40 -34 82q-11 21 -52 66q-18 22 -26 30q-7 7 -34 13q-1 0 -5 1t-5 2q-14 5 -43 6zM376 842q7 0 13 -3q1 -1 5.5 -7
t8.5 -12l17 -25l10 -14q2 -4 7.5 -14.5t8.5 -15.5q5 -11 9 -19q4 -5 4 -10q0 -8 -9 -8q-7 0 -50 34q-22 36 -28 36q-13 0 -24 -23q-6 -11 -10 -15.5t-13.5 -11t-18.5 -15.5q-8 -8 -15 -8t-7 10q0 1 14 23l12 21l13 19l7 13l16 19q9 19 10 21q5 5 20 5z" />
    <glyph glyph-name="Otilde" unicode="&#xd5;" horiz-adv-x="741" 
d="M401 686q46 0 79 -12q23 -9 55 -34q2 -2 29 -21l3 -3q3 -2 9 -7.5t13 -12.5q14 -12 26 -24q4 -4 12 -17l18 -30q24 -37 28 -44q1 -1 7 -28q7 -17 14 -39q0 -16 1 -25l3 -40q0 -5 -3 -36l2 -45q1 -12 -4 -36q-3 -12 -24 -56l-16 -32l-15 -18l-11 -13l-14 -17
q-15 -18 -58 -56q-83 -53 -188 -53q-63 0 -96 10q-112 33 -170 145q-29 56 -41 95q-9 28 -13 54l-1 6q0 6 -0.5 19.5t-0.5 28.5q0 3 -0.5 8t-0.5 9l-1 3q0 37 16 85q7 21 37 72q2 3 37 57q44 47 110 77q46 20 61 23q3 1 42 4q43 3 55 3zM345 640q-20 -2 -38 -14
q-23 -15 -38 -25q-25 -25 -47 -54q-7 -8 -25 -43l-14 -25l-8 -21q-1 -3 -13 -31q-3 -12 -3 -43q0 -15 1 -27v-30l-2 -64q0 -5 15 -67q5 -18 12 -42q1 -4 30 -36q12 -21 19 -28q12 -8 27 -19q32 -24 46 -29q10 -4 44 -7q7 0 13.5 -0.5t10.5 -1t5 -0.5q30 0 45 5q12 5 27 16
q10 8 45 30q11 8 24 30q0 2 6 9q16 22 50 85q6 21 7 40q0 5 0.5 9t0.5 5v1v26v11v13v19v4v6.5t-0.5 10.5t-0.5 14q-1 7 -1.5 23t-0.5 24q-2 4 -6 21q-9 40 -34 82q-11 21 -52 66q-18 22 -26 30q-7 7 -34 13q-1 0 -5 1t-5 2q-14 5 -43 6zM333 821q7 0 11 -1q1 0 25 -11l16 -6
q37 -19 45 -19q6 0 12.5 2.5t12.5 6t10.5 6.5l7.5 5l3 3q6 0 6 -8q0 -6 -7 -13q-1 -2 -5.5 -8l-7.5 -10q-24 -36 -49 -36q-14 0 -26 4q-5 2 -29 13l-20 6q-29 13 -42 13q-9 0 -17 -11q-9 -15 -12 -15q-9 0 -9 8q0 2 14 24l12 13q8 10 22 25q15 9 27 9z" />
    <glyph glyph-name="Odieresis" unicode="&#xd6;" horiz-adv-x="741" 
d="M401 686q46 0 79 -12q23 -9 55 -34q2 -2 29 -21l3 -3q3 -2 9 -7.5t13 -12.5q14 -12 26 -24q4 -4 12 -17l18 -30q24 -37 28 -44q1 -1 7 -28q7 -17 14 -39q0 -16 1 -25l3 -40q0 -5 -3 -36l2 -45q1 -12 -4 -36q-3 -12 -24 -56l-16 -32l-15 -18l-11 -13l-14 -17
q-15 -18 -58 -56q-83 -53 -188 -53q-63 0 -96 10q-112 33 -170 145q-29 56 -41 95q-9 28 -13 54l-1 6q0 6 -0.5 19.5t-0.5 28.5q0 3 -0.5 8t-0.5 9l-1 3q0 37 16 85q7 21 37 72q2 3 37 57q44 47 110 77q46 20 61 23q3 1 42 4q43 3 55 3zM345 640q-20 -2 -38 -14
q-23 -15 -38 -25q-25 -25 -47 -54q-7 -8 -25 -43l-14 -25l-8 -21q-1 -3 -13 -31q-3 -12 -3 -43q0 -15 1 -27v-30l-2 -64q0 -5 15 -67q5 -18 12 -42q1 -4 30 -36q12 -21 19 -28q12 -8 27 -19q32 -24 46 -29q10 -4 44 -7q7 0 13.5 -0.5t10.5 -1t5 -0.5q30 0 45 5q12 5 27 16
q10 8 45 30q11 8 24 30q0 2 6 9q16 22 50 85q6 21 7 40q0 5 0.5 9t0.5 5v1v26v11v13v19v4v6.5t-0.5 10.5t-0.5 14q-1 7 -1.5 23t-0.5 24q-2 4 -6 21q-9 40 -34 82q-11 21 -52 66q-18 22 -26 30q-7 7 -34 13q-1 0 -5 1t-5 2q-14 5 -43 6zM280 821q10 0 31 -15q11 -8 12 -14
q0 -7 1 -15q3 -13 3 -16q0 -5 -6 -15q-7 -17 -14 -21.5t-26 -4.5q-10 0 -26 10q-22 13 -22 37q0 16 13 30q22 24 34 24zM457 813q22 2 35 -7q17 -11 17 -41q0 -12 -4 -24q-1 -7 -15 -13q-18 -9 -26 -9q-38 0 -38 55q0 15 9.5 27t21.5 12z" />
    <glyph glyph-name="multiply" unicode="&#xd7;" horiz-adv-x="461" 
d="M96 491q12 0 31 -16q9 -7 26 -24l12 -12q10 -8 15 -16q28 -39 52 -39q7 0 27 23q6 7 15 16q33 28 47 50q15 22 32 22q8 0 20 -13t12 -23q0 -5 -4 -9l-22 -23q-5 -5 -17.5 -19t-20.5 -22q-42 -39 -42 -55q0 -13 15 -24q10 -7 43 -38q1 -1 39 -36q26 -23 26 -32
q0 -8 -10 -8h-6h-5q-6 0 -8 -2l-7 -7q-1 -1 -21 -1q-4 0 -11 7q-10 9 -39 39q-5 7 -12 13q-15 13 -19 18q-20 24 -27 24q-10 0 -24 -13q-1 -1 -7 -8t-13 -14l-23 -24l-26 -31q-28 -20 -33 -20q-7 0 -10 4l-10 10q-20 14 -20 20q0 10 30 37l31 29q16 21 21 24q1 1 5.5 3.5
t6.5 3.5t5.5 3.5t5 4.5t3.5 5t3 6t1 6q0 6 -3 9l-20 19q-18 23 -19 24q-6 4 -13 11l-10 9l-25 20q-30 36 -30 42q0 8 6 15q12 12 27 12z" />
    <glyph glyph-name="Oslash" unicode="&#xd8;" horiz-adv-x="741" 
d="M401 686q71 0 109 -24q10 -7 15 -7q6 0 13 16q1 3 6 13q18 28 19 31q7 14 12 19q7 7 21 7q23 0 23 -14q0 -13 -36 -66l-5 -12q-6 -13 -6 -17q0 -18 37 -51q5 -7 18 -26l18 -30q24 -37 28 -44q1 -1 7 -28q4 -10 7.5 -19.5t5 -14t1.5 -5.5q0 -16 1 -25l3 -40q0 -5 -3 -36
l2 -46q1 -12 -4 -36q-6 -17 -24 -55l-16 -32l-15 -19l-11 -12l-14 -17q-45 -48 -58 -56q-83 -53 -188 -53q-63 0 -96 10q-24 6 -41 14q-4 2 -7 2q-8 0 -14 -10q-1 -2 -4 -7.5t-9 -15.5l-12 -20q-16 -30 -34 -30q-29 0 -29 13q0 2 21 34l13 25q19 28 19 37q0 8 -7 15l-16 15
q-46 55 -70 113q-23 51 -30 87q0 3 -2 13t-3 17l-1 46q0 4 -0.5 8.5t-0.5 8.5l-1 3q0 37 16 85q7 22 15 36q1 1 4.5 6.5t8 13.5t9.5 16q28 48 37 57q44 47 110 77q46 20 61 23q3 1 42 4q43 3 55 3zM345 640q-20 -2 -38 -14q-23 -15 -38 -25q-25 -25 -47 -54q-7 -8 -25 -43
l-14 -25l-8 -21q-1 -3 -13 -31q-3 -12 -3 -44q0 -14 1 -26v-30l-2 -67q0 -4 15 -64l9 -31q2 -10 3 -11q3 -8 14 -19q12 -12 18 -12q7 0 24 26l15 25l15 22l11 26l24 35q36 70 47 84q8 12 13 18l27 55l19 27l12 25q10 16 36 63q5 9 12 23q0 1 2 4t3 5q7 11 7 18q0 8 -11 24
l-10 11q-5 3 -43 15q-14 5 -43 6zM524 537q-7 0 -22 -24l-6 -11l-44 -79q-19 -34 -39 -64l-24 -46q-7 -12 -21.5 -36t-19.5 -33q-5 -12 -14 -35q-2 -4 -16 -25l-5 -10l-19 -25q-4 -4 -12 -23q-4 -8 -15 -27q-6 -11 -6 -16q0 -20 36 -37q17 -8 27 -9q6 0 28 -2t28 -2
q30 0 45 5q12 5 27 16q8 8 45 30q11 8 24 30q0 2 6 9q16 22 50 85q6 21 7 40q0 5 0.5 9t0.5 5v1v26q-1 13 0 24v19v4v6.5t-0.5 10.5t-0.5 14q-1 7 -1.5 23t-0.5 24q-2 4 -6 21q-10 40 -34 80l-4 8q-8 14 -14 14z" />
    <glyph glyph-name="Ugrave" unicode="&#xd9;" horiz-adv-x="699" 
d="M488 626q-10 9 -21 15q-16 9 -16 16q0 10 26 10q15 0 43 -4q14 -2 29 -2q1 0 13 1t17 1h44l27 1q18 2 18 -13q0 -11 -24 -34l-12 -7q-5 -2 -11 -5q-9 -7 -20 -34q-6 -13 -6 -32q0 -7 1 -17q1 -11 1 -32l2 -94l-2 -22v-20l-2 -26l-1 -67q0 -7 3 -39q1 -7 1 -13
q0 -15 -6 -44q-4 -15 -4 -21q-3 -15 -5 -21q0 -1 -1 -3.5t-2.5 -7.5t-3.5 -10q-11 -32 -26 -48q-48 -54 -84 -61q-1 0 -5.5 -1t-9.5 -2l-10 -2q-3 -2 -45 -3q-27 -4 -42 -4q-36 0 -67 9q-77 22 -91 30q-22 10 -45 41q-4 4 -11 13q-19 22 -25 38q-12 35 -12 76v7l1 28l-2 34
l-4 22q0 9 -1 36.5t-1 35.5q0 56 8 86l2 6l-8 58q0 1 0.5 4t1 8t0.5 9v14q0 75 -37 93q-17 7 -21 13q-3 2 -3 7q0 14 24 14l24 1h11q5 -1 9 -1q14 0 29 1h30q21 0 29 1q6 1 32 1l38 1q29 0 29 -19q0 -8 -6 -16q-4 -4 -26 -10q-38 -14 -51 -41q-8 -21 -8 -46q-2 -26 0 -55
l2 -22q1 -5 1 -15t1 -15q0 -2 -0.5 -5.5t-1 -11t-0.5 -14.5v-12q0 -5 -1 -14.5t-2 -16t-1 -8.5t5 -72v-13v-18l-1 -18q-4 -67 9 -92q25 -45 30 -53q7 -8 30 -20q4 -2 27 -18q10 -7 17 -7q10 0 40 6q2 1 5 1l49 -2q17 2 50 15q34 19 42 30q2 2 22 37q19 33 21 41q0 11 3 46
l4 55l4 92l-2 25l-1 54v6l1 23q0 1 -1 3q-2 12 -3 25q0 5 -9 26q-2 7 -8 49q-1 5 -1.5 8.5t-1.5 6t-2 3t-2 0.5l-21 16q-4 3 -19 25zM301 833q6 0 19 -8q1 -1 5.5 -6t14 -15.5t20.5 -22.5l24 -22q18 -15 18 -28q0 -10 -11 -10q-1 0 -34 14l-41 12l-13 5q-22 7 -28 10
q-13 9 -13 25t12 31t27 15z" />
    <glyph glyph-name="Uacute" unicode="&#xda;" horiz-adv-x="699" 
d="M488 626q-10 9 -21 15q-16 9 -16 16q0 10 26 10q15 0 43 -4q14 -2 29 -2q1 0 13 1t17 1h44l27 1q18 2 18 -13q0 -11 -24 -34l-12 -7q-5 -2 -11 -5q-9 -7 -20 -34q-6 -13 -6 -32q0 -7 1 -17q1 -11 1 -32l2 -94l-2 -22v-20l-2 -26l-1 -67q0 -7 3 -39q1 -7 1 -13
q0 -15 -6 -44q-4 -15 -4 -21q-3 -15 -5 -21q0 -1 -1 -3.5t-2.5 -7.5t-3.5 -10q-11 -32 -26 -48q-48 -54 -84 -61q-1 0 -5.5 -1t-9.5 -2l-10 -2q-3 -2 -45 -3q-27 -4 -42 -4q-36 0 -67 9q-77 22 -91 30q-22 10 -45 41q-4 4 -11 13q-19 22 -25 38q-12 35 -12 76v7l1 28l-2 34
l-4 22q0 9 -1 36.5t-1 35.5q0 56 8 86l2 6l-8 58q0 1 0.5 4t1 8t0.5 9v14q0 75 -37 93q-17 7 -21 13q-3 2 -3 7q0 14 24 14l24 1h11q5 -1 9 -1q14 0 29 1h30q21 0 29 1q6 1 32 1l38 1q29 0 29 -19q0 -8 -6 -16q-4 -4 -26 -10q-38 -14 -51 -41q-8 -21 -8 -46q-2 -26 0 -55
l2 -22q1 -5 1 -15t1 -15q0 -2 -0.5 -5.5t-1 -11t-0.5 -14.5v-12q0 -5 -1 -14.5t-2 -16t-1 -8.5t5 -72v-13v-18l-1 -18q-4 -67 9 -92q25 -45 30 -53q7 -8 30 -20q4 -2 27 -18q10 -7 17 -7q10 0 40 6q2 1 5 1l49 -2q17 2 50 15q34 19 42 30q2 2 22 37q19 33 21 41q0 11 3 46
l4 55l4 92l-2 25l-1 54v6l1 23q0 1 -1 3q-2 12 -3 25q0 5 -9 26q-2 7 -8 49q-1 5 -1.5 8.5t-1.5 6t-2 3t-2 0.5l-21 16q-4 3 -19 25zM448 830q30 0 30 -30q0 -22 -19 -35q-13 -11 -27 -12l-17 -2l-4 -1q-4 -1 -9 -3t-11 -4q-3 -1 -13 -5q-8 -2 -11 -4q-22 -11 -25 -11
q-7 0 -7 8t22 23q27 19 52 51q18 25 39 25z" />
    <glyph glyph-name="Ucircumflex" unicode="&#xdb;" horiz-adv-x="699" 
d="M488 626q-10 9 -21 15q-16 9 -16 16q0 10 26 10q15 0 43 -4q14 -2 29 -2q1 0 13 1t17 1h44l27 1q18 2 18 -13q0 -11 -24 -34l-12 -7q-5 -2 -11 -5q-9 -7 -20 -34q-6 -13 -6 -32q0 -7 1 -17q1 -11 1 -32l2 -94l-2 -22v-20l-2 -26l-1 -67q0 -7 3 -39q1 -7 1 -13
q0 -15 -6 -44q-4 -15 -4 -21q-3 -15 -5 -21q0 -1 -1 -3.5t-2.5 -7.5t-3.5 -10q-11 -32 -26 -48q-48 -54 -84 -61q-1 0 -5.5 -1t-9.5 -2l-10 -2q-3 -2 -45 -3q-27 -4 -42 -4q-36 0 -67 9q-77 22 -91 30q-22 10 -45 41q-4 4 -11 13q-19 22 -25 38q-12 35 -12 76v7l1 28l-2 34
l-4 22q0 9 -1 36.5t-1 35.5q0 56 8 86l2 6l-8 58q0 1 0.5 4t1 8t0.5 9v14q0 75 -37 93q-17 7 -21 13q-3 2 -3 7q0 14 24 14l24 1h11q5 -1 9 -1q14 0 29 1h30q21 0 29 1q6 1 32 1l38 1q29 0 29 -19q0 -8 -6 -16q-4 -4 -26 -10q-38 -14 -51 -41q-8 -21 -8 -46q-2 -26 0 -55
l2 -22q1 -5 1 -15t1 -15q0 -2 -0.5 -5.5t-1 -11t-0.5 -14.5v-12q0 -5 -1 -14.5t-2 -16t-1 -8.5t5 -72v-13v-18l-1 -18q-4 -67 9 -92q25 -45 30 -53q7 -8 30 -20q4 -2 27 -18q10 -7 17 -7q10 0 40 6q2 1 5 1l49 -2q17 2 50 15q34 19 42 30q2 2 22 37q19 33 21 41q0 11 3 46
l4 55l4 92l-2 25l-1 54v6l1 23q0 1 -1 3q-2 12 -3 25q0 5 -9 26q-2 7 -8 49q-1 5 -1.5 8.5t-1.5 6t-2 3t-2 0.5l-21 16q-4 3 -19 25zM375 842q7 0 13 -3q1 -1 5.5 -7t8.5 -12l17 -25l10 -14q2 -4 7.5 -14.5t8.5 -15.5q5 -11 9 -19q4 -5 4 -10q0 -8 -9 -8q-7 0 -50 34
q-23 36 -28 36q-13 0 -24 -23q-6 -11 -10 -15.5t-13.5 -11t-18.5 -15.5q-8 -8 -15 -8t-7 10q0 1 14 23l12 21l13 19l7 13l16 19q9 19 10 21q5 5 20 5z" />
    <glyph glyph-name="Udieresis" unicode="&#xdc;" horiz-adv-x="699" 
d="M488 626q-10 9 -21 15q-16 9 -16 16q0 10 26 10q15 0 43 -4q14 -2 29 -2q1 0 13 1t17 1h44l27 1q18 2 18 -13q0 -11 -24 -34l-12 -7q-5 -2 -11 -5q-9 -7 -20 -34q-6 -13 -6 -32q0 -7 1 -17q1 -11 1 -32l2 -94l-2 -22v-20l-2 -26l-1 -67q0 -7 3 -39q1 -7 1 -13
q0 -15 -6 -44q-4 -15 -4 -21q-3 -15 -5 -21q0 -1 -1 -3.5t-2.5 -7.5t-3.5 -10q-11 -32 -26 -48q-48 -54 -84 -61q-1 0 -5.5 -1t-9.5 -2l-10 -2q-3 -2 -45 -3q-27 -4 -42 -4q-36 0 -67 9q-77 22 -91 30q-22 10 -45 41q-4 4 -11 13q-19 22 -25 38q-12 35 -12 76v7l1 28l-2 34
l-4 22q0 9 -1 36.5t-1 35.5q0 56 8 86l2 6l-8 58q0 1 0.5 4t1 8t0.5 9v14q0 75 -37 93q-17 7 -21 13q-3 2 -3 7q0 14 24 14l24 1h11q5 -1 9 -1q14 0 29 1h30q21 0 29 1q6 1 32 1l38 1q29 0 29 -19q0 -8 -6 -16q-4 -4 -26 -10q-38 -14 -51 -41q-8 -21 -8 -46q-2 -26 0 -55
l2 -22q1 -5 1 -15t1 -15q0 -2 -0.5 -5.5t-1 -11t-0.5 -14.5v-12q0 -5 -1 -14.5t-2 -16t-1 -8.5t5 -72v-13v-18l-1 -18q-4 -67 9 -92q25 -45 30 -53q7 -8 30 -20q4 -2 27 -18q10 -7 17 -7q10 0 40 6q2 1 5 1l49 -2q17 2 50 15q34 19 42 30q2 2 22 37q19 33 21 41q0 11 3 46
l4 55l4 92l-2 25l-1 54v6l1 23q0 1 -1 3q-2 12 -3 25q0 5 -9 26q-2 7 -8 49q-1 5 -1.5 8.5t-1.5 6t-2 3t-2 0.5l-21 16q-4 3 -19 25zM283 821q10 0 31 -15q11 -8 12 -14q0 -7 1 -15q3 -13 3 -16q0 -5 -6 -15q-7 -17 -14 -21.5t-26 -4.5q-10 0 -26 10q-22 13 -22 37
q0 16 13 30q22 24 34 24zM460 813q22 2 35 -7q17 -11 17 -41q0 -12 -4 -24q-1 -7 -15 -13q-18 -9 -26 -9q-38 0 -38 55q0 15 9.5 27t21.5 12z" />
    <glyph glyph-name="Yacute" unicode="&#xdd;" horiz-adv-x="567" 
d="M298 0q-3 0 -6 -1q-28 -2 -30 -2q-6 0 -11 1q-11 1 -19 1l-13 -1h-23q-23 -2 -23 10q0 9 7 12l22 10q8 5 27 34q20 25 20 36v5q0 4 -0.5 7t-0.5 5v3.5v1.5l3 59q0 15 3 45q0 5 1 8l-4 54q-2 19 -3 38q0 2 -24 42q-4 7 -34 59q-15 19 -21 27q-19 24 -28 41q-1 3 -20 33
q-23 38 -30 45l-20 19l-18 20l-15 13q-26 17 -28 19q-4 4 -4 10q0 4 4 8q1 1 40 3q30 3 33 3q6 0 29 -4q4 0 18.5 1.5t18.5 1.5q1 0 4 -0.5t8.5 -1t10.5 -0.5q2 -1 23 -1q29 0 29 -16q0 -6 -7 -13l-15 -17q-9 -9 -9 -21q0 -14 32 -63q19 -32 24 -36l4 -4l7 -7l8 -8
q5 -5 16 -25l14 -22q13 -28 19 -28q29 0 73 92l12 24q14 18 25 32q12 15 12 28q0 14 -11 31l-2 2q-1 2 -4 5t-5 6l-3 2q-2 1 -6 4.5t-9 7.5q-4 3 -4 10q0 16 29 16h10q6 0 13 -0.5t11 -1t6 -0.5q3 0 21 3q5 1 13 1q9 0 40 -4q28 -4 28 -18q0 -9 -5 -13.5t-33 -19.5
q-15 -7 -36 -33l-2 -3l-8.5 -8.5t-11.5 -12.5q-7 -8 -24 -43l-15 -22l-11 -17l-7 -10l-5 -7l-10 -15l-26 -39q-17 -20 -23 -35q-7 -21 -6 -55v-57v-8q-3 -26 -3 -28q0 -3 2.5 -16t1.5 -17l-2 -46l-1 -31q-1 -24 8 -44q7 -16 30 -36q17 -14 17 -23t-8 -7l-22 1q-5 -1 -21 -1z
M382 830q30 0 30 -30q0 -22 -19 -35q-13 -11 -27 -12l-17 -2l-4 -1q-4 -1 -9 -3t-11 -4q-3 -1 -13 -5q-8 -2 -11 -4q-22 -11 -25 -11q-7 0 -7 8t22 23q27 19 52 51q18 25 39 25z" />
    <glyph glyph-name="Thorn" unicode="&#xde;" horiz-adv-x="499" 
d="M74 671l60 -3q35 4 48 4q44 0 44 -25q0 -7 -11 -15q-16 -13 -21 -23q-11 -33 -11 -56q0 -9 1.5 -13.5t5.5 -3.5l12 1l10 -1l5 1l27 -1q6 0 18.5 -0.5t17.5 -1.5q1 0 9 -2.5t16 -4.5q76 -6 132 -116q12 -25 15 -40q3 -23 3 -36q0 -75 -50 -119q-37 -40 -62 -46l-19 -5
q-34 -9 -38 -9l-21 1l-32 -4l-26 2q-20 2 -20 -33q0 -1 2 -27q1 -7 1 -12l10 -17q8 -21 21 -31q10 -10 10 -19q0 -16 -10 -16h-27h-4q-20 -2 -25 -2q-1 0 -4 0.5t-8 1t-10 0.5l-44 -1q-15 -1 -34 6q-9 5 -9 15q0 6 3 9l26 22q8 10 10 32q2 14 6 43v7q0 4 -1.5 18.5
t-1.5 18.5q0 5 2 45q3 30 3 44q0 4 -5 59l3 32q0 1 -0.5 3.5t-1 7t-0.5 9.5v7v95q0 7 -1 12q-1 10 -5 51l-1 54q-2 23 -24 42q-17 14 -17 22q0 16 23 18zM271 488l-23 -1l-19 1q-20 2 -37 -28q-10 -17 -10 -33q0 -3 1 -15t1 -16q0 -10 -1 -18q-1 -12 -1 -23v-28l-2 -24
q-3 -17 -3 -22l2 -14q1 -3 2 -8.5t1 -7.5q9 -58 37 -55l33 6q26 1 34 3q20 7 39 31l6 8q4 4 16 24q0 2 9 42l8 31q0 3 -5 25q-1 4 -4 41q0 12 -13 28q-6 4 -23.5 21t-28.5 26q-9 5 -19 6z" />
    <glyph glyph-name="germandbls" unicode="&#xdf;" horiz-adv-x="481" 
d="M241 619h8h10q39 -2 68 -23q36 -28 40 -77q5 -12 6 -37l1 -5v-3q0 -20 -27 -54q-12 -16 -16 -20l-27 -20q-18 -14 -18 -29q0 -3 0.5 -5t2.5 -4l3.5 -3.5t6 -4.5t8 -5t11 -6t13.5 -8q63 -33 83 -68q5 -7 9.5 -13.5t7 -10t3.5 -4.5q10 -16 11 -32q0 -2 2 -16q4 -17 4 -28
q0 -10 -15 -61q-13 -40 -52 -61q-5 -2 -33 -20q-11 -5 -33 -6h-16l-22 -2q-21 0 -57 17q-38 20 -38 59q0 16 15 41q9 15 26 15q25 0 35 -16q4 -7 4 -13q0 -5 -3 -20t-3 -17l-2 -17q0 -5 9 -8q24 -8 30 -8q21 2 39 30q11 17 13 52q3 28 3 31q0 7 -9 43q-2 5 -3 31
q-10 27 -37 58l-21 22q-1 1 -27 19q-16 10 -16 39q0 9 11 26q14 21 15 28q1 1 10 16q17 28 17 52q0 49 -24 74q-21 22 -39 22q-22 0 -41 -22q-15 -19 -17 -22q-7 -13 -7 -83q0 -3 3 -24v-17q0 -31 -4 -72q-1 -4 -1 -8l2 -22v-2l-1 -26l4 -54v-7l-2 -39q0 -5 1 -10
q1 -8 1 -63v-10v-27q0 -4 0.5 -18t0.5 -18q0 -27 -38 -27q-4 0 -20.5 1.5t-21.5 1.5q-15 0 -26 -1q-5 -1 -14 -1q-27 0 -27 15q0 7 1 8l33 24q8 4 16 28v4q1 5 1.5 15t0.5 22q0 9 2 29q1 8 1 13q0 6 -2.5 31t-2.5 33q0 23 11 67q1 3 1 7q1 3 1 4t-0.5 4t-1 9t-0.5 12v11
q0 7 -1 15q-1 7 -1 19v32l-1 28q0 5 9 40q1 4 13 45q1 2 4.5 7t9.5 14t11 17q4 5 11.5 16.5t11.5 17.5q34 33 93 33z" />
    <glyph glyph-name="agrave" unicode="&#xe0;" horiz-adv-x="334" 
d="M163 320h-13q-15 -2 -18 -5l-2 -2q-1 -2 -4 -5t-5 -6q-6 -6 -19 -15q-14 -10 -20 -10q-18 0 -18 23t20 40q6 6 32 14l12 6q16 8 27 8q37 0 53 -6q24 -8 49 -45q11 -17 11 -42q0 -1 -0.5 -7.5t-0.5 -10.5l-1 -129q0 -17 1 -28q3 -14 18 -32q7 -9 13 -10l15 -6q2 -2 2 -5
q0 -6 -16 -26q-23 -29 -46 -29q-8 0 -20 5q-2 1 -16 12q-10 8 -15 8q-1 0 -11.5 -6.5t-29.5 -12.5t-42 -6q-44 0 -77 33q-8 8 -10 23q-1 2 -1.5 5t-0.5 5q-1 12 -3 17q0 4 1 7l2 29q2 18 12 33q20 26 66 51q1 0 6 2t14.5 6.5t20.5 8.5q25 9 38 22q15 16 15 31q0 9 -16 35
q-12 18 -23 20zM196 204q-9 0 -30 -18q-2 -1 -8 -7q-21 -16 -30 -25q-26 -32 -26 -61q0 -21 15 -31q23 -17 47 -17q32 0 37 51q0 3 1.5 18t3.5 29q1 7 1 13l-1 20q-2 19 -2 20q-2 8 -8 8zM99 519q8 0 19 -7q2 -1 40 -42q1 -1 4 -3.5l9 -7.5t11 -9q18 -14 18 -27
q0 -10 -10 -10q-5 0 -35 13l-41 12l-13 4q-22 7 -28 10q-13 7 -13 23t12 30t27 14z" />
    <glyph glyph-name="aacute" unicode="&#xe1;" horiz-adv-x="334" 
d="M163 320h-13q-15 -2 -18 -5l-2 -2q-1 -2 -4 -5t-5 -6q-6 -6 -19 -15q-14 -10 -20 -10q-18 0 -18 23t20 40q6 6 32 14l12 6q16 8 27 8q37 0 53 -6q24 -8 49 -45q11 -17 11 -42q0 -1 -0.5 -7.5t-0.5 -10.5l-1 -129q0 -17 1 -28q3 -14 18 -32q7 -9 13 -10l15 -6q2 -2 2 -5
q0 -6 -16 -26q-23 -29 -46 -29q-8 0 -20 5q-2 1 -16 12q-10 8 -15 8q-1 0 -11.5 -6.5t-29.5 -12.5t-42 -6q-44 0 -77 33q-8 8 -10 23q-1 2 -1.5 5t-0.5 5q-1 12 -3 17q0 4 1 7l2 29q2 18 12 33q20 26 66 51q1 0 6 2t14.5 6.5t20.5 8.5q25 9 38 22q15 16 15 31q0 9 -16 35
q-12 18 -23 20zM196 204q-9 0 -30 -18q-2 -1 -8 -7q-21 -16 -30 -25q-26 -32 -26 -61q0 -21 15 -31q23 -17 47 -17q32 0 37 51q0 3 1.5 18t3.5 29q1 7 1 13l-1 20q-2 19 -2 20q-2 8 -8 8zM246 510q30 0 30 -29q0 -20 -19 -33q-12 -9 -27 -11l-17 -2q-12 -3 -24 -7
q-11 -4 -14 -5q-7 -3 -31 -14q-1 -1 -2 -1q-10 0 -10 9q0 7 23 21q30 20 52 48q18 24 39 24z" />
    <glyph glyph-name="acircumflex" unicode="&#xe2;" horiz-adv-x="334" 
d="M163 320h-13q-15 -2 -18 -5l-2 -2q-1 -2 -4 -5t-5 -6q-6 -6 -19 -15q-14 -10 -20 -10q-18 0 -18 23t20 40q6 6 32 14l12 6q16 8 27 8q37 0 53 -6q24 -8 49 -45q11 -17 11 -42q0 -1 -0.5 -7.5t-0.5 -10.5l-1 -129q0 -17 1 -28q3 -14 18 -32q7 -9 13 -10l15 -6q2 -2 2 -5
q0 -6 -16 -26q-23 -29 -46 -29q-8 0 -20 5q-2 1 -16 12q-10 8 -15 8q-1 0 -11.5 -6.5t-29.5 -12.5t-42 -6q-44 0 -77 33q-8 8 -10 23q-1 2 -1.5 5t-0.5 5q-1 12 -3 17q0 4 1 7l2 29q2 18 12 33q20 26 66 51q1 0 6 2t14.5 6.5t20.5 8.5q25 9 38 22q15 16 15 31q0 9 -16 35
q-12 18 -23 20zM196 204q-9 0 -30 -18q-2 -1 -8 -7q-21 -16 -30 -25q-26 -32 -26 -61q0 -21 15 -31q23 -17 47 -17q32 0 37 51q0 3 1.5 18t3.5 29q1 7 1 13l-1 20q-2 19 -2 20q-2 8 -8 8zM173 528q7 0 13 -3q0 -1 13 -19l17 -23l10 -13q1 -1 7 -11t10 -18q1 -3 2.5 -6t2 -5
t1.5 -3.5t1 -2.5l1 -1q4 -5 4 -9q0 -8 -9 -8q-6 0 -49 32q-25 34 -28 34q-13 0 -25 -22q-7 -12 -9.5 -14.5t-13.5 -9.5q-7 -4 -18 -15q-10 -8 -15 -8q-7 0 -7 10q1 3 14 21l11 21l13 18l7 12l16 18q9 18 13.5 21.5t17.5 3.5z" />
    <glyph glyph-name="atilde" unicode="&#xe3;" horiz-adv-x="334" 
d="M163 320h-13q-15 -2 -18 -5l-2 -2q-1 -2 -4 -5t-5 -6q-6 -6 -19 -15q-14 -10 -20 -10q-18 0 -18 23t20 40q6 6 32 14l12 6q16 8 27 8q37 0 53 -6q24 -8 49 -45q11 -17 11 -42q0 -1 -0.5 -7.5t-0.5 -10.5l-1 -129q0 -17 1 -28q3 -14 18 -32q7 -9 13 -10l15 -6q2 -2 2 -5
q0 -6 -16 -26q-23 -29 -46 -29q-8 0 -20 5q-2 1 -16 12q-10 8 -15 8q-1 0 -11.5 -6.5t-29.5 -12.5t-42 -6q-44 0 -77 33q-8 8 -10 23q-1 2 -1.5 5t-0.5 5q-1 12 -3 17q0 4 1 7l2 29q2 18 12 33q20 26 66 51q1 0 6 2t14.5 6.5t20.5 8.5q25 9 38 22q15 16 15 31q0 9 -16 35
q-12 18 -23 20zM196 204q-9 0 -30 -18q-2 -1 -8 -7q-21 -16 -30 -25q-26 -32 -26 -61q0 -21 15 -31q23 -17 47 -17q32 0 37 51q0 3 1.5 18t3.5 29q1 7 1 13l-1 20q-2 19 -2 20q-2 8 -8 8zM128 496q7 0 12 -1q3 -1 25 -12l17 -5q38 -20 44 -20t12.5 2t12.5 5t10.5 6.5
t7.5 5.5l3 2q7 0 6 -7q0 -1 -20 -29q-15 -19 -21 -25q-13 -8 -27 -8q-10 0 -28 5q-5 1 -28 12q-20 8 -30 11q-22 8 -31 8q-11 0 -18 -10q-11 -14 -13 -14q-9 0 -9 9q0 7 12 18l15 15q26 32 48 32z" />
    <glyph glyph-name="adieresis" unicode="&#xe4;" horiz-adv-x="334" 
d="M163 320h-13q-15 -2 -18 -5l-2 -2q-1 -2 -4 -5t-5 -6q-6 -6 -19 -15q-14 -10 -20 -10q-18 0 -18 23t20 40q6 6 32 14l12 6q16 8 27 8q37 0 53 -6q24 -8 49 -45q11 -17 11 -42q0 -1 -0.5 -7.5t-0.5 -10.5l-1 -129q0 -17 1 -28q3 -14 18 -32q7 -9 13 -10l15 -6q2 -2 2 -5
q0 -6 -16 -26q-23 -29 -46 -29q-8 0 -20 5q-2 1 -16 12q-10 8 -15 8q-1 0 -11.5 -6.5t-29.5 -12.5t-42 -6q-44 0 -77 33q-8 8 -10 23q-1 2 -1.5 5t-0.5 5q-1 12 -3 17q0 4 1 7l2 29q2 18 12 33q20 26 66 51q1 0 6 2t14.5 6.5t20.5 8.5q25 9 38 22q15 16 15 31q0 9 -16 35
q-12 18 -23 20zM196 204q-9 0 -30 -18q-2 -1 -8 -7q-21 -16 -30 -25q-26 -32 -26 -61q0 -21 15 -31q23 -17 47 -17q32 0 37 51q0 3 1.5 18t3.5 29q1 7 1 13l-1 20q-2 19 -2 20q-2 8 -8 8zM104 497q10 0 24 -11q3 -3 6 -15l5 -22q0 -17 -12 -29q-7 -7 -16 -7q-39 0 -46 28
l-4 17q0 19 7 26q13 13 36 13zM216 496q10 0 27 -9q20 -11 20 -34q0 -15 -22 -34q-13 -11 -19 -11q-18 0 -37 17q-6 6 -7 21l-3 14q0 2 6 14t8 14q8 8 27 8z" />
    <glyph glyph-name="aring" unicode="&#xe5;" horiz-adv-x="334" 
d="M163 320h-13q-15 -2 -18 -5l-2 -2q-1 -2 -4 -5t-5 -6q-6 -6 -19 -15q-14 -10 -20 -10q-18 0 -18 23t20 40q6 6 32 14l12 6q16 8 27 8q37 0 53 -6q24 -8 49 -45q11 -17 11 -42q0 -1 -0.5 -7.5t-0.5 -10.5l-1 -129q0 -17 1 -28q3 -14 18 -32q7 -9 13 -10l15 -6q2 -2 2 -5
q0 -6 -16 -26q-23 -29 -46 -29q-8 0 -20 5q-2 1 -16 12q-10 8 -15 8q-1 0 -11.5 -6.5t-29.5 -12.5t-42 -6q-44 0 -77 33q-8 8 -10 23q-1 2 -1.5 5t-0.5 5q-1 12 -3 17q0 4 1 7l2 29q2 18 12 33q20 26 66 51q1 0 6 2t14.5 6.5t20.5 8.5q25 9 38 22q15 16 15 31q0 9 -16 35
q-12 18 -23 20zM196 204q-9 0 -30 -18q-2 -1 -8 -7q-21 -16 -30 -25q-26 -32 -26 -61q0 -21 15 -31q23 -17 47 -17q32 0 37 51q0 3 1.5 18t3.5 29q1 7 1 13l-1 20q-2 19 -2 20q-2 8 -8 8zM172 525q6 1 24 -6.5t24 -13.5q7 -7 12 -23l3 -13q0 -16 -9 -31q-20 -32 -58 -32
q-54 0 -54 66q0 24 35 45q14 8 23 8zM169 495q-9 0 -16.5 -9t-7.5 -19t7 -17q9 -10 12 -12l15 1q13 0 20 15q4 8 4 13q0 12 -16 22q-9 6 -18 6z" />
    <glyph glyph-name="ae" unicode="&#xe6;" horiz-adv-x="515" 
d="M162 320h-22q-5 -1 -19 -18q-6 -6 -19 -15q-14 -10 -20 -10q-18 0 -18 23t20 40q6 6 32 14l12 6q16 8 27 8q41 0 54 -6q19 -7 36 -29q10 -13 16 -13q8 0 18 10q43 37 85 37q50 0 93 -39q36 -34 36 -62q0 -35 -31 -35q-2 0 -13 1t-13 1q-16 0 -27 -1q-26 -2 -28 -2h-9h-6
q-14 0 -20 1q-28 3 -36 3q-20 0 -34 -13q-7 -6 -7 -20q0 -1 0.5 -3t1 -6t0.5 -8q3 -40 6 -44q7 -16 39 -42q22 -20 36 -24q21 -6 34 -6q34 0 69 12q13 5 16 7q4 2 6 2q7 0 7 -8q0 -5 -4 -13l-2 -8q-6 -21 -17 -31q-2 -2 -14 -11q-15 -11 -31 -18q-19 -8 -59 -8q-11 0 -38 9
q-17 7 -26 11q-11 8 -20 21q-10 16 -20 16q-13 0 -59 -34q-32 -23 -75 -23q-44 0 -77 33q-5 7 -14 41v5q0 44 6 59q9 23 62 58q26 17 55 25q16 4 34 19q17 17 17 33q0 7 -16 35q-11 18 -24 20zM350 331q-27 0 -47 -20q-13 -14 -13 -30q0 -10 9 -13q17 -6 92 -6q26 0 26 15
q0 21 -21 39q-16 15 -46 15zM202 204q-10 0 -32 -18q-2 -1 -8 -7q-29 -21 -33 -25q-27 -32 -27 -61q0 -21 15 -31q23 -17 48 -17q16 0 27 10q34 25 34 40q0 1 -5 16q-8 23 -9 65q0 4 -0.5 8.5t-1 7.5t-0.5 4q-2 8 -8 8z" />
    <glyph glyph-name="ccedilla" unicode="&#xe7;" horiz-adv-x="339" 
d="M302 57q7 0 7 -5t-12 -14q-1 -1 -7.5 -6.5t-11.5 -9.5q-3 -3 -29 -21q-10 -4 -30 -8q-17 -3 -17 -12q0 -7 3 -9l21 -9q3 -1 10.5 -12.5t7.5 -14.5l-4 -20l1 -14q0 -10 -10 -19q-25 -23 -43 -23q-28 0 -38 6q-9 5 -21 20q-9 10 -9 21q0 6 6.5 13t13.5 7q6 0 18 -22
q5 -8 31 -8q17 0 17 17q0 15 -6 18l-28 14q-5 3 -5 12q0 7 1 16q1 3 1 17q0 8 -10 9q-31 4 -72 39l-8 9q-1 1 -3 4t-4.5 6t-4.5 6q-13 17 -22 35q-4 13 -8 40q-9 42 -9 54q0 67 48 120q43 46 97 52q3 1 45 1q33 0 43 -3q29 -9 45 -31q11 -17 11 -33q0 -12 -8.5 -21.5
t-19.5 -9.5q-27 0 -59 39q-14 18 -26 19q-7 1 -40 3q-20 -1 -42 -33q-16 -22 -16 -82q0 -2 0.5 -8.5t0.5 -8.5v-26q0 5 11 -20q6 -14 15 -36q11 -25 27 -48q7 -9 25 -21q19 -12 29 -11h13q24 2 45 8q3 1 7.5 3t5.5 2q9 5 17 9z" />
    <glyph glyph-name="egrave" unicode="&#xe8;" horiz-adv-x="328" 
d="M178 367q56 0 106 -54q22 -25 22 -47q0 -35 -31 -35q-3 0 -13 1t-13 1q-16 0 -27 -1q-26 -2 -28 -2h-9h-6q-14 0 -20 1q-29 3 -36 3q-20 0 -34 -13q-7 -6 -7 -20q0 -8 1 -17q5 -39 7 -44q8 -16 39 -42q23 -20 36 -24q19 -6 34 -6q19 0 59 9q13 3 26 10q4 2 6 2q7 0 7 -8
q0 -5 -4 -13l-1 -1q0 -1 -0.5 -3t-0.5 -4q-6 -20 -17 -31q-2 -2 -14 -11q-15 -11 -31 -18q-19 -8 -59 -8q-11 0 -38 9q-25 10 -26 11q-11 7 -28 30q-10 13 -37 58q-14 42 -14 61q0 1 6 39q11 66 30 88q11 16 33 45q40 34 82 34zM163 331q-27 0 -47 -21q-13 -14 -13 -29
q0 -10 9 -13q16 -6 92 -6q26 0 26 15q0 19 -21 39q-17 15 -46 15zM129 519q8 0 19 -7q2 -1 40 -42q1 -1 4 -3.5l9 -7.5t11 -9q18 -14 18 -27q0 -10 -10 -10q-5 0 -35 13l-41 12l-13 4q-22 7 -28 10q-13 7 -13 23t12 30t27 14z" />
    <glyph glyph-name="eacute" unicode="&#xe9;" horiz-adv-x="328" 
d="M178 367q56 0 106 -54q22 -25 22 -47q0 -35 -31 -35q-3 0 -13 1t-13 1q-16 0 -27 -1q-26 -2 -28 -2h-9h-6q-14 0 -20 1q-29 3 -36 3q-20 0 -34 -13q-7 -6 -7 -20q0 -8 1 -17q5 -39 7 -44q8 -16 39 -42q23 -20 36 -24q19 -6 34 -6q19 0 59 9q13 3 26 10q4 2 6 2q7 0 7 -8
q0 -5 -4 -13l-1 -1q0 -1 -0.5 -3t-0.5 -4q-6 -20 -17 -31q-2 -2 -14 -11q-15 -11 -31 -18q-19 -8 -59 -8q-11 0 -38 9q-25 10 -26 11q-11 7 -28 30q-10 13 -37 58q-14 42 -14 61q0 1 6 39q11 66 30 88q11 16 33 45q40 34 82 34zM163 331q-27 0 -47 -21q-13 -14 -13 -29
q0 -10 9 -13q16 -6 92 -6q26 0 26 15q0 19 -21 39q-17 15 -46 15zM269 510q30 0 30 -29q0 -20 -19 -33q-12 -9 -27 -11l-17 -2q-12 -3 -24 -7q-11 -4 -14 -5q-7 -3 -31 -14q-1 -1 -2 -1q-10 0 -10 9q0 7 23 21q30 20 52 48q18 24 39 24z" />
    <glyph glyph-name="ecircumflex" unicode="&#xea;" horiz-adv-x="328" 
d="M178 367q56 0 106 -54q22 -25 22 -47q0 -35 -31 -35q-3 0 -13 1t-13 1q-16 0 -27 -1q-26 -2 -28 -2h-9h-6q-14 0 -20 1q-29 3 -36 3q-20 0 -34 -13q-7 -6 -7 -20q0 -8 1 -17q5 -39 7 -44q8 -16 39 -42q23 -20 36 -24q19 -6 34 -6q19 0 59 9q13 3 26 10q4 2 6 2q7 0 7 -8
q0 -5 -4 -13l-1 -1q0 -1 -0.5 -3t-0.5 -4q-6 -20 -17 -31q-2 -2 -14 -11q-15 -11 -31 -18q-19 -8 -59 -8q-11 0 -38 9q-25 10 -26 11q-11 7 -28 30q-10 13 -37 58q-14 42 -14 61q0 1 6 39q11 66 30 88q11 16 33 45q40 34 82 34zM163 331q-27 0 -47 -21q-13 -14 -13 -29
q0 -10 9 -13q16 -6 92 -6q26 0 26 15q0 19 -21 39q-17 15 -46 15zM176 528q7 0 13 -3q0 -1 13 -19l17 -23l10 -13q1 -1 7 -11t10 -18q1 -3 2.5 -6t2 -5t1.5 -3.5t1 -2.5l1 -1q4 -5 4 -9q0 -8 -9 -8q-6 0 -49 32q-25 34 -28 34q-13 0 -25 -22q-7 -12 -9.5 -14.5t-13.5 -9.5
q-7 -4 -18 -15q-10 -8 -15 -8q-7 0 -7 10q1 3 14 21l11 21l13 18l7 12l16 18q9 18 13.5 21.5t17.5 3.5z" />
    <glyph glyph-name="edieresis" unicode="&#xeb;" horiz-adv-x="328" 
d="M178 367q56 0 106 -54q22 -25 22 -47q0 -35 -31 -35q-3 0 -13 1t-13 1q-16 0 -27 -1q-26 -2 -28 -2h-9h-6q-14 0 -20 1q-29 3 -36 3q-20 0 -34 -13q-7 -6 -7 -20q0 -8 1 -17q5 -39 7 -44q8 -16 39 -42q23 -20 36 -24q19 -6 34 -6q19 0 59 9q13 3 26 10q4 2 6 2q7 0 7 -8
q0 -5 -4 -13l-1 -1q0 -1 -0.5 -3t-0.5 -4q-6 -20 -17 -31q-2 -2 -14 -11q-15 -11 -31 -18q-19 -8 -59 -8q-11 0 -38 9q-25 10 -26 11q-11 7 -28 30q-10 13 -37 58q-14 42 -14 61q0 1 6 39q11 66 30 88q11 16 33 45q40 34 82 34zM163 331q-27 0 -47 -21q-13 -14 -13 -29
q0 -10 9 -13q16 -6 92 -6q26 0 26 15q0 19 -21 39q-17 15 -46 15zM126 497q10 0 24 -11q3 -3 6 -15l5 -22q0 -17 -12 -29q-7 -7 -16 -7q-39 0 -46 28l-4 17q0 19 7 26q13 13 36 13zM238 496q10 0 27 -9q20 -11 20 -34q0 -15 -22 -34q-13 -11 -19 -11q-18 0 -37 17
q-6 6 -7 21l-3 14q0 2 6 14t8 14q8 8 27 8z" />
    <glyph glyph-name="igrave" unicode="&#xec;" horiz-adv-x="217" 
d="M76 138v21q0 26 -2 54q-1 3 -1 6l1 2q0 2 0.5 6t0.5 8l1 10l3 24q0 11 -11 20q-17 13 -18.5 14.5t-1.5 6.5q0 8 6 13l16 8l29 15q8 4 17.5 8t11.5 5q8 5 13 5q9 0 9 -12q0 -8 -3 -28q-1 -5 -1 -11q0 -5 1 -22t1 -21q0 -21 -3 -57q-1 -3 -1 -9q0 -4 1.5 -19.5t1.5 -19.5
v-7q-1 -4 -1 -13q0 -70 14 -103q16 -28 16 -32q0 -12 -24 -12q-2 0 -6 0.5t-11.5 1t-14.5 0.5h-16q-4 0 -23 -1t-23 -1q-15 0 -15 12q0 7 17 24q11 13 11 26q0 4 -1 8v6q0 1 2 19q3 17 3 21q1 7 1 24zM40 519q8 0 19 -7q2 -1 40 -42q1 -1 4 -3.5l9 -7.5t11 -9q18 -14 18 -27
q0 -10 -10 -10q-5 0 -35 13l-41 12l-13 4q-22 7 -28 10q-13 7 -13 23t12 30t27 14z" />
    <glyph glyph-name="iacute" unicode="&#xed;" horiz-adv-x="217" 
d="M76 138v21q0 26 -2 54q-1 3 -1 6l1 2q0 2 0.5 6t0.5 8l1 10l3 24q0 11 -11 20q-17 13 -18.5 14.5t-1.5 6.5q0 8 6 13l16 8l29 15q8 4 17.5 8t11.5 5q8 5 13 5q9 0 9 -12q0 -8 -3 -28q-1 -5 -1 -11q0 -5 1 -22t1 -21q0 -21 -3 -57q-1 -3 -1 -9q0 -4 1.5 -19.5t1.5 -19.5
v-7q-1 -4 -1 -13q0 -70 14 -103q16 -28 16 -32q0 -12 -24 -12q-2 0 -6 0.5t-11.5 1t-14.5 0.5h-16q-4 0 -23 -1t-23 -1q-15 0 -15 12q0 7 17 24q11 13 11 26q0 4 -1 8v6q0 1 2 19q3 17 3 21q1 7 1 24zM187 510q30 0 30 -29q0 -20 -19 -33q-12 -9 -27 -11l-17 -2
q-12 -3 -24 -7q-11 -4 -14 -5q-7 -3 -31 -14q-1 -1 -2 -1q-10 0 -10 9q0 7 23 21q30 20 52 48q18 24 39 24z" />
    <glyph glyph-name="icircumflex" unicode="&#xee;" horiz-adv-x="217" 
d="M76 138v21q0 26 -2 54q-1 3 -1 6l1 2q0 2 0.5 6t0.5 8l1 10l3 24q0 11 -11 20q-17 13 -18.5 14.5t-1.5 6.5q0 8 6 13l16 8l29 15q8 4 17.5 8t11.5 5q8 5 13 5q9 0 9 -12q0 -8 -3 -28q-1 -5 -1 -11q0 -5 1 -22t1 -21q0 -21 -3 -57q-1 -3 -1 -9q0 -4 1.5 -19.5t1.5 -19.5
v-7q-1 -4 -1 -13q0 -70 14 -103q16 -28 16 -32q0 -12 -24 -12q-2 0 -6 0.5t-11.5 1t-14.5 0.5h-16q-4 0 -23 -1t-23 -1q-15 0 -15 12q0 7 17 24q11 13 11 26q0 4 -1 8v6q0 1 2 19q3 17 3 21q1 7 1 24zM114 528q7 0 13 -3q0 -1 13 -19l17 -23l10 -13q1 -1 7 -11t10 -18
q1 -3 2.5 -6t2 -5t1.5 -3.5t1 -2.5l1 -1q4 -5 4 -9q0 -8 -9 -8q-6 0 -49 32q-25 34 -28 34q-13 0 -25 -22q-7 -12 -9.5 -14.5t-13.5 -9.5q-7 -4 -18 -15q-10 -8 -15 -8q-7 0 -7 10q1 3 14 21l11 21l13 18l7 12l16 18q9 18 13.5 21.5t17.5 3.5z" />
    <glyph glyph-name="idieresis" unicode="&#xef;" horiz-adv-x="217" 
d="M76 138v21q0 26 -2 54q-1 3 -1 6l1 2q0 2 0.5 6t0.5 8l1 10l3 24q0 11 -11 20q-17 13 -18.5 14.5t-1.5 6.5q0 8 6 13l16 8l29 15q8 4 17.5 8t11.5 5q8 5 13 5q9 0 9 -12q0 -8 -3 -28q-1 -5 -1 -11q0 -5 1 -22t1 -21q0 -21 -3 -57q-1 -3 -1 -9q0 -4 1.5 -19.5t1.5 -19.5
v-7q-1 -4 -1 -13q0 -70 14 -103q16 -28 16 -32q0 -12 -24 -12q-2 0 -6 0.5t-11.5 1t-14.5 0.5h-16q-4 0 -23 -1t-23 -1q-15 0 -15 12q0 7 17 24q11 13 11 26q0 4 -1 8v6q0 1 2 19q3 17 3 21q1 7 1 24zM64 497q10 0 24 -11q3 -3 6 -15l5 -22q0 -17 -12 -29q-7 -7 -16 -7
q-39 0 -46 28l-4 17q0 19 7 26q13 13 36 13zM161 498q15 0 25 -15q8 -14 8 -29q0 -10 -9 -27q-10 -19 -18 -19q-18 0 -35 17q-6 6 -7 21l-3 15q0 12 14 29q6 8 25 8z" />
    <glyph glyph-name="eth" unicode="&#xf0;" horiz-adv-x="422" 
d="M226 367q8 0 27.5 -3.5t20.5 -3.5q7 0 7 11q0 7 -10 37l-13 21q-3 6 -13.5 28t-18.5 39q-19 46 -35 46q-2 0 -21 -14q-17 -13 -20 -13q-6 0 -13 10q-24 19 -24 27q0 6 10 16q5 6 11 8q19 7 19 17q0 3 -30 28l-25 17q-20 12 -20 20q0 10 11 10q15 0 34 -13q1 0 4.5 -2.5
t11 -6.5t15.5 -8q44 -24 42 -24q20 0 33 13q11 11 16 13q21 8 26 8q7 0 18 -14t11 -22q0 -7 -10 -11l-17 -10q-31 -13 -31 -23q0 -3 29 -34q5 -4 30 -42q34 -50 49 -100q21 -61 24 -95l9 -42q0 -1 0.5 -4t1 -8.5t0.5 -10.5q3 -29 3 -35q0 -45 -26 -106q-9 -25 -31 -47
q-57 -51 -108 -51q-56 0 -102 31q-46 30 -76 73q-16 23 -16 63q0 17 1 35v35q-1 22 38 75q8 9 33 27q29 20 78 30q25 5 47 5zM185 325q-18 0 -31 -8q-28 -20 -44 -51q-10 -20 -10 -63q0 -36 1 -47q0 -2 12 -40q8 -23 11 -31q12 -16 19 -19l13 -6l13 -7q28 -17 32 -17
q26 0 55 16q26 14 41 59q12 37 12 74q0 17 -3 24l-11 28q-12 30 -20 47q-29 41 -90 41z" />
    <glyph glyph-name="ntilde" unicode="&#xf1;" horiz-adv-x="399" 
d="M134 369q4 0 6 -3l3 -22q2 -2 4 -2q3 0 28 16q19 12 48 12q11 0 46 -9q33 -4 47 -28q13 -36 14 -57l2 -13v-19l2 -30q0 -1 -0.5 -5t-1 -11t-0.5 -14l2 -42q1 -29 7 -54q1 -8 8 -25q3 -10 19 -30l16 -20q0 -13 -22 -13h-13q-7 0 -13.5 0.5t-9.5 1.5h-3q-1 0 -31 -2
q-5 -1 -9 -1q-36 2 -37 2q-11 2 -11 12q0 5 15 22q3 3 10 23l7 20l-2 47q1 3 2 8q3 17 3 39q0 94 -8 115q-17 42 -52 42q-28 0 -45 -17q-1 -4 -8 -19l-10 -22v-29l-2 -11v-11q0 -3 -1 -8q-1 -1 -1 -12q-2 -21 -4 -32q4 -33 4 -41q0 -3 -1 -14t-1 -13l1 -2q0 -2 1 -8.5
t2 -13.5l2 -18q2 -8 9 -23q10 -12 24 -21q3 -2 3 -6q0 -8 -17 -8q-10 0 -45 5l-27 2q-10 0 -35 -6q-3 -1 -10 -1q-23 0 -23 14q0 8 20 22q7 4 21 34q4 10 6 38q3 40 3 67v30l1 28q0 26 -10 37q-4 4 -19.5 11.5t-17.5 10.5q-2 6 -2 8q0 7 14 15q45 23 51 27q36 27 41 27z
M181 496q7 0 12 -1q3 -1 25 -12l17 -5q38 -20 44 -20t12.5 2t12.5 5t10.5 6.5t7.5 5.5l3 2q7 0 6 -7q0 -1 -20 -29q-15 -19 -21 -25q-13 -8 -27 -8q-10 0 -28 5q-5 1 -28 12q-20 8 -30 11q-22 8 -31 8q-11 0 -18 -10q-11 -14 -13 -14q-9 0 -9 9q0 7 12 18l15 15q26 32 48 32
z" />
    <glyph glyph-name="ograve" unicode="&#xf2;" horiz-adv-x="422" 
d="M268 0q-25 -7 -45 -7q-56 0 -103 31q-33 22 -43 32q-49 49 -49 103v10.5t0.5 22.5t0.5 20q0 31 6 41q31 66 96 93q27 11 40 14q30 6 48 6q35 0 46 -3q1 0 36 -15q24 -10 37 -28l14 -18q35 -40 35 -104q0 -56 -31 -119q-14 -31 -52 -56q-27 -19 -36 -23zM184 325
q-18 0 -31 -8q-27 -21 -43 -51q-11 -22 -11 -63q0 -36 1 -47q0 -4 13 -40q1 -4 4.5 -14.5l5.5 -16.5q12 -16 20 -19l12 -6l14 -7q26 -17 31 -17q26 0 55 16q27 14 42 59q12 37 12 74q0 17 -4 24l-11 28q-12 30 -20 47q-27 41 -90 41zM143 519q8 0 19 -7q2 -1 40 -42
q1 -1 4 -3.5l9 -7.5t11 -9q18 -14 18 -27q0 -10 -10 -10q-5 0 -35 13l-41 12l-13 4q-22 7 -28 10q-13 7 -13 23t12 30t27 14z" />
    <glyph glyph-name="oacute" unicode="&#xf3;" horiz-adv-x="422" 
d="M268 0q-25 -7 -45 -7q-56 0 -103 31q-33 22 -43 32q-49 49 -49 103v10.5t0.5 22.5t0.5 20q0 31 6 41q31 66 96 93q27 11 40 14q30 6 48 6q35 0 46 -3q1 0 36 -15q24 -10 37 -28l14 -18q35 -40 35 -104q0 -56 -31 -119q-14 -31 -52 -56q-27 -19 -36 -23zM184 325
q-18 0 -31 -8q-27 -21 -43 -51q-11 -22 -11 -63q0 -36 1 -47q0 -4 13 -40q1 -4 4.5 -14.5l5.5 -16.5q12 -16 20 -19l12 -6l14 -7q26 -17 31 -17q26 0 55 16q27 14 42 59q12 37 12 74q0 17 -4 24l-11 28q-12 30 -20 47q-27 41 -90 41zM290 510q30 0 30 -29q0 -20 -19 -33
q-12 -9 -27 -11l-17 -2q-12 -3 -24 -7q-11 -4 -14 -5q-7 -3 -31 -14q-1 -1 -2 -1q-10 0 -10 9q0 7 23 21q30 20 52 48q18 24 39 24z" />
    <glyph glyph-name="ocircumflex" unicode="&#xf4;" horiz-adv-x="422" 
d="M268 0q-25 -7 -45 -7q-56 0 -103 31q-33 22 -43 32q-49 49 -49 103v10.5t0.5 22.5t0.5 20q0 31 6 41q31 66 96 93q27 11 40 14q30 6 48 6q35 0 46 -3q1 0 36 -15q24 -10 37 -28l14 -18q35 -40 35 -104q0 -56 -31 -119q-14 -31 -52 -56q-27 -19 -36 -23zM184 325
q-18 0 -31 -8q-27 -21 -43 -51q-11 -22 -11 -63q0 -36 1 -47q0 -4 13 -40q1 -4 4.5 -14.5l5.5 -16.5q12 -16 20 -19l12 -6l14 -7q26 -17 31 -17q26 0 55 16q27 14 42 59q12 37 12 74q0 17 -4 24l-11 28q-12 30 -20 47q-27 41 -90 41zM217 528q7 0 13 -3q0 -1 13 -19l17 -23
l10 -13q1 -1 7 -11t10 -18q1 -3 2.5 -6t2 -5t1.5 -3.5t1 -2.5l1 -1q4 -5 4 -9q0 -8 -9 -8q-6 0 -49 32q-25 34 -28 34q-13 0 -25 -22q-7 -12 -9.5 -14.5t-13.5 -9.5q-7 -4 -18 -15q-10 -8 -15 -8q-7 0 -7 10q1 3 14 21l11 21l13 18l7 12l16 18q9 18 13.5 21.5t17.5 3.5z" />
    <glyph glyph-name="otilde" unicode="&#xf5;" horiz-adv-x="422" 
d="M268 0q-25 -7 -45 -7q-56 0 -103 31q-33 22 -43 32q-49 49 -49 103v10.5t0.5 22.5t0.5 20q0 31 6 41q31 66 96 93q27 11 40 14q30 6 48 6q35 0 46 -3q1 0 36 -15q24 -10 37 -28l14 -18q35 -40 35 -104q0 -56 -31 -119q-14 -31 -52 -56q-27 -19 -36 -23zM184 325
q-18 0 -31 -8q-27 -21 -43 -51q-11 -22 -11 -63q0 -36 1 -47q0 -4 13 -40q1 -4 4.5 -14.5l5.5 -16.5q12 -16 20 -19l12 -6l14 -7q26 -17 31 -17q26 0 55 16q27 14 42 59q12 37 12 74q0 17 -4 24l-11 28q-12 30 -20 47q-27 41 -90 41zM172 496q7 0 12 -1q3 -1 25 -12l17 -5
q38 -20 44 -20t12.5 2t12.5 5t10.5 6.5t7.5 5.5l3 2q7 0 6 -7q0 -1 -20 -29q-15 -19 -21 -25q-13 -8 -27 -8q-10 0 -28 5q-5 1 -28 12q-20 8 -30 11q-22 8 -31 8q-11 0 -18 -10q-11 -14 -13 -14q-9 0 -9 9q0 7 12 18l15 15q26 32 48 32z" />
    <glyph glyph-name="odieresis" unicode="&#xf6;" horiz-adv-x="422" 
d="M268 0q-25 -7 -45 -7q-56 0 -103 31q-33 22 -43 32q-49 49 -49 103v10.5t0.5 22.5t0.5 20q0 31 6 41q31 66 96 93q27 11 40 14q30 6 48 6q35 0 46 -3q1 0 36 -15q24 -10 37 -28l14 -18q35 -40 35 -104q0 -56 -31 -119q-14 -31 -52 -56q-27 -19 -36 -23zM184 325
q-18 0 -31 -8q-27 -21 -43 -51q-11 -22 -11 -63q0 -36 1 -47q0 -4 13 -40q1 -4 4.5 -14.5l5.5 -16.5q12 -16 20 -19l12 -6l14 -7q26 -17 31 -17q26 0 55 16q27 14 42 59q12 37 12 74q0 17 -4 24l-11 28q-12 30 -20 47q-27 41 -90 41zM147 497q10 0 24 -11q3 -3 6 -15l5 -22
q0 -17 -12 -29q-7 -7 -16 -7q-39 0 -46 28l-4 17q0 19 7 26q13 13 36 13zM259 496q10 0 27 -9q20 -11 20 -34q0 -15 -22 -34q-13 -11 -19 -11q-18 0 -37 17q-6 6 -7 21l-3 14q0 2 6 14t8 14q8 8 27 8z" />
    <glyph glyph-name="divide" unicode="&#xf7;" horiz-adv-x="461" 
d="M362 306l-46 -3q-2 0 -3 1q-25 3 -36 3q-16 0 -49 -3q-42 -2 -48 -2q-10 0 -37 -3h-7q-2 0 -6.5 0.5t-13 1t-17.5 0.5h-18q-19 0 -27 5q-4 5 -4 27l-2 14q0 14 22 14q5 0 37 -2q5 -1 15 -1q7 0 28 4l12 1q23 1 63 1q17 0 25 -1q33 4 42 4q13 0 28 -1q5 -1 11 -1q1 0 27 2
l42 -2q7 -1 10.5 -3.5t2.5 -7.5l-2 -17l3 -20q0 -14 -25 -14q-6 1 -27 3zM214 516q-3 0 24 -6q10 -3 24 -6q17 -8 17 -42q0 -19 -9 -28q-4 -4 -28 -15q-8 -3 -14 -3q-14 0 -36 21q-13 10 -13 43q0 14 10.5 25t24.5 11zM236 250q10 0 33 -21q12 -12 12 -32q0 -47 -37 -47
q-4 0 -28 11q-23 9 -28 12q-7 8 -7 29q0 24 10 34q4 4 21 9t24 5z" />
    <glyph glyph-name="oslash" unicode="&#xf8;" horiz-adv-x="422" 
d="M229 366q25 0 35 -2q9 -4 12 -4q8 0 15 12l1 2q2 2 4.5 6.5t5.5 9.5q8 17 11 19q8 6 20 6q23 0 23 -12q0 -17 -27 -49q-6 -8 -6 -14q0 -7 17 -22l12 -17q35 -38 35 -103q0 -48 -25 -107q-11 -26 -32 -47q-56 -51 -105 -51q-37 0 -78 15q-7 3 -10 3q-11 0 -29 -27t-33 -27
q-25 0 -27 12l19 31l14 24q8 11 8 14t-20 29l-24 30q-17 25 -17 62v21q1 20 1 30q0 33 6 43q30 65 96 93q29 13 40 14q29 6 58 6zM281 255q-9 0 -13 -7q0 -1 -2 -5t-6 -12.5t-8 -17.5q-3 -5 -15 -24l-5 -9l-19 -23q-20 -38 -47 -78q-6 -11 -6 -15q0 -6 4 -7l13 -9
q19 -12 23 -12q73 0 97 75q12 36 12 74q0 19 -9 38q-5 12 -7 17q-5 15 -12 15zM185 325q-19 0 -32 -8q-26 -19 -43 -51q-11 -22 -11 -60q0 -56 8 -77q6 -11 8 -21q3 -13 8 -13q6 0 15 20l8 12l9 17l9 13l15 23l13 20l12 24q19 26 32 49q10 16 10 26q0 15 -21 20q-30 6 -40 6
z" />
    <glyph glyph-name="ugrave" unicode="&#xf9;" horiz-adv-x="383" 
d="M37 361q5 0 8 -1l27 -5q30 5 34 5q37 0 37 -28q0 -1 -0.5 -6t-2 -16t-2.5 -21l1 -173q0 -1 -0.5 -4t-1 -8t-0.5 -9q-1 -5 -1 -10q0 -23 16 -40q9 -9 18 -9q10 0 29 8t26 15t16 26.5t9 28.5l-3 43q4 29 4 35q0 4 -3 29q-1 5 -1 14q0 11 4 54q1 3 1 9q0 12 -4 19l-24 39
q9 6 12 6q1 0 11 -2q2 0 5 -0.5t4.5 -1t2.5 -0.5l45 1q14 0 14 -30v-60l-2 -36l1 -56q0 -15 1 -24q0 -5 1 -7l-3 -51q-1 -6 10 -21q19 -23 19 -26q0 -4 -8 -9l-25 -18q-43 -37 -67 -37q-8 0 -10 8l-4 23q0 3 -4 3q-3 0 -34 -21q-4 -4 -24 -4q-52 0 -89 64q-10 16 -10 69
q0 6 2 52t2 52q0 4 -3 38q-2 25 -6 32q-4 13 -19 25q-25 19 -25 26q0 10 16 10zM123 519q8 0 19 -7q2 -1 40 -42q1 -1 4 -3.5l9 -7.5t11 -9q18 -14 18 -27q0 -10 -10 -10q-5 0 -35 13l-41 12l-13 4q-22 7 -28 10q-13 7 -13 23t12 30t27 14z" />
    <glyph glyph-name="uacute" unicode="&#xfa;" horiz-adv-x="383" 
d="M37 361q5 0 8 -1l27 -5q30 5 34 5q37 0 37 -28q0 -1 -0.5 -6t-2 -16t-2.5 -21l1 -173q0 -1 -0.5 -4t-1 -8t-0.5 -9q-1 -5 -1 -10q0 -23 16 -40q9 -9 18 -9q10 0 29 8t26 15t16 26.5t9 28.5l-3 43q4 29 4 35q0 4 -3 29q-1 5 -1 14q0 11 4 54q1 3 1 9q0 12 -4 19l-24 39
q9 6 12 6q1 0 11 -2q2 0 5 -0.5t4.5 -1t2.5 -0.5l45 1q14 0 14 -30v-60l-2 -36l1 -56q0 -15 1 -24q0 -5 1 -7l-3 -51q-1 -6 10 -21q19 -23 19 -26q0 -4 -8 -9l-25 -18q-43 -37 -67 -37q-8 0 -10 8l-4 23q0 3 -4 3q-3 0 -34 -21q-4 -4 -24 -4q-52 0 -89 64q-10 16 -10 69
q0 6 2 52t2 52q0 4 -3 38q-2 25 -6 32q-4 13 -19 25q-25 19 -25 26q0 10 16 10zM270 510q30 0 30 -29q0 -20 -19 -33q-12 -9 -27 -11l-17 -2q-12 -3 -24 -7q-11 -4 -14 -5q-7 -3 -31 -14q-1 -1 -2 -1q-10 0 -10 9q0 7 23 21q30 20 52 48q18 24 39 24z" />
    <glyph glyph-name="ucircumflex" unicode="&#xfb;" horiz-adv-x="383" 
d="M37 361q5 0 8 -1l27 -5q30 5 34 5q37 0 37 -28q0 -1 -0.5 -6t-2 -16t-2.5 -21l1 -173q0 -1 -0.5 -4t-1 -8t-0.5 -9q-1 -5 -1 -10q0 -23 16 -40q9 -9 18 -9q10 0 29 8t26 15t16 26.5t9 28.5l-3 43q4 29 4 35q0 4 -3 29q-1 5 -1 14q0 11 4 54q1 3 1 9q0 12 -4 19l-24 39
q9 6 12 6q1 0 11 -2q2 0 5 -0.5t4.5 -1t2.5 -0.5l45 1q14 0 14 -30v-60l-2 -36l1 -56q0 -15 1 -24q0 -5 1 -7l-3 -51q-1 -6 10 -21q19 -23 19 -26q0 -4 -8 -9l-25 -18q-43 -37 -67 -37q-8 0 -10 8l-4 23q0 3 -4 3q-3 0 -34 -21q-4 -4 -24 -4q-52 0 -89 64q-10 16 -10 69
q0 6 2 52t2 52q0 4 -3 38q-2 25 -6 32q-4 13 -19 25q-25 19 -25 26q0 10 16 10zM197 528q7 0 13 -3q0 -1 13 -19l17 -23l10 -13q1 -1 7 -11t10 -18q1 -3 2.5 -6t2 -5t1.5 -3.5t1 -2.5l1 -1q4 -5 4 -9q0 -8 -9 -8q-6 0 -49 32q-25 34 -28 34q-13 0 -25 -22q-7 -12 -9.5 -14.5
t-13.5 -9.5q-7 -4 -18 -15q-10 -8 -15 -8q-7 0 -7 10q1 3 14 21l11 21l13 18l7 12l16 18q9 18 13.5 21.5t17.5 3.5z" />
    <glyph glyph-name="udieresis" unicode="&#xfc;" horiz-adv-x="383" 
d="M37 361q5 0 8 -1l27 -5q30 5 34 5q37 0 37 -28q0 -1 -0.5 -6t-2 -16t-2.5 -21l1 -173q0 -1 -0.5 -4t-1 -8t-0.5 -9q-1 -5 -1 -10q0 -23 16 -40q9 -9 18 -9q10 0 29 8t26 15t16 26.5t9 28.5l-3 43q4 29 4 35q0 4 -3 29q-1 5 -1 14q0 11 4 54q1 3 1 9q0 12 -4 19l-24 39
q9 6 12 6q1 0 11 -2q2 0 5 -0.5t4.5 -1t2.5 -0.5l45 1q14 0 14 -30v-60l-2 -36l1 -56q0 -15 1 -24q0 -5 1 -7l-3 -51q-1 -6 10 -21q19 -23 19 -26q0 -4 -8 -9l-25 -18q-43 -37 -67 -37q-8 0 -10 8l-4 23q0 3 -4 3q-3 0 -34 -21q-4 -4 -24 -4q-52 0 -89 64q-10 16 -10 69
q0 6 2 52t2 52q0 4 -3 38q-2 25 -6 32q-4 13 -19 25q-25 19 -25 26q0 10 16 10zM127 497q10 0 24 -11q3 -3 6 -15l5 -22q0 -17 -12 -29q-7 -7 -16 -7q-39 0 -46 28l-4 17q0 19 7 26q13 13 36 13zM239 496q10 0 27 -9q20 -11 20 -34q0 -15 -22 -34q-13 -11 -19 -11
q-18 0 -37 17q-6 6 -7 21l-3 14q0 2 6 14t8 14q8 8 27 8z" />
    <glyph glyph-name="yacute" unicode="&#xfd;" horiz-adv-x="343" 
d="M53 359l16 -2q7 0 43 -4q15 -1 33 -3q7 -4 7 -12q0 -7 -15 -28q-2 -6 -2 -8q0 -1 11 -53q0 -8 4 -33q1 -13 13 -32q8 -22 13 -32q11 -24 17 -24q11 0 19 24q2 6 9 24l13 37q2 5 19 49q6 21 6 33q0 8 -19 45q-2 6 -2 8q0 12 17 12q9 0 13 -1q11 -1 19 -1l28 1q27 1 27 -16
q0 -7 -21 -30l-5 -13q-15 -27 -22 -59q-8 -25 -25 -63q-2 -5 -12 -32l-11 -27l-4 -12l-5 -15l-7 -27l-12 -25q-5 -25 -6 -29q0 -1 -1.5 -4t-4 -8.5t-4.5 -10.5q-12 -26 -26 -51l-16 -30q-12 -23 -21 -51q-21 -47 -26 -54q-40 -66 -69 -71q-4 -1 -19 -1q-25 0 -25 22
q0 12 9 20q7 8 36 15q21 6 55 91l22 54l7 22q9 24 9 63q0 9 -4 25l-4 19l-6 20q-9 40 -11 46q-1 1 -24 54l-1 4q-2 4 -3.5 9.5t-4.5 13.5t-6.5 19t-7.5 23q-15 51 -40 67q-23 17 -23 25q0 12 17 14q21 3 33 3zM270 510q30 0 30 -29q0 -20 -19 -33q-12 -9 -27 -11l-17 -2
q-12 -3 -24 -7q-11 -4 -14 -5q-7 -3 -31 -14q-1 -1 -2 -1q-10 0 -10 9q0 7 23 21q30 20 52 48q18 24 39 24z" />
    <glyph glyph-name="thorn" unicode="&#xfe;" horiz-adv-x="401" 
d="M140 647q10 0 10 -13l-4 -20l2 -31v-2q-1 -2 -1.5 -5.5t-0.5 -6.5q0 -21 -3 -58v-7l2 -50q-4 -24 -4 -35q0 -14 1 -21q3 -26 3 -33q0 -3 -1 -11t-1 -11q0 -11 6 -11q4 2 7 4q11 11 31 21t33 10q43 0 80 -17q31 -14 41 -33q1 -1 10 -21q5 -9 17 -50q0 -1 1 -5t2 -7.5
t1 -7.5q0 -30 1 -65l1 -26q1 -29 -32 -76q-19 -27 -52 -49q-22 -14 -33 -16l-42 -5l-59 12l-10 -29l-1 -27l2 -35v-63l-1 -33q0 -34 27 -50q1 0 30 -13q5 -2 5 -10q0 -12 -15 -12q-4 0 -15 0.5t-13 0.5q-11 0 -42 -4h-5q-4 0 -21 1.5t-21 1.5q-3 0 -11.5 -0.5t-11.5 -0.5
q-23 0 -23 14q0 5 8 10q18 14 22 23q2 5 3.5 9.5t2.5 7l2 5t1 3.5q0 4 2 66l3 41v1q-1 5 -1 29q0 28 -1 40l-1 11l1 40l-1 17q4 27 4 29l-2 26l-1 25q-1 5 -1 20q-1 7 -1 14q0 41 3 96q3 38 5 52v3v5q-3 18 -3 20v38l2 23v66q0 1 -9 34q-1 15 -6 26q-7 12 -11 14l-22 12
q-4 1 -4 14q0 14 35 31q8 3 23 18l23 14q6 4 12.5 8t10 6.5t6.5 4t4 2.5zM200 303q-31 0 -45 -17q-5 -6 -7 -14l-2 -24l-3 -30l1 -25l-1 -73l2 -20v-20q11 -28 13 -31q10 -17 51 -18q3 0 25 -2q21 -2 40 22q33 41 33 91q0 161 -107 161z" />
    <glyph glyph-name="ydieresis" unicode="&#xff;" horiz-adv-x="343" 
d="M53 359l16 -2q7 0 43 -4q15 -1 33 -3q7 -4 7 -12q0 -7 -15 -28q-2 -6 -2 -8q0 -1 11 -53q0 -8 4 -33q1 -13 13 -32q8 -22 13 -32q11 -24 17 -24q11 0 19 24q2 6 9 24l13 37q2 5 19 49q6 21 6 33q0 8 -19 45q-2 6 -2 8q0 12 17 12q9 0 13 -1q11 -1 19 -1l28 1q27 1 27 -16
q0 -7 -21 -30l-5 -13q-15 -27 -22 -59q-8 -25 -25 -63q-2 -5 -12 -32l-11 -27l-4 -12l-5 -15l-7 -27l-12 -25q-5 -25 -6 -29q0 -1 -1.5 -4t-4 -8.5t-4.5 -10.5q-12 -26 -26 -51l-16 -30q-12 -23 -21 -51q-21 -47 -26 -54q-40 -66 -69 -71q-4 -1 -19 -1q-25 0 -25 22
q0 12 9 20q7 8 36 15q21 6 55 91l22 54l7 22q9 24 9 63q0 9 -4 25l-4 19l-6 20q-9 40 -11 46q-1 1 -24 54l-1 4q-2 4 -3.5 9.5t-4.5 13.5t-6.5 19t-7.5 23q-15 51 -40 67q-23 17 -23 25q0 12 17 14q21 3 33 3zM127 497q10 0 24 -11q3 -3 6 -15l5 -22q0 -17 -12 -29
q-7 -7 -16 -7q-39 0 -46 28l-4 17q0 19 7 26q13 13 36 13zM239 496q10 0 27 -9q20 -11 20 -34q0 -15 -22 -34q-13 -11 -19 -11q-18 0 -37 17q-6 6 -7 21l-3 14q0 2 6 14t8 14q8 8 27 8z" />
    <glyph glyph-name="Cacute" unicode="&#x106;" horiz-adv-x="635" 
d="M450 830q30 0 30 -30q0 -22 -19 -35q-13 -11 -27 -12l-17 -2l-24 -8q-3 -1 -13 -5q-8 -2 -11 -4q-22 -11 -25 -11q-7 0 -7 8t22 23q27 19 52 51q18 25 39 25zM371 687q92 0 180 -52q7 -4 38 -16q12 -5 13 -18q3 -24 3 -64q0 -3 -1 -15t-1 -15v-28q0 -11 -10 -11
q-8 0 -14 12q0 1 -11 24q-21 39 -23 41q-7 12 -18 18l-30 21q-15 12 -54 37q-9 4 -48 10q-28 5 -37 5q-16 0 -31 -9q-31 -7 -66 -38q-23 -13 -30 -19q-34 -39 -47 -66q-23 -51 -23 -64v-44l-2 -12q-10 -33 -10 -41q0 -3 1 -6q3 -23 3 -39v-6l-2 -26v-5l2 -15v-34
q0 -16 22 -59q17 -31 32 -47q41 -44 83 -58q26 -8 54 -8l50 1q12 0 46 2q7 0 12 1q23 1 32 7q20 12 44 41q12 22 30 49q8 9 11 23q3 23 18 23q14 0 14 -23q0 -4 -2 -54v-28q-2 -29 -4 -37q-1 -5 -9 -10l-10 -5l-6 -3q-3 -1 -4 -2q-34 -23 -39 -21l-29 -9q-39 -14 -57 -14
q-45 0 -64 1h-7.5h-7.5l-4 1q-11 0 -26 -1q-20 1 -33 5q-8 2 -39 17q-33 19 -34 20l-24 18q-45 33 -67 56q-25 29 -61 93q-14 24 -26 64q-5 18 -5 88q0 54 7 89q11 52 40 87q24 27 25 30l26 43q13 22 87 55q51 23 70 29q39 11 73 11z" />
    <glyph glyph-name="cacute" unicode="&#x107;" horiz-adv-x="339" 
d="M329 510q30 0 30 -29q0 -20 -19 -33q-12 -9 -27 -11l-17 -2q-12 -3 -24 -7q-11 -4 -14 -5q-7 -3 -31 -14q-1 -1 -2 -1q-10 0 -10 9q0 7 23 21q30 20 52 48q18 24 39 24zM183 366q29 1 65 -1q35 -3 58 -33q11 -17 11 -33q0 -12 -8.5 -21.5t-19.5 -9.5q-27 0 -59 39
q-14 18 -26 19q-7 1 -40 3q-20 -1 -42 -33q-16 -22 -16 -82q0 -2 0.5 -8.5t0.5 -8.5v-26q0 -2 12 -26q4 -8 7.5 -15.5t5.5 -11.5l1 -3q11 -25 27 -48q7 -9 25 -21q19 -12 29 -11h13q35 2 60 14q13 8 17 8q5 0 5 -5t-12 -14q-56 -45 -71 -45q-61 0 -91 13q-15 7 -37 24
q-15 12 -31 34q-14 18 -22 36q-4 14 -8 39q-9 42 -9 54q0 64 42 112q23 27 40 38q33 21 73 23z" />
    <glyph glyph-name="Ccaron" unicode="&#x10c;" horiz-adv-x="635" 
d="M293 839q5 0 49 -33q24 -36 28 -36q12 0 24 23q8 13 11 16q6 3 31 25q10 8 15 8q7 0 7 -9q0 -3 -14 -23l-12 -22l-12 -19l-8 -13l-16 -19q-6 -17 -10 -21q-5 -5 -20 -5q-6 0 -13 3q0 1 -13 19l-18 25l-9 14q-15 26 -17 30q-2 5 -8 19q-4 7 -4 11q0 7 9 7zM371 687
q92 0 180 -52q7 -4 38 -16q12 -5 13 -18q3 -24 3 -64q0 -3 -1 -15t-1 -15v-28q0 -11 -10 -11q-8 0 -14 12q0 1 -11 24q-21 39 -23 41q-7 12 -18 18l-30 21q-15 12 -54 37q-9 4 -48 10q-28 5 -37 5q-16 0 -31 -9q-31 -7 -66 -38q-23 -13 -30 -19q-34 -39 -47 -66
q-23 -51 -23 -64v-44l-2 -12q-10 -33 -10 -41q0 -3 1 -6q3 -23 3 -39v-6l-2 -26v-5l2 -15v-34q0 -16 22 -59q17 -31 32 -47q41 -44 83 -58q26 -8 54 -8l50 1q12 0 46 2q7 0 12 1q23 1 32 7q20 12 44 41q12 22 30 49q8 9 11 23q3 23 18 23q14 0 14 -23q0 -4 -2 -54v-28
q-2 -29 -4 -37q-1 -5 -9 -10l-10 -5l-6 -3q-3 -1 -4 -2q-34 -23 -39 -21l-29 -9q-39 -14 -57 -14q-45 0 -64 1h-7.5h-7.5l-4 1q-11 0 -26 -1q-20 1 -33 5q-8 2 -39 17q-33 19 -34 20l-24 18q-45 33 -67 56q-25 29 -61 93q-14 24 -26 64q-5 18 -5 88q0 54 7 89q11 52 40 87
q24 27 25 30l26 43q13 22 87 55q51 23 70 29q39 11 73 11z" />
    <glyph glyph-name="ccaron" unicode="&#x10d;" horiz-adv-x="339" 
d="M170 525q6 0 49 -32q24 -35 28 -35q12 0 24 22q8 13 11 16q17 12 31 24q10 8 15 8q7 0 7 -8q0 -3 -14 -23l-12 -20l-20 -31l-16 -19q-7 -16 -10 -19q-7 -5 -21 -5q-4 0 -12 3q-1 2 -13 18l-18 23l-9 14q-11 14 -17 29q-4 9 -8 17q-4 7 -4 10q0 8 9 8zM183 366q29 1 65 -1
q35 -3 58 -33q11 -17 11 -33q0 -12 -8.5 -21.5t-19.5 -9.5q-27 0 -59 39q-14 18 -26 19q-7 1 -40 3q-20 -1 -42 -33q-16 -22 -16 -82q0 -2 0.5 -8.5t0.5 -8.5v-26q0 -2 12 -26q4 -8 7.5 -15.5t5.5 -11.5l1 -3q11 -25 27 -48q7 -9 25 -21q19 -12 29 -11h13q35 2 60 14
q13 8 17 8q5 0 5 -5t-12 -14q-56 -45 -71 -45q-61 0 -91 13q-15 7 -37 24q-15 12 -31 34q-14 18 -22 36q-4 14 -8 39q-9 42 -9 54q0 64 42 112q23 27 40 38q33 21 73 23z" />
    <glyph glyph-name="dslash" unicode="&#x111;" horiz-adv-x="405" 
d="M236 444l-15 -2q-16 -3 -19 -3q-12 0 -12 13q0 2 3 21q1 2 1 6v3q-1 3 -1 6q0 14 14 14q1 0 7.5 -1t8.5 -1h4q5 1 11 1q2 0 6 -1l4 -1q13 0 13 24q0 23 -10 39q-2 5 -26 19q-5 3 -5 13t11 18q3 2 15 9q15 4 48 23q17 14 33 14q20 0 20 -18q0 -5 -2 -15q-5 -24 -7 -48
q-2 -9 -6 -47v-8q-1 -3 -1 -8q0 -10 6 -10q1 0 2 1q2 1 3 1q1 1 5 1q8 0 18 -6t10 -14q0 -4 -4 -13q-2 -22 -4 -26q-4 -7 -5 -7l-24 4q-3 0 -5 -8v-8l-1 -15l-1 -41l-1 -287q0 -13 3 -19l9 -14l8 -18q10 -16 10 -23q0 -15 -23 -15q-4 0 -24 2q-2 1 -7 1q-2 0 -9.5 -0.5
t-9.5 -0.5q-20 0 -25 5l-9 17q-1 1 -4 1q-5 0 -27 -12q-18 -9 -22 -9l-18 -1l-23 -4q-9 0 -31 7q-24 7 -33 15q-18 15 -28 32q-17 24 -26 45q-13 25 -13 57q0 114 48 164q24 26 81 39l31 8q31 0 49 -21q9 -11 12 -11q7 0 7 13q0 8 -1 13l-1 11l3 29l1 22q1 9 1 17v0v1
q0 5 -3 6t-20 1zM205 288q-29 0 -54 -9q-30 -11 -46 -45q-11 -24 -11 -94q0 -30 25 -67q18 -28 57 -28q44 0 64 36q17 31 17 55l-1 47q0 4 1 6l2 19l-4 29q-2 28 -5 34q-15 17 -45 17z" />
    <glyph glyph-name="Gbreve" unicode="&#x11e;" horiz-adv-x="672" 
d="M458 823q7 0 7 -13q-2 -22 -17 -42l-30 -30q-33 -15 -34 -14l-9 1q-24 3 -30 4q-24 11 -38 32l-5 7.5t-4 6.5l-11 44l11 -1q9 -5 16 -21q8 -17 17 -20q22 -7 38 -7zM362 685q47 0 109 -5q21 -2 32 -7l38 -17q18 -5 44 -18q25 -19 25 -47q0 -39 -3 -92q-1 -21 -2.5 -30
t-2.5 -10t-4 -1q-16 0 -38 63q-9 24 -15 30q-1 1 -21 15q-7 12 -28 32q-2 3 -13 10q-23 17 -55 24q-43 8 -50 8q-58 0 -110 -32q-29 -17 -44 -33q-25 -26 -40 -72q-8 -25 -16 -59q-12 -48 -12 -57q1 -6 3 -29v-15l-1 -5v-10.5v-11.5l-1 -45l-3 -30q0 -3 11 -50q0 -3 22 -51
q27 -65 102 -97q42 -17 72 -17q16 0 56 10q11 2 27 3q61 3 61 90q0 20 -12 35.5t-29 16.5q-22 1 -27 3t-5 12q0 7 8 12q9 0 32 4q42 6 43 6q7 0 62 -6h11q2 0 12 1.5t12 1.5q14 0 17 -17v-3q0 -9 -3 -12l-17 -19q-3 -5 -5 -43v-24l-1 -39q0 -19 -4 -39q-1 -15 -21 -15
q-6 0 -23.5 1.5t-21.5 1.5q-7 0 -40 -10l-34 -3l-26 -3l-16 -2q-24 -2 -38 -4q-5 0 -9 -0.5t-6 -0.5l-2 -1q-63 0 -78 5q-70 25 -116 68q-28 26 -41 46q-37 53 -55 109q-2 5 -6.5 18t-6.5 20q-16 39 -16 73q0 17 1 30q0 6 0.5 13.5t1 11.5t0.5 6q2 45 23 96q23 56 68 112
q21 26 50 41q4 3 11 8q27 21 67 34q22 7 32 9q36 2 65 2z" />
    <glyph glyph-name="gbreve" unicode="&#x11f;" horiz-adv-x="387" 
d="M331 516q7 0 7 -13q0 -20 -16 -42l-2 -1q-1 -2 -4 -4.5t-6.5 -6l-8.5 -8.5l-10 -10q-31 -14 -33 -14l-9 1q-24 3 -30 4q-24 11 -37 33l-9 13l-11 45l11 -2q7 -1 15 -20q8 -17 17 -20q26 -8 38 -8zM217 366q10 0 22 -2q13 -6 39 -19q2 -1 9 -1q2 0 13 10.5t20 10.5
q14 0 24 -10.5t10 -23.5q0 -10 -5 -20q-1 -1 -3 -3.5t-6.5 -7t-8.5 -9.5q-3 -3 -3 -15q0 -8 2 -22l3 -27v-30q0 -27 -3 -40q-4 -19 -23 -42q-7 -9 -25 -21q-22 -17 -34 -22q-4 0 -25 -4q-10 -1 -19.5 -2.5t-13.5 -1.5l-5 -1h-9q-45 3 -52 3q-20 0 -20 -15q0 -20 39 -26
l54 -7l52 1q2 0 24 -13q25 -9 42 -21q23 -15 41 -52q4 -12 3 -52l-1 -16v-12l-1 -17q-1 -32 -10 -54q-15 -32 -50 -52q-2 -1 -13 -8q-50 -34 -96 -34q-56 0 -87 19q-30 18 -44 35q-29 37 -29 71q0 29 4 62t33 54q22 16 22 23q0 1 -4 6.5t-7 12.5t-7 17.5t-6 26t-2 33.5
q0 10 2 16l18 28q-16 17 -22 33q-16 31 -16 91q0 54 26 89q19 26 41 38q11 6 34 11q6 2 21 9q6 3 52 3zM221 -75q-2 0 -11.5 -1.5t-13.5 -1.5h-4q-3 1 -11.5 2.5t-17.5 2.5q-16 -5 -32 -23q-5 -5 -9 -8q-30 -25 -30 -70q0 -34 16 -57q21 -34 81 -34q79 0 122 51q12 14 12 42
q0 25 -16 45q-16 19 -49 38l-10 6q-16 8 -27 8zM180 311q-24 0 -46 -18q-1 -1 -13 -18q-22 -31 -22 -47q0 -37 6 -49q0 -3 11 -23q28 -52 53 -52q62 0 81 28q1 4 11 20q12 24 12 37q0 39 -14 78q-5 15 -20 26q-18 6 -25 8q-27 10 -34 10z" />
    <glyph glyph-name="Idot" unicode="&#x130;" horiz-adv-x="278" 
d="M139 821q9 0 25 -9q22 -13 22 -37q0 -14 -14 -30q-22 -24 -33 -24q-9 0 -32 15q-10 7 -11 14q0 6 -1 14q-3 13 -3 16q0 4 6 15q7 17 15 22q7 4 26 4zM74 671l60 -3q35 4 48 4q44 0 44 -25q0 -7 -11 -15q-18 -15 -22 -26q-10 -30 -10 -142q0 2 0.5 -6t0.5 -16q2 -36 2 -61
v-27q0 -52 -3 -85q-1 -3 -1 -13q0 -9 1 -16q1 -15 1 -30v-4q-1 -4 -1 -9v-10q0 -8 4 -31l1 -52l1 -17q5 -7 11 -21q1 -3 4 -9t4 -9l15 -15q8 -11 8 -17q0 -16 -10 -16h-27h-4q-20 -2 -25 -2q-1 0 -4 0.5t-8 1t-10 0.5l-44 -1q-15 -1 -34 6q-9 5 -9 15q0 6 3 9l26 22
q9 12 10 32q0 2 1 8t2 15.5t2 19.5q1 3 1 8q0 4 -1.5 18t-1.5 18q0 6 2 44q3 30 3 45q0 4 -5 59l3 32q0 1 -0.5 3.5t-1 7t-0.5 9.5v7v95q0 7 -1 12q-1 10 -5 51l-1 54q-2 23 -24 42q-17 14 -17 22q0 16 23 18z" />
    <glyph glyph-name="dotlessi" unicode="&#x131;" horiz-adv-x="217" 
d="M76 138v21q0 26 -2 54q-1 3 -1 6l1 2q0 2 0.5 6t0.5 8l1 10l3 24q0 11 -11 20q-17 13 -18.5 14.5t-1.5 6.5q0 8 6 13l16 8l29 15q8 4 17.5 8t11.5 5q8 5 13 5q9 0 9 -12q0 -8 -3 -28q-1 -5 -1 -11q0 -5 1 -22t1 -21q0 -21 -3 -57q-1 -3 -1 -9q0 -4 1.5 -19.5t1.5 -19.5
v-7q-1 -4 -1 -13q0 -70 14 -103q16 -28 16 -32q0 -12 -24 -12q-2 0 -6 0.5t-11.5 1t-14.5 0.5h-16q-4 0 -23 -1t-23 -1q-15 0 -15 12q0 7 17 24q11 13 11 26q0 4 -1 8v6q0 1 2 19q3 17 3 21q1 7 1 24z" />
    <glyph glyph-name="Lslash" unicode="&#x141;" horiz-adv-x="454" 
d="M321 50h26q11 0 30 24q26 31 32 41q19 40 28 40q11 0 9 -14l-3 -43l3 -35q2 -21 1 -29q0 -24 -14 -32q-12 -2 -38 -2h-26l-67 2q-1 0 -3.5 -0.5t-8.5 -1t-11 -0.5h-9q-14 -2 -24 -2q-22 0 -55 4q-12 2 -24 2q-15 0 -57 -2q-1 0 -6 -1l-15 -3l-20 -4q-3 -1 -8 -1
q-26 0 -26 13q0 11 10 21q5 3 19 16q26 23 28 64q6 33 6 67v19q-1 8 -1 16v0q0 13 1 28v7q0 17 -11 17q-6 0 -13 -6q-17 -16 -26 -16q-6 0 -8 3l-7 10q-12 20 -12 24q0 10 5 12l18 5q7 3 9 5l36 24q13 10 13 42l-3 51v2l1 106l-3 25q0 28 -2 38q-2 3 -6.5 10.5t-6.5 11.5
l-10 17q-2 3 -29 13q-6 4 -6 13q0 11 15 13q4 1 11 1.5t11 0.5l68 -2q1 0 55 3l28 1q23 2 23 -15q0 -7 -6 -10l-12 -7l-13 -17q-10 -10 -11 -15q-19 -51 -19 -122q0 -31 1 -42v-36q0 -23 10 -23q3 0 7 4q8 8 31 18q1 0 22 16q11 8 16 8q11 0 14 -9l3 -12q9 -16 9 -19
q0 -9 -14 -14q-5 -1 -26 -14q-8 -3 -33 -20q-3 -5 -19 -12q-14 -6 -15 -12q-5 -12 -5 -30l1 -34q-4 -31 -4 -43q0 -7 2 -21q2 -15 3 -35l3 -26q0 -8 -4 -28q-1 -2 -1 -7q0 -47 48 -47q9 0 34 4q19 0 41 1z" />
    <glyph glyph-name="lslash" unicode="&#x142;" horiz-adv-x="213" 
d="M178 397q5 0 13 -17q4 -7 7 -17q0 -3 -2 -5l-9 -4l-17 -10l-16 -8q-14 -8 -14 -26q-1 -8 1 -25l3 -21l2 -67q0 -3 -3 -26q-1 -5 -1 -9l6 -41q1 -18 6 -44q7 -20 14 -32q2 -4 8 -10l9 -9q4 -4 4 -14q0 -9 -8 -11q-9 -1 -31 -1h-16h-13q-1 0 -10.5 -0.5t-14.5 -0.5h-7
l-19 1h-3q-24 -2 -26 -2q-13 0 -13 9q0 8 4 12l18 20l8 13q14 23 14 31l-1 22l4 29l1 22l-2 42q0 31 -1 50v8q0 2 1 11t1 11q0 9 -8 9q-6 0 -12 -6q-13 -13 -20 -13q-5 0 -13 12l-1 2q-1 1 -2 4t-2 5l-4 9l17 11l15 12q20 8 25 14q3 6 5 36q2 70 2 77q0 16 -1 19l-8 27
q-4 36 -17 40l-22 12q-4 1 -4 14q0 14 35 31q10 5 23 18l22 14l35 22q10 0 10 -13q0 -3 -2 -11.5t-2 -9.5l2 -31v-2q-1 -2 -1.5 -5t-0.5 -6q-2 -6 -2 -27q0 -24 -1 -31v-7l2 -50q-4 -19 -4 -39q0 -34 11 -34q3 0 8 5q13 11 18 11z" />
    <glyph glyph-name="OE" unicode="&#x152;" horiz-adv-x="871" 
d="M402 686q44 0 78 -12q9 -4 17 -4l46 2h18q4 0 8 1v0q22 0 50 -7q3 -1 6 -1t22 3q1 1 13 1q13 0 26 1q10 1 24 1q23 0 46 -5q2 0 5 -1t4 -1q2 0 14.5 2t16.5 2q20 0 22 -17q1 -4 4 -50l-1 -11v-6q0 -13 5 -41q2 -14 2 -20q0 -18 -9 -18q-7 4 -21 14q-5 3 -20 39l-10 15
q-1 3 -13 19q-9 10 -29 16q-15 2 -31 3q-1 1 -14 4q-31 10 -50 10q-44 0 -48 -25l-2 -22l-2 -15v-8q-6 -35 -6 -52v-3q0 -3 0.5 -8t0.5 -10.5v-12v-11.5l-1 -41q0 -48 34 -48q15 0 29 9q36 25 50 42q8 11 15 11q8 0 13 -11q0 -11 1 -24l2 -19l-1 -28l-1 -27l-2 -18
q0 -3 1 -11t1 -10q1 -6 1 -12q1 -3 1 -6q0 -7 -8 -25q-2 -5 -7 -5q-2 0 -8 2l-9 12l-11 14l-8 22l-17 17q-7 10 -11 12q-8 6 -31 6q-17 0 -22 -9q0 -1 -2 -49q0 -8 -5.5 -35.5t-5.5 -37.5q0 -11 1 -22l-1 -26q0 -7 -2 -45q0 -3 -0.5 -5.5t-0.5 -4.5t-0.5 -3.5t-0.5 -2.5v-1
q0 -33 60 -35q36 -4 44 -4t37 8q16 4 22 10l19 18q23 15 26 20q6 11 22 54q5 14 17 14q13 0 13 -21q0 -69 -4 -92q-2 -18 -3 -37q0 -21 -33 -21q-8 0 -48 10q-2 0 -4 -1q-12 -3 -24 -3l-5 1q-5 0 -15.5 0.5t-23.5 0.5h-10q-17 0 -30 -1q-34 -2 -42 -2q-3 0 -16.5 1t-17.5 1
q-6 0 -25 -0.5t-24 -0.5q-42 0 -54 -4q-30 -8 -82 -8q-65 0 -96 10q-112 33 -170 145q-28 53 -41 95q-9 28 -13 54l-1 6q0 6 -0.5 19.5t-0.5 28.5q0 3 -0.5 8t-0.5 9l-1 3q0 37 16 85q7 21 37 72q2 3 37 57q44 47 110 77q46 20 61 23q3 1 42 4q43 3 56 3zM344 640
q-16 -1 -37 -14q-37 -24 -38 -25q-18 -16 -47 -53q-7 -8 -25 -43l-14 -26l-8 -21q-2 -4 -6 -14t-7 -16q-3 -14 -3 -46q0 -8 1 -22q2 -16 0 -30l-2 -66q-1 -7 15 -68q5 -18 12 -42q1 -4 30 -36q12 -21 19 -28q1 -1 26 -19q32 -25 47 -29q10 -4 44 -7q7 0 13.5 -0.5t10.5 -1
t5 -0.5q37 0 51 8q28 16 36 26q4 4 7 34l3 28q0 5 -0.5 20.5t-0.5 19.5v37q-1 11 -1 19l1 10v8q0 24 2 62l3 25q0 2 -2 36q-1 22 0 36v29l2 43q1 31 6 55l-7 28q-3 29 -17 48q-5 7 -12 14q-5 2 -32 11q-9 3 -43 5z" />
    <glyph glyph-name="oe" unicode="&#x153;" horiz-adv-x="582" 
d="M226 365q25 0 32 -4l13 -7q3 -2 9 -5t9 -5q9 -8 15 -15q16 -18 23 -18q4 0 5 1t7 8t11 12t15.5 12t21.5 12q27 11 45 11q48 0 92 -39q37 -34 37 -62q0 -35 -31 -35q-4 0 -14 1t-13 1q-15 0 -26 -1q-26 -2 -28 -2h-10h-5q-15 0 -21 1q-29 3 -36 3q-20 0 -34 -13
q-7 -6 -7 -20q0 -1 0.5 -3t1 -6t0.5 -8q5 -39 7 -44q7 -16 39 -42q23 -19 35 -24q19 -6 35 -6q18 0 59 9q15 4 26 10q4 2 5 2q8 0 8 -8q0 -5 -4 -13v-1q-1 -1 -1.5 -3t-0.5 -4q-6 -20 -17 -31q-2 -2 -14 -11q-15 -11 -31 -18q-19 -8 -59 -8q-11 0 -38 9q-4 2 -14 5.5
t-13 5.5q-5 3 -23 23q-9 10 -16 10t-47 -34q-22 -19 -62 -19q-94 0 -156 89q-23 34 -26 54q-2 22 -2 47q0 4 0.5 16t0.5 15v22q-1 19 34 64q19 24 70 47q42 19 93 19zM179 325q-18 0 -35 -17q-21 -19 -32 -37q-13 -22 -13 -56q0 -25 1 -38v-8v-12q0 -11 13 -43q7 -27 14 -35
q5 -7 13 -11l28 -15l4 -3l8 -4q14 -10 21 -10q46 0 65 58q12 38 12 83q0 26 -4 37l-7 22q-4 12 -18 52q-22 37 -70 37zM417 331q-28 0 -46 -20q-14 -16 -14 -30q0 -10 9 -13q16 -6 92 -6q27 0 27 15q0 19 -21 39q-16 15 -47 15z" />
    <glyph glyph-name="Scedilla" unicode="&#x15e;" horiz-adv-x="523" 
d="M59 211q7 0 10 -7l20 -57l6 -12q2 -4 16 -31q2 -1 25 -21l18 -17q16 -14 34 -24q14 -13 21 -14q17 -7 21 -7l30 4q34 1 47 6.5t29 22.5q19 19 25 28l6 10t5 8l4 6l3 4.5t1 2.5q10 23 10 38q0 92 -98 125l-33 15l-69 19l-18 10q-12 6 -48 28q-13 13 -29 31q-28 33 -33 44
q-5 10 -9 22l-1 19q0 10 -0.5 20.5t-1 16t-0.5 7.5q0 23 13 50q8 17 25 40q12 17 53 47l20 14l14 7q42 20 80 20q54 0 65 -1q25 -1 74 -20q10 -1 28 -15q12 -15 20 -49q15 -61 13 -63v-9l3 -21q0 -10 -10 -10q-11 0 -19 8q-5 6 -16 34q-5 10 -21 26q-1 1 -25 17l-12 10
l-10 8q-30 30 -34 33q-13 9 -31 9q-6 0 -29 -3q-30 -4 -39 -8q-15 -6 -26 -20q-25 -28 -29 -34q-11 -21 -13 -30q-3 -15 -3 -23q0 -23 14 -53q11 -24 53 -47q11 -7 39 -13l11 -2q9 -3 41 -10l34 -17q22 -10 38 -18q13 -9 21 -17q42 -36 52 -54q32 -53 33 -67q5 -47 5 -81
q0 -39 -36 -81q-14 -15 -41 -41q-3 -3 -35 -22q-38 -20 -61 -21q-15 0 -30 -4q-5 -3 -5 -9q0 -8 3 -9l21 -9q3 -1 10.5 -12.5t6.5 -14.5l-3 -21l1 -13q0 -12 -10 -19q-25 -23 -43 -23q-28 0 -38 6q-9 5 -21 20q-9 9 -9 21q0 6 6.5 13t12.5 7q7 0 19 -22q4 -9 31 -9
q16 0 16 17q0 16 -5 19l-28 14q-5 3 -5 11q0 4 1 13.5t1 11.5q0 13 -6 14h-25l-17 1l-33 8q-32 6 -65 12q-41 12 -44 38l-4 26q-4 22 -5 48q0 15 -1 30q-1 7 -1 14q0 51 19 51z" />
    <glyph glyph-name="scedilla" unicode="&#x15f;" horiz-adv-x="307" 
d="M162 354q-25 0 -37 -22q-8 -14 -8 -27q0 -16 17 -36q6 -8 14 -11q5 -2 29 -10l20 -12q19 -8 22 -10q30 -25 40 -41q13 -20 13 -55q0 -30 -20 -68q-19 -36 -51 -47q-30 -9 -31 -12q-2 -2 -2 -9q0 -14 2.5 -17t18.5 -10q3 -3 11 -14t7 -14l-3 -20q0 -18 -2 -23t-18 -20
q-9 -7 -12 -8q-7 -4 -21 -4q-27 0 -37 6q-11 6 -22 19q-9 11 -9 21q0 7 7 13.5t13 6.5q7 0 19 -21q4 -9 30 -9q17 0 17 18q0 15 -6 18l-28 14q-4 1 -4 4l1 23v7q0 6 1 7l1 4q0 3 -18 10q-19 12 -26 12t-10 -4l-9 -13q-3 -3 -15 -3q-10 0 -15.5 4.5t-4.5 12.5v31q0 6 -1 14
q0 17 -1 34v20q-2 14 8 14q4 0 10 -11q11 -24 45 -50q12 -9 28 -15q9 -3 13 -3h26q22 4 36 20q12 15 12 38q0 36 -41 56l-26 13q-3 3 -41 28q-13 7 -35 24q-23 26 -23 55q0 33 19 57t54 34q10 2 38 2l23 1q6 0 14 -2q3 -1 8 -3t6 -2l37 8q7 3 9 -20q1 -9 1 -21q0 -8 -1 -23
l-1 -12q0 -27 -9 -27q-10 0 -34 43q-19 37 -48 37z" />
    <glyph glyph-name="Scaron" unicode="&#x160;" horiz-adv-x="523" 
d="M58 211q8 0 11 -7l20 -57l6 -12q2 -4 16 -31q2 -1 25 -21l18 -17q16 -14 34 -24q16 -13 21 -14q18 -7 21 -7l30 4q34 1 47 6.5t29 22.5q19 19 25 28l6 10t5 8l4 6l3 4.5t1 2.5q10 23 10 38q0 92 -98 125l-33 15l-69 19l-18 10q-12 6 -48 28q-13 13 -29 31q-28 33 -33 44
q-5 10 -9 22l-1 19q0 10 -0.5 20.5t-1 16t-0.5 7.5q0 23 13 50q8 17 25 40q12 17 53 47l20 14l14 7q42 20 80 20q54 0 65 -1q25 -1 74 -20q10 -1 28 -15q12 -15 20 -49q15 -61 13 -63v-9l3 -21q0 -10 -10 -10q-11 0 -19 8q-5 6 -16 34q-5 10 -21 26q-1 1 -25 17l-12 10
l-10 8q-30 30 -34 33q-13 9 -31 9q-6 0 -29 -3q-30 -4 -39 -8q-15 -6 -26 -20q-25 -28 -29 -34q-11 -21 -13 -30q-3 -15 -3 -23q0 -22 14 -53q10 -24 53 -47q11 -7 39 -13l11 -2q9 -3 41 -10q6 -2 34 -18q17 -7 31 -14q15 -8 28 -20q42 -36 52 -54q9 -18 18 -35l13 -26
q6 -35 6 -64l1 -23q2 -38 -36 -81q-10 -13 -42 -41q-5 -5 -34 -22q-29 -15 -37 -17q-24 -6 -40 -5l-57 3h-26l-17 1l-33 8q-32 6 -65 12q-41 12 -44 38l-4 26q-4 22 -5 47q0 15 -1 31q-1 7 -1 14q0 51 18 51zM183 839q5 0 49 -33q24 -36 28 -36q12 0 24 23q8 13 11 16
q6 3 31 25q10 8 15 8q7 0 7 -9q0 -3 -14 -23l-12 -22l-12 -19l-8 -13l-16 -19q-6 -17 -10 -21q-5 -5 -20 -5q-5 0 -13 3q0 1 -13 19l-18 25l-9 14q-15 26 -17 30q-2 5 -8 19q-4 7 -4 11q0 7 9 7z" />
    <glyph glyph-name="scaron" unicode="&#x161;" horiz-adv-x="307" 
d="M42 127q4 0 10 -11q11 -24 45 -50q12 -9 28 -15q9 -3 13 -3h26q22 4 36 20q12 15 12 38q0 36 -41 56l-26 13q-3 3 -41 28q-13 7 -35 24q-23 26 -23 55q0 33 19 57t54 34q10 2 38 2l23 1q6 0 14 -2q3 -1 8 -3t6 -2l37 8q7 3 9 -20q1 -9 1 -21q0 -8 -1 -23l-1 -12
q0 -27 -9 -27q-10 0 -34 43q-19 37 -47 37q-26 0 -38 -22q-8 -14 -8 -27q0 -16 17 -36q6 -8 14 -11q5 -2 29 -10l20 -11q15 -6 22 -11q30 -25 40 -41q13 -20 13 -55q0 -28 -19 -65q-14 -26 -30 -38q-15 -10 -45 -20q-22 -7 -35 -7q-12 0 -27 5l-21 12q-1 1 -5 1q-7 0 -10 -5
l-9 -13q-3 -3 -15 -3q-10 0 -15.5 4.5t-4.5 12.5v32q0 6 -1 13q-1 3 -1 34v4v7v6q0 17 8 17zM81 525q6 0 49 -32q24 -35 28 -35q12 0 24 22q8 13 11 16q17 12 31 24q10 8 15 8q7 0 7 -8q0 -3 -14 -23l-12 -20l-20 -31l-16 -19q-7 -16 -10 -19q-7 -5 -21 -5q-4 0 -12 3
q-1 2 -13 18l-18 23l-9 14q-11 14 -17 29q-4 9 -8 17q-4 7 -4 10q0 8 9 8z" />
    <glyph glyph-name="Ydieresis" unicode="&#x178;" horiz-adv-x="567" 
d="M298 0q-3 0 -6 -1q-28 -2 -30 -2q-6 0 -11 1q-11 1 -19 1l-13 -1h-23q-23 -2 -23 10q0 9 7 12l22 10q8 5 27 34q20 25 20 36v5q0 4 -0.5 7t-0.5 5v3.5v1.5l3 59q0 15 3 45q0 5 1 8l-4 54q-2 19 -3 38q0 2 -24 42q-4 7 -34 59q-15 19 -21 27q-19 24 -28 41q-1 3 -20 33
q-23 38 -30 45l-20 19l-18 20l-15 13q-26 17 -28 19q-4 4 -4 10q0 4 4 8q1 1 40 3q30 3 33 3q6 0 29 -4q4 0 18.5 1.5t18.5 1.5q1 0 4 -0.5t8.5 -1t10.5 -0.5q2 -1 23 -1q29 0 29 -16q0 -6 -7 -13l-15 -17q-9 -9 -9 -21q0 -14 32 -63q19 -32 24 -36l4 -4l7 -7l8 -8
q5 -5 16 -25l14 -22q13 -28 19 -28q29 0 73 92l12 24q14 18 25 32q12 15 12 28q0 14 -11 31l-2 2q-1 2 -4 5t-5 6l-3 2q-2 1 -6 4.5t-9 7.5q-4 3 -4 10q0 16 29 16h10q6 0 13 -0.5t11 -1t6 -0.5q3 0 21 3q5 1 13 1q9 0 40 -4q28 -4 28 -18q0 -9 -5 -13.5t-33 -19.5
q-15 -7 -36 -33l-2 -3l-8.5 -8.5t-11.5 -12.5q-7 -8 -24 -43l-15 -22l-11 -17l-7 -10l-5 -7l-10 -15l-26 -39q-17 -20 -23 -35q-7 -21 -6 -55v-57v-8q-3 -26 -3 -28q0 -3 2.5 -16t1.5 -17l-2 -46l-1 -31q-1 -24 8 -44q7 -16 30 -36q17 -14 17 -23t-8 -7l-22 1q-5 -1 -21 -1z
M212 821q10 0 31 -15q11 -8 12 -14q0 -7 1 -15q3 -13 3 -16q0 -5 -6 -15q-7 -17 -14 -21.5t-26 -4.5q-10 0 -26 10q-22 13 -22 37q0 16 13 30q23 24 34 24zM389 813q22 2 35 -7q17 -11 17 -41q0 -12 -4 -24q-1 -7 -15 -13q-18 -9 -26 -9q-38 0 -38 55q0 15 9.5 27t21.5 12z
" />
    <glyph glyph-name="Zcaron" unicode="&#x17d;" 
d="M207 622q-49 0 -90 -23q-15 -8 -23 -26q-6 -16 -9 -25q-7 -16 -17 -16q-5 0 -9.5 4.5t-3.5 8.5l3 19l-1 25q0 4 2.5 19t2.5 19t-1 5q0 6 -0.5 12t-1 9.5t-0.5 4.5q0 14 12 14q2 0 29 -6q8 -2 12 -2h4q5 1 14.5 2.5t20.5 2.5q2 1 9 1q2 0 32 -5q17 -4 37 -4q8 0 40 4l64 2
q3 0 7 -1q34 -2 35 -2q2 0 6.5 0.5t13 1t17.5 0.5h18q32 0 32 -21q0 -14 -32 -67q-25 -42 -31 -56q-42 -89 -58 -127q-4 -7 -14 -27t-15 -29l-15 -25l-12 -31q-2 -4 -9 -19t-13 -26q-8 -13 -26 -36l-8 -15l-6 -13l-26 -62l-6 -9q-6 -14 -6 -25q0 -18 7 -25q13 -11 101 -11
q39 0 74 12q14 5 19 11q1 1 2.5 3.5t3.5 5.5l4 6q4 6 15 17q9 9 10 15q2 5 3 20q3 16 17 16q16 0 16 -22q0 -1 -0.5 -9.5t-0.5 -12.5v-21l-2 -20q-2 -37 -4 -53q-3 -10 -5 -10l-26 2q-3 1 -15.5 -1t-14.5 -2q-16 0 -19 -1l-19 -1q-2 0 -5 0.5t-9 1t-11 0.5q-9 1 -61 1
q-14 0 -50 -4h-17l-11 -1q-5 1 -21 3l-19 4q-12 4 -50 4q-5 0 -37 -5q-2 -1 -7 -1q-20 0 -20 17q0 21 15 43q22 36 47 84q6 8 27 44l6 12l11 17l5 10q0 1 8.5 15t13.5 24q5 12 8 15q13 19 18 32q10 17 42 99l18 37q4 5 19 29l17 26q15 25 27 53q12 19 12 33q0 22 -15 26
q-1 0 -25 2l-37 2h-24q-5 0 -9.5 0.5t-6.5 1.5h-3zM184 839q6 0 49 -33q24 -36 28 -36q12 0 24 23q8 13 11 16q6 3 31 25q10 8 15 8q7 0 7 -9q0 -3 -14 -23l-12 -22l-12 -19l-8 -13l-16 -19q-6 -17 -10 -21q-5 -5 -20 -5q-5 0 -13 3q0 1 -13 19l-18 25l-9 14q-15 26 -17 30
q-2 5 -8 19q-4 7 -4 11q0 7 9 7z" />
    <glyph glyph-name="zcaron" unicode="&#x17e;" horiz-adv-x="320" 
d="M138 321q-30 0 -36 -1q-12 -1 -32 -13q-7 -4 -20 -23q-3 -3 -7 -3q-12 0 -12 54q0 22 14 22l51 -1l26 1q9 1 31 -3q4 0 11 -1t11 -1h13l88 1q8 1 12.5 -3.5t4.5 -13.5t-13 -25q-16 -19 -18 -24l-22 -46l-14 -20l-14 -25q-2 -4 -26 -48q-1 -1 -24 -38q-8 -11 -20 -39
q-11 -17 -11 -22q0 -11 28 -11q4 0 25 3h31q26 -2 52 30q17 20 21 20q10 0 10 -22q0 -5 -2 -27v-14q0 -17 -4 -21q-4 -6 -21 -6q-9 0 -14 1q-14 1 -25 1q-1 0 -4.5 -0.5t-10.5 -1t-14 -0.5q-8 -1 -22 -1q-5 0 -51 3q-1 0 -4.5 -0.5t-9.5 -1t-11 -0.5q-3 0 -6 -1q-3 0 -28 3
q-38 0 -40 1q-10 4 -10 13q0 19 18 45l15 24q1 3 29 32q1 1 5.5 7l7.5 10q5 10 11 25l2 4q1 2 13 18q4 12 15 36q24 27 38 64q9 14 9 20q0 8 -17 11q-22 8 -29 8zM87 525q6 0 49 -32q24 -35 28 -35q12 0 24 22q8 13 11 16q17 12 31 24q10 8 15 8q7 0 7 -8q0 -3 -14 -23
l-12 -20l-20 -31l-16 -19q-7 -16 -10 -19q-7 -5 -21 -5q-4 0 -12 3q-1 2 -13 18l-18 23l-9 14q-11 14 -17 29q-4 9 -8 17q-4 7 -4 10q0 8 9 8z" />
    <glyph glyph-name="longs" unicode="&#x17f;" horiz-adv-x="229" 
d="M142 272l1 -26l-1 -22l1 -25q0 -3 -0.5 -11t-0.5 -10q0 -18 6 -75q1 -19 6 -40q17 -32 58 -41q8 -2 8 -12q0 -8 -11 -10h-24h-21h-13h-4h-22h-41h-7q-65 0 -65 18q0 12 19 16q10 2 29 14q8 5 10 13l1 24l3 22l1 19q2 40 1 48q0 9 -1 25.5t-2 24.5q-1 13 -1 21q0 14 4 47
q0 42 -3 46q-5 8 -15 11l-31 -1q-9 2 -9 11q0 11 25 18q26 9 26 20l-1 50q0 7 4 19q1 5 4 20.5t5 20.5l2 10q1 11 19 65q9 26 47 58q25 20 51 20q15 0 36 -12q16 -10 16 -38q0 -31 -25 -31q-13 0 -22 4q-5 2 -15 19q-4 9 -16 9q-19 0 -23 -25l-4 -24q-11 -52 -9 -57l1 -24
l1 -28l2 -23q-1 -28 1 -93q-2 -16 -1 -65z" />
    <glyph glyph-name="florin" unicode="&#x192;" horiz-adv-x="309" 
d="M61 349l-32 -1q-6 2 -6 10q0 19 29 24q18 1 24 7q3 1 6 15l11 66q1 2 7.5 20.5t11.5 34.5l5 16l4 10q5 18 30 64q14 27 57 58q28 21 54 21q16 0 35 -13q12 -7 12 -22q0 -47 -33 -47q-12 0 -21 4q-4 1 -7 9l-5 10q-4 10 -14 10q-18 0 -27 -25l-9 -24q-1 -3 -6.5 -18
t-9.5 -27q0 -1 -7 -43l-5 -35l-4 -30l-5 -39q0 -20 40 -23q10 0 12 -3q0 -1 1.5 -7.5t2.5 -10.5q0 -11 -10 -12l-37 -2q-14 -2 -18 -16q-4 -13 -16 -58l-4 -26q-6 -33 -8 -47q-7 -42 -15 -78q0 -2 -1.5 -16t-3.5 -27q-3 -8 -18 -61q-18 -60 -52 -89q-16 -14 -43 -31
q-37 -25 -42 -25q-13 0 -11 14q2 10 7 11l15 4q8 8 22 16q19 9 23 27l11 35q2 11 6 28.5t5 24.5q5 23 20 111l5 24q10 80 10 83q0 1 1.5 6t4 15t5.5 21q7 38 7 39q0 13 -14 18z" />
    <glyph glyph-name="circumflex" unicode="&#x2c6;" horiz-adv-x="498" 
d="M255 528q7 0 13 -3q0 -1 13 -19l17 -23l10 -13q1 -1 7 -11t10 -18q1 -3 2.5 -6t2 -5t1.5 -3.5t1 -2.5l1 -1q4 -5 4 -9q0 -8 -9 -8q-6 0 -49 32q-25 34 -28 34q-13 0 -25 -22q-7 -12 -9.5 -14.5t-13.5 -9.5q-7 -4 -18 -15q-10 -8 -15 -8q-7 0 -7 10q1 3 14 21l11 21l13 18
l7 12l16 18q9 18 13.5 21.5t17.5 3.5z" />
    <glyph glyph-name="caron" unicode="&#x2c7;" horiz-adv-x="498" 
d="M170 525q6 0 49 -32q24 -35 28 -35q12 0 24 22q8 13 11 16q17 12 31 24q10 8 15 8q7 0 7 -8q0 -3 -14 -23l-12 -20l-20 -31l-16 -19q-7 -16 -10 -19q-7 -5 -21 -5q-4 0 -12 3q-1 2 -13 18l-18 23l-9 14q-11 14 -17 29q-4 9 -8 17q-4 7 -4 10q0 8 9 8z" />
    <glyph glyph-name="breve" unicode="&#x2d8;" horiz-adv-x="499" 
d="M331 516q7 0 7 -13q0 -20 -16 -42l-2 -1q-1 -2 -4 -4.5t-6.5 -6l-8.5 -8.5l-10 -10q-31 -14 -33 -14l-9 1q-24 3 -30 4q-24 11 -37 33l-9 13l-11 45l11 -2q7 -1 15 -20q8 -17 17 -20q26 -8 38 -8z" />
    <glyph glyph-name="dotaccent" unicode="&#x2d9;" 
d="M250 496q15 0 35 -17q6 -6 7 -21l2 -15q0 -3 -5.5 -14.5t-7.5 -12.5q-8 -8 -25 -8q-20 0 -33 12q-16 12 -16 31q0 14 22 33q12 12 21 12z" />
    <glyph glyph-name="ring" unicode="&#x2da;" 
d="M254 525q6 1 24 -6.5t24 -13.5q7 -7 12 -23l3 -13q0 -16 -9 -31q-20 -32 -58 -32q-54 0 -54 66q0 24 35 45q14 8 23 8zM251 495q-9 0 -16.5 -9t-7.5 -19t7 -17q9 -10 12 -12l15 1q13 0 20 15q4 8 4 13q0 12 -16 22q-9 6 -18 6z" />
    <glyph glyph-name="ogonek" unicode="&#x2db;" 
d="M372 -99q1 -2 1 -5q0 -31 -61 -31q-22 0 -39 20q-16 17 -16 41q0 21 25 46q22 23 42 32q18 9 41 9q6 0 6 -6q0 -5 -21 -9q-20 -14 -27 -20l-12 -8l-5 -17q-6 -19 -6 -21q0 -11 20 -31q7 -7 9 -7z" />
    <glyph glyph-name="tilde" unicode="&#x2dc;" 
d="M211 496q7 0 12 -1q3 -1 25 -12l17 -5q38 -20 44 -20t12.5 2t12.5 5t10.5 6.5t7.5 5.5l3 2q7 0 6 -7q0 -1 -20 -29q-15 -19 -21 -25q-13 -8 -27 -8q-10 0 -28 5q-5 1 -28 12q-20 8 -30 11q-22 8 -31 8q-11 0 -18 -10q-11 -14 -13 -14q-9 0 -9 9q0 7 12 18l15 15
q26 32 48 32z" />
    <glyph glyph-name="hungarumlaut" unicode="&#x2dd;" 
d="M272 517q29 0 29 -30q0 -16 -15 -31q-9 -9 -23 -14l-16 -5q-14 -7 -36 -19q-9 -5 -28 -19q-1 -1 -4 -1q-10 0 -10 9q0 7 19 23q24 21 43 56q16 31 41 31zM378 517q29 0 29 -30q0 -16 -15 -31q-9 -10 -23 -14l-16 -5q-14 -7 -35 -19q-12 -6 -29 -19q-1 -1 -3 -1
q-10 0 -10 9q0 7 19 23q23 22 42 56q16 31 41 31z" />
    <glyph glyph-name="Omega" unicode="&#x3a9;" horiz-adv-x="667" 
d="M688 119l-39 -119h-275v44q35 19 58 33q69 44 109 122q36 73 36 160q0 119 -61 201q-68 89 -181 89q-99 0 -165 -70q-80 -86 -80 -226q0 -135 87 -227q47 -47 116 -82v-44h-277l-36 119h19q11 -39 37 -56q23 -15 88 -17l108 -3v6q-94 36 -147 91q-86 89 -86 215
q0 141 101 236q94 86 233 86q150 0 242 -91q94 -91 94 -225q0 -85 -43 -158q-55 -98 -192 -154v-6l114 3q59 1 85 18q23 17 36 55h19z" />
    <glyph glyph-name="mu" unicode="&#x3bc;" horiz-adv-x="383" 
d="M227 18q-6 -2 -34 -21q-4 -4 -13 -4q-3 0 -4 1l-45 6q-6 -2 -6 -9q0 -10 6 -29q9 -27 9 -37q0 -13 -9 -32q-14 -29 -42 -29q-9 0 -20 13.5t-12 23.5l-1 15q-5 10 -5 13v6q0 15 12.5 54.5t12.5 62.5q0 8 -1 15q-6 66 -6 85q0 2 0.5 6t1 12t0.5 15q3 33 3 45q0 4 -3 38
q-2 25 -6 32q-4 13 -19 25q-26 20 -26 26q0 10 16 10q4 0 37 -6q28 5 32 5q38 0 38 -28q0 -1 -0.5 -6t-2 -16t-2.5 -21l1 -173q0 -1 -0.5 -4t-1 -8t-0.5 -9q-1 -5 -1 -10q0 -23 16 -40q9 -9 18 -9q10 0 29.5 8t25.5 15q7 7 16 26t9 28l-3 44q4 29 4 35q0 4 -3 29q-1 5 -1 14
q0 13 4 54q1 3 1 9q0 12 -4 19l-24 39q9 6 12 6q1 0 11 -2q2 0 5 -0.5t4.5 -1t2.5 -0.5l45 1q14 0 14 -30q0 -25 -1 -59.5t-1 -38.5l1 -25v-49l1 -13l-2 -48q0 -9 10 -22q19 -22 19 -26t-8 -9l-25 -18q-44 -37 -67 -37z" />
    <glyph glyph-name="pi" unicode="&#x3c0;" 
d="M554 467v-52h-152q-34 -84 -34 -131v-155q0 -48 4 -63q6 -29 34 -29q22 0 51 12v-17l-105 -40q-8 -4 -11 -4q-23 0 -37 41q-10 30 -10 59v153q0 73 67 174h-172q-1 -13 -1 -100q-1 -149 -18 -265q-7 -67 -47 -67q-34 0 -34 35q0 17 20 74q34 96 43 323q-40 -1 -57 -6
q-48 -11 -103 -81l-12 13l69 89q28 37 91 37h414z" />
    <glyph glyph-name="endash" unicode="&#x2013;" horiz-adv-x="461" 
d="M59 226q3 0 4 -1l8 -2t6.5 -1.5l5 -1t3.5 -0.5h2q3 0 6 1q15 4 29 4q8 0 30 -5l30 1l24 -2q1 0 29 6l27 1q17 0 34 -4q4 0 7.5 -0.5t5.5 -1t3 -0.5q2 0 8 1t8 1t13.5 -1.5t15.5 -1.5q11 0 31 4q4 1 11 1q10 0 15 -3.5t4 -10.5l-3 -21q-1 -23 -4 -28q-5 -5 -11 -5
q-4 0 -18.5 1.5t-19.5 1.5q-4 0 -7 -1q-5 -1 -13 -1q-1 0 -7 2t-8 2q-7 0 -23 -4q-4 -1 -53 -1q-32 5 -46 5q-13 0 -26 -4q-3 -1 -8 -1q-4 0 -9 1q-22 2 -29 2h-6h-5l-16 2q-3 1 -9 1t-9 -1q-19 -4 -28 -4q-12 0 -16 10q-1 1 -1 17l-2 23q0 7 8 15q4 4 9 4z" />
    <glyph glyph-name="emdash" unicode="&#x2014;" horiz-adv-x="594" 
d="M442 161l-29 -1l-22 2l-10 -1l-29 1q-7 0 -12 -1l-72 6l-87 -12q-3 0 -16 3t-17 3q-2 0 -8 -1t-7 -1q-4 0 -15.5 1.5t-13.5 1.5q-11 0 -31 -4q-4 -1 -11 -1q-11 0 -16 3.5t-4 10.5l4 21q2 24 4 28q5 5 10 5q4 0 19 -1.5t19 -1.5q2 0 20 2q1 0 7.5 -2t8.5 -2q7 0 22 4
q4 1 10 1l18 -1l159 1q32 -5 45 -5q15 0 28 4q3 1 6 1q5 0 10 -1q22 -2 28 -2h7h5q2 0 16 -2q4 -1 9 -1t8 1q17 4 23 4q12 0 26 -11q5 -5 5 -9t-6 -22l-3 -18h-4l-32 -4q-9 1 -13 0l-40 -4q-1 0 -5 1t-8.5 2.5t-5.5 1.5z" />
    <glyph glyph-name="quoteleft" unicode="&#x2018;" horiz-adv-x="195" 
d="M148 685q8 0 8 -7q0 -8 -6 -15q-1 -2 -31 -24q-9 -7 -9 -30q0 -19 21 -33q13 -10 15 -12q3 -4 3 -12q0 -28 -18 -41q-4 -3 -41 -13q-18 1 -29 21q-1 1 -9 22l-9 21q-1 5 -1 24q0 6 3 22q7 37 33 55q13 12 19 14q24 8 51 8z" />
    <glyph glyph-name="quoteright" unicode="&#x2019;" horiz-adv-x="195" 
d="M105 686q19 -2 30 -21q3 -8 9 -22l8 -22q2 -8 2 -24q0 -6 -4 -22q-6 -35 -32 -55q-16 -13 -19 -14q-21 -7 -52 -7q-7 0 -7 6t5 16q1 1 31 23q2 1 5.5 13t3.5 16q0 21 -21 34q-14 9 -15 12q-3 5 -3 12q0 27 18 41q7 4 41 14z" />
    <glyph glyph-name="quotesinglbase" unicode="&#x201a;" horiz-adv-x="195" 
d="M106 92q18 -1 29 -21q19 -35 19 -59q0 -14 -3 -30q-6 -35 -33 -55q-16 -15 -45 -19q-19 -3 -27 -3q-5 0 -5 8q0 5 3 11q3 4 33 27q2 2 5.5 14t3.5 15q0 20 -21 33q-16 12 -16 13q-3 6 -3 12q0 28 19 40q7 4 41 14z" />
    <glyph glyph-name="quotedblleft" unicode="&#x201c;" horiz-adv-x="336" 
d="M148 685q8 0 8 -7q0 -8 -6 -15q-1 -2 -31 -24q-9 -7 -9 -30q0 -19 21 -33q13 -10 15 -12q3 -4 3 -12q0 -28 -18 -41q-4 -3 -41 -13q-18 1 -29 21q-1 1 -9 22l-9 21q-1 5 -1 24q0 6 3 22q7 37 33 55q13 12 19 14q24 8 51 8zM289 685q7 0 7 -7t-5 -15q-1 -2 -31 -24
q-10 -7 -10 -30q0 -19 21 -33q6 -3 16 -12q4 -4 4 -12q0 -27 -20 -41q-4 -3 -41 -13q-18 1 -29 21q-1 2 -9 22l-8 21q-2 8 -2 24q0 6 4 22q8 38 32 55q13 12 19 14q24 8 52 8z" />
    <glyph glyph-name="quotedblright" unicode="&#x201d;" horiz-adv-x="336" 
d="M105 686q19 -2 30 -21q3 -8 9 -22l8 -22q2 -8 2 -24q0 -6 -4 -22q-6 -35 -32 -55q-16 -13 -19 -14q-21 -7 -52 -7q-7 0 -7 6t5 16q1 1 31 23q2 1 5.5 13t3.5 16q0 21 -21 34q-14 9 -15 12q-3 5 -3 12q0 27 18 41q7 4 41 14zM247 686q18 -1 29 -21q7 -12 17 -44
q2 -8 2 -24q0 -5 -3 -22q-7 -35 -33 -55q-13 -12 -19 -14q-21 -7 -52 -7q-7 0 -7 6q0 7 6 16q3 3 30 23q2 1 6 13t4 16q0 21 -21 34q-19 13 -19 24q0 28 19 41q7 4 41 14z" />
    <glyph glyph-name="quotedblbase" unicode="&#x201e;" horiz-adv-x="336" 
d="M105 92q19 -2 30 -21q3 -8 9 -22l8 -22q2 -8 2 -24q0 -5 -4 -21q-8 -36 -32 -55q-16 -12 -19 -13q-24 -8 -52 -8q-7 0 -7 7q0 5 5 15q1 1 31 23q2 2 5.5 14t3.5 15q0 21 -21 34q-13 7 -15 11q-3 5 -3 13q0 26 18 40q7 4 41 14zM247 92q18 -1 29 -21q7 -12 17 -44
q2 -8 2 -24q0 -5 -3 -21q-7 -35 -33 -55q-14 -12 -19 -13q-24 -8 -52 -8q-7 0 -7 7q0 6 6 15q3 3 30 23q2 2 6 14t4 15q0 21 -21 34q-19 13 -19 24q0 27 19 40q7 4 41 14z" />
    <glyph glyph-name="dagger" unicode="&#x2020;" horiz-adv-x="394" 
d="M83 529q19 0 55 -15q10 -5 17 -5q18 0 18 24q0 13 -12 44l-2 15l-10 38q5 32 30 50q13 9 22 9q8 0 19.5 -14t12.5 -23l2 -14l1 -1q0 -1 0.5 -3t0.5 -4q2 -14 2 -24q0 -14 -3 -18l-13 -25q-7 -13 -7 -33q0 -18 28 -18q10 0 20 2l2 2q2 1 7 4.5t9 6.5q7 7 23 7q2 0 22 -5
q16 -5 18 -7q18 -15 18 -32q0 -13 -10 -26l-10 -10l-13 -2l-17 -4l-25 6l-19 1q-4 1 -8.5 2.5t-7 2.5t-5.5 2l-4.5 1.5t-3.5 0.5l-1 1q-9 0 -16 -15q-5 -15 -5 -24q0 -13 4 -22l13 -30q2 -3 3 -22q11 -24 11 -27q-5 -26 -10 -46l-7 -19l-3 -13l-2 -13v-31q-3 -22 -5 -62v-39
l-2 -68l-1 -30v-22v-29q4 -27 4 -36q0 -26 -22 -26q-13 0 -16 11v19q0 6 -1 10q-1 7 -3 32l-3 30l4 29l-1 5q-1 5 -1 11v18l-1 26l1 9q-4 39 -4 52q0 11 1 24l-1 17l-1 28l-5 28l-2 19q0 3 -13 30q-3 7 -3 24q0 10 2 20l13 46l2 28l5 31q0 25 -24 25q-10 0 -35 -15
q-1 0 -26 -4l-16 -2q-3 -1 -10 -1q-13 0 -22.5 10t-9.5 23q0 33 20 45q17 10 32 10z" />
    <glyph glyph-name="daggerdbl" unicode="&#x2021;" horiz-adv-x="394" 
d="M148 329q-8 0 -33 -15l-26 -3q-16 -3 -20 -3q-15 0 -26 14q-9 12 -9 28q0 21 13.5 33.5t34.5 12.5q5 0 25 -6l12 -2q27 -13 37 -13q19 0 19 14q0 2 -1.5 9.5t-1.5 8.5l2 33q0 6 -9 17q-6 6 -16 6t-34 -15l-26 -4q-1 0 -3.5 -0.5t-6 -1t-7.5 -0.5q-3 -1 -10 -1
q-11 0 -21 9.5t-10 20.5q0 8 7 26.5t13 21.5q13 10 31 10q7 0 25 -5q18 -3 30 -10q10 -5 18 -5q18 0 18 24q0 14 -4 22l-9 22l-1 15q-10 27 -10 33q0 9 9 33q9 26 16 26l27 1l8 2q10 -3 21 -26q3 -9 4 -23l2 -8q3 -10 3 -24t-3 -18l-13 -25q-8 -14 -8 -33q0 -18 28 -18
q10 0 20 2q5 2 18 13q12 8 18 7l14 -1l14 2q8 -5 21 -16q14 -23 14 -29q0 -13 -10 -26q-7 -10 -10 -10l-13 -3l-16 -4l-26 7q-42 11 -50 11q-9 0 -19 -27l4 -34l-2 -12q2 -14 23 -14q9 0 20 3q5 2 18 13l21 4q9 3 11 3t14 -5l11 -2l10 -9l13 -10v-11l2 -13q0 -6 -10 -20
q-7 -9 -10 -11l-14 -2l-16 -4l-26 7h-19q-13 5 -30 11q-6 0 -11.5 -7t-5.5 -13q0 -9 13 -35q12 -23 12 -44q0 -14 -7 -39l-4.5 -18t-4 -15t-1.5 -8l-2 -17l-1 -43q0 -4 -6 -49l-2 -14l1 -77q0 -5 0.5 -10.5t0.5 -10t0.5 -8t1.5 -6.5v-2q0 -25 -16 -25q-22 0 -22 30
q0 6 -1 10l-2 32l-4 29l1 29q0 5 -1 10q0 6 -0.5 17.5t-1.5 16.5q0 19 -6 79q0 16 -1 27q-1 1 -13 42q-4 11 -4 27q0 10 2 14l14 20v13l6 22q0 2 -8 13q-6 7 -17 7z" />
    <glyph glyph-name="bullet" unicode="&#x2022;" horiz-adv-x="667" 
d="M336 478q56 0 97 -41q40 -40 40 -98t-41 -99q-40 -40 -98 -40t-98 40t-40 98t41 99t99 41z" />
    <glyph glyph-name="ellipsis" unicode="&#x2026;" horiz-adv-x="600" 
d="M106 97q21 0 31 -19l5 -30q3 -22 3 -24q0 -5 -5 -13q-20 -21 -46 -21q-10 0 -30 20q-13 13 -13 21q0 29 10 42q6 8 21 16t24 8zM300 91q26 0 39 -12q11 -9 11 -28q0 -4 -2 -12q-5 -7 -14 -20q-14 -19 -17 -23q-5 -4 -18 -4q-22 0 -38 11q-11 11 -11 46q0 13 12 24
q3 2 9.5 7t8.5 6q7 5 20 5zM487 92q4 0 28 -11q23 -9 27 -13q8 -8 8 -28q0 -24 -10 -34q-14 -13 -46 -13q-10 0 -33 20q-11 11 -11 31q0 48 37 48z" />
    </font>
</defs>
</svg>
