<?xml version="1.0" standalone="no"?>
<!DOCTYPE svg PUBLIC "-//W3C//DTD SVG 1.1//EN" "http://www.w3.org/Graphics/SVG/1.1/DTD/svg11.dtd" >
<svg>
<metadata>
Created by FontForge 20090622 at Thu Jun  6 06:00:41 2019
 By deploy user
Copyright (c) 2016 by Victor Barac. All rights reserved.
</metadata>
<defs>
<font id="TheWildThings-BoldItalic" horiz-adv-x="280" >
  <font-face 
    font-family="The Wild Things"
    font-weight="700"
    font-style="italic"
    font-stretch="normal"
    units-per-em="1000"
    panose-1="0 0 0 0 0 0 0 0 0 0"
    ascent="750"
    descent="-250"
    x-height="338"
    cap-height="338"
    bbox="-160 -140 590 480.158"
    underline-thickness="50"
    underline-position="-50"
    unicode-range="U+000D-U+2022"
  />
<missing-glyph horiz-adv-x="160" 
 />
    <glyph glyph-name=".notdef" horiz-adv-x="160" 
 />
    <glyph glyph-name=".null" horiz-adv-x="0" 
 />
    <glyph glyph-name="nonmarkingreturn" horiz-adv-x="333" 
 />
    <glyph glyph-name="NULL" horiz-adv-x="0" 
 />
    <glyph glyph-name="NULL" horiz-adv-x="0" 
 />
    <glyph glyph-name="CR" unicode="&#xd;" horiz-adv-x="160" 
 />
    <glyph glyph-name="space" unicode=" " horiz-adv-x="160" 
 />
    <glyph glyph-name="exclam" unicode="!" horiz-adv-x="120" 
d="M30 80q-7 0 -13 3q-11 6 -15 18t1 22l100 200q6 11 18 15t22 -1q11 -6 15 -18t-1 -22l-100 -200q-8 -17 -27 -17zM20 30q0 -13 -8.5 -21.5t-21.5 -8.5t-21.5 8.5t-8.5 21.5t8.5 21.5t21.5 8.5t21.5 -8.5t8.5 -21.5z" />
    <glyph glyph-name="quotedbl" unicode="&#x22;" horiz-adv-x="200" 
d="M130 340q13 0 21.5 -8.5t8.5 -21.5q0 -23 -18 -46.5t-37 -23.5q-6 0 -10.5 4.5t-4.5 10.5q0 8 7 13q17 9 7 27q-4 5 -4 15q0 13 8.5 21.5t21.5 8.5zM210 340q13 0 21.5 -8.5t8.5 -21.5q0 -23 -18 -46.5t-37 -23.5q-6 0 -10.5 4.5t-4.5 10.5q0 8 7 13q17 9 7 27
q-4 5 -4 15q0 13 8.5 21.5t21.5 8.5z" />
    <glyph glyph-name="numbersign" unicode="#" 
d="M248 239q22 -7 22 -29q0 -13 -8.5 -21.5t-21.5 -8.5h-22l-10 -21q22 -7 22 -29q0 -13 -8.5 -21.5t-21.5 -8.5h-22l-11 -23q-8 -17 -27 -17q-7 0 -13 3q-24 12 -15 37h-14l-11 -23q-8 -17 -27 -17q-7 0 -13 3q-11 5 -15.5 16.5t0.5 21.5q-22 5 -22 29q0 13 8.5 21.5
t21.5 8.5h21l11 21q-22 7 -22 29q0 13 8.5 21.5t21.5 8.5h21l12 23q6 11 18 15t22 -1q24 -12 15 -37h13l12 23q6 11 18 15t22 -1q11 -5 15 -16.5t0 -21.5zM141 160l10 20h-13l-10 -20h13z" />
    <glyph glyph-name="dollar" unicode="$" 
d="M257 337l-16 -32q19 -24 19 -55q0 -13 -8.5 -21.5t-21.5 -8.5t-21.5 8.5t-8.5 21.5q0 12 -9 21t-21 9q-13 0 -21.5 -9t-8.5 -21q0 -20 24 -52q36 -47 36 -88q0 -46 -32 -78t-78 -32h-1l-12 -23q-8 -17 -27 -17q-7 0 -13 3q-11 6 -15 18t1 22l9 18q-32 27 -32 69
q0 27 13 53q6 11 18 15t22 -1q11 -6 15 -18t-1 -22q-7 -14 -7 -27t8.5 -21.5t21.5 -8.5q21 0 35.5 14.5t14.5 35.5q0 20 -24 52q-36 47 -36 88q0 38 26 64t64 26q8 0 20 -2l13 25q6 11 18 15t22 -1q11 -6 15 -18t-1 -22z" />
    <glyph glyph-name="percent" unicode="%" horiz-adv-x="482" 
d="M149 180q-28 1 -47.5 20.5t-20.5 47.5v2q0 38 26.5 64t63.5 26h1q29 -1 48.5 -20.5t20.5 -48.5v-1q0 -38 -26.5 -64t-63.5 -26h-2zM171 280q-13 0 -21.5 -9t-8.5 -21q0 -10 10 -10q12 0 21 8.5t9 21.5q0 10 -10 10zM401 91v-1q0 -38 -26.5 -64t-63.5 -26h-2
q-28 1 -47.5 20.5t-20.5 47.5v2q0 38 26.5 64t63.5 26h1q28 -1 48 -21t21 -48zM311 60q12 0 21 8.5t9 21.5q0 10 -10 10q-13 0 -21.5 -9t-8.5 -21q0 -10 10 -10zM391 332q10 -8 10 -20.5t-8 -21.5l-260 -280q-9 -10 -22 -10q-12 0 -20 8q-10 8 -10 20.5t8 21.5l260 280
q8 10 20.5 10t21.5 -8z" />
    <glyph glyph-name="ampersand" unicode="&#x26;" horiz-adv-x="320" 
d="M275 167q7 -11 4.5 -23t-12.5 -19l-18 -12q-6 -48 -43 -80.5t-86 -32.5q-46 0 -78 32t-32 78q0 34 18.5 61.5t49.5 40.5q-8 18 -8 38q0 38 26 64t64 26t64 -26t26 -64q0 -13 -8.5 -21.5t-21.5 -8.5t-21.5 8.5t-8.5 21.5q0 12 -9 21t-21 9q-13 0 -21.5 -9t-8.5 -21
q0 -13 8.5 -21.5t21.5 -8.5t21.5 -8.5t8.5 -21.5t-8.5 -21.5t-21.5 -8.5h-40q-21 0 -35.5 -14.5t-14.5 -35.5t14.5 -35.5t35.5 -14.5q29 0 49.5 20.5t20.5 49.5q0 16 13 25l30 20q11 7 23 4.5t19 -12.5z" />
    <glyph glyph-name="quotesingle" unicode="'" horiz-adv-x="120" 
d="M130 340q13 0 21.5 -8.5t8.5 -21.5q0 -23 -18 -46.5t-37 -23.5q-6 0 -10.5 4.5t-4.5 10.5q0 8 7 13q17 9 7 27q-4 5 -4 15q0 13 8.5 21.5t21.5 8.5z" />
    <glyph glyph-name="parenleft" unicode="(" horiz-adv-x="120" 
d="M230 420q13 0 21.5 -8.5t8.5 -21.5t-8.5 -21.5t-21.5 -8.5q-43 0 -73 -63l-130 -260q-7 -14 -7 -27t8.5 -21.5t21.5 -8.5t21.5 -8.5t8.5 -21.5t-8.5 -21.5t-21.5 -8.5q-38 0 -64 26t-26 64q0 27 13 53l130 260q21 38 36 55q40 42 91 42z" />
    <glyph glyph-name="parenright" unicode=")" horiz-adv-x="120" 
d="M147 277l-130 -260q-21 -38 -36 -55q-40 -42 -91 -42q-13 0 -21.5 8.5t-8.5 21.5t8.5 21.5t21.5 8.5q43 0 73 63l130 260q7 14 7 27q0 12 -9 21t-21 9q-13 0 -21.5 8.5t-8.5 21.5t8.5 21.5t21.5 8.5q38 0 64 -26t26 -64q0 -27 -13 -53z" />
    <glyph glyph-name="asterisk" unicode="*" horiz-adv-x="240" 
d="M238 299q22 -7 22 -29q0 -13 -8.5 -21.5t-21.5 -8.5h-12q9 -25 -15 -37q-6 -3 -13 -3q-19 0 -27 17l-1 2l-11 -10q-9 -9 -21 -9t-21 9q-14 13 -7 32q-22 5 -22 29q0 13 8.5 21.5t21.5 8.5h12q-9 25 15 37q10 5 22 1t18 -15l1 -2l11 10q8 9 20.5 9t21.5 -9q14 -14 7 -32z
" />
    <glyph glyph-name="plus" unicode="+" 
d="M220 200q13 0 21.5 -8.5t8.5 -21.5t-8.5 -21.5t-21.5 -8.5h-62l-21 -43q-8 -17 -27 -17q-7 0 -13 3q-11 6 -15 18t1 22l8 17h-31q-13 0 -21.5 8.5t-8.5 21.5t8.5 21.5t21.5 8.5h61l22 43q6 11 18 15t22 -1q11 -6 15 -18t-1 -22l-9 -17h32z" />
    <glyph glyph-name="comma" unicode="," horiz-adv-x="120" 
d="M-10 60q13 0 21.5 -8.5t8.5 -21.5q0 -23 -18 -46.5t-37 -23.5q-6 0 -10.5 4.5t-4.5 10.5q0 8 7 13q17 9 7 27q-4 5 -4 15q0 13 8.5 21.5t21.5 8.5z" />
    <glyph glyph-name="hyphen" unicode="-" 
d="M220 140h-160q-13 0 -21.5 8.5t-8.5 21.5t8.5 21.5t21.5 8.5h160q13 0 21.5 -8.5t8.5 -21.5t-8.5 -21.5t-21.5 -8.5z" />
    <glyph glyph-name="period" unicode="." horiz-adv-x="120" 
d="M20 30q0 -13 -8.5 -21.5t-21.5 -8.5t-21.5 8.5t-8.5 21.5t8.5 21.5t21.5 8.5t21.5 -8.5t8.5 -21.5z" />
    <glyph glyph-name="slash" unicode="/" horiz-adv-x="240" 
d="M-9 0q-12 0 -20 8q-10 8 -10 20.5t8 21.5l260 280q8 10 20.5 10t21.5 -8q10 -8 10 -20.5t-8 -21.5l-260 -280q-9 -10 -22 -10z" />
    <glyph glyph-name="zero" unicode="0" 
d="M280 250q0 -27 -13 -53l-50 -100q-21 -38 -36 -55q-40 -42 -91 -42q-38 0 -64 26t-26 64q0 27 13 53l50 100q21 38 36 55q40 42 91 42q38 0 64 -26t26 -64zM90 60q43 0 73 63l50 100q7 14 7 27q0 12 -9 21t-21 9q-43 0 -73 -63l-50 -100q-7 -14 -7 -27t8.5 -21.5
t21.5 -8.5z" />
    <glyph glyph-name="one" unicode="1" horiz-adv-x="200" 
d="M224 337q11 -6 15 -18t-1 -22l-140 -280q-8 -17 -27 -17q-7 0 -13 3q-11 6 -15 18t1 22l74 147l-28 -23q-7 -7 -19 -7q-13 0 -23 10q-8 10 -7 22.5t10 20.5l140 120q15 12 33 4z" />
    <glyph glyph-name="two" unicode="2" 
d="M190 340q38 0 64 -26t26 -64q0 -57 -47 -95q-25 -20 -89 -47q-66 -29 -90 -48h96q13 0 21.5 -8.5t8.5 -21.5t-8.5 -21.5t-21.5 -8.5h-160q-7 0 -13 3q-11 6 -15 18t1 22q15 31 44.5 56t51 36t61.5 28q55 23 77.5 40.5t22.5 46.5q0 12 -9 21t-21 9q-21 0 -35.5 -14.5
t-14.5 -35.5q0 -13 -8.5 -21.5t-21.5 -8.5t-21.5 8.5t-8.5 21.5q0 46 32 78t78 32z" />
    <glyph glyph-name="three" unicode="3" 
d="M320 310q0 -16 -13 -25l-105 -70q28 -26 28 -65q0 -27 -13 -53q-21 -38 -36 -55q-40 -42 -91 -42q-38 0 -64 26t-26 64q0 27 13 53q6 11 18 15t22 -1q11 -6 15 -18t-1 -22q-7 -14 -7 -27t8.5 -21.5t21.5 -8.5q43 0 73 63q7 14 7 27q0 12 -9 21t-21 9q-13 0 -21.5 8.5
t-8.5 21.5q0 16 13 25l68 45h-61q-13 0 -21.5 8.5t-8.5 21.5t8.5 21.5t21.5 8.5h160q13 0 21.5 -8.5t8.5 -21.5z" />
    <glyph glyph-name="four" unicode="4" 
d="M303 337q11 -6 15 -18t-1 -22l-140 -280q-8 -17 -27 -17q-7 0 -13 3q-11 6 -15 18t1 22l18 37h-111q-13 0 -21.5 8.5t-8.5 21.5q0 15 12 24l259 200q16 11 32 3zM118 140h53l34 67z" />
    <glyph glyph-name="five" unicode="5" 
d="M290 340q13 0 21.5 -8.5t8.5 -21.5t-8.5 -21.5t-21.5 -8.5h-142l-20 -40h12q38 0 64 -26t26 -64q0 -27 -13 -53q-21 -38 -36 -55q-40 -42 -91 -42q-38 0 -64 26t-26 64q0 27 13 53q6 11 18 15t22 -1q11 -6 15 -18t-1 -22q-7 -14 -7 -27t8.5 -21.5t21.5 -8.5q43 0 73 63
q7 14 7 27q0 12 -9 21t-21 9h-60q-13 0 -21.5 8.5t-8.5 21.5q0 7 3 13l50 100q9 17 27 17h160z" />
    <glyph glyph-name="six" unicode="6" 
d="M190 340q38 0 64 -26t26 -64q0 -13 -8.5 -21.5t-21.5 -8.5t-21.5 8.5t-8.5 21.5q0 12 -9 21t-21 9q-36 0 -60 -41q3 1 10 1q38 0 64 -26t26 -64q0 -27 -13 -53q-21 -38 -36 -55q-40 -42 -91 -42q-38 0 -64 26t-26 64q0 27 13 53l50 100q21 38 36 55q40 42 91 42zM90 60
q43 0 73 63q7 14 7 27q0 12 -9 21t-21 9q-43 0 -73 -63q-7 -14 -7 -27t8.5 -21.5t21.5 -8.5z" />
    <glyph glyph-name="seven" unicode="7" 
d="M309 334q10 -8 12 -20.5t-6 -22.5l-77 -97q13 -8 13 -24q0 -13 -8.5 -21.5t-21.5 -8.5h-25l-101 -129q-9 -11 -24 -11q-10 0 -19 6q-10 8 -11.5 20t6.5 22l77 97q-13 10 -13 25q0 13 8.5 21.5t21.5 8.5h25l63 80h-98q-13 0 -21.5 8.5t-8.5 21.5t8.5 21.5t21.5 8.5h160
q11 0 18 -6z" />
    <glyph glyph-name="eight" unicode="8" 
d="M260 270q0 -49 -42 -76q12 -20 12 -44q0 -27 -13 -53q-21 -38 -36 -55q-40 -42 -91 -42q-38 0 -64 26t-26 64q0 27 13 53q21 38 36 55q24 26 53 35q-2 10 -2 15v2q0 38 26 64t64 26h1q29 -1 48.5 -20.5t20.5 -48.5v-1zM190 280q-13 0 -21.5 -9t-8.5 -21q0 -10 10 -10
q12 0 21 8.5t9 21.5q0 10 -10 10zM90 60q43 0 73 63q7 14 7 27q0 12 -9 21t-21 9q-43 0 -73 -63q-7 -14 -7 -27t8.5 -21.5t21.5 -8.5z" />
    <glyph glyph-name="nine" unicode="9" 
d="M280 250q0 -27 -13 -53l-50 -100q-21 -38 -36 -55q-40 -42 -91 -42q-38 0 -64 26t-26 64q0 13 8.5 21.5t21.5 8.5t21.5 -8.5t8.5 -21.5t8.5 -21.5t21.5 -8.5q33 0 60 40h-10q-38 0 -64 26t-26 64q0 27 13 53q21 38 36 55q40 42 91 42q38 0 64 -26t26 -64zM190 280
q-43 0 -73 -63q-7 -14 -7 -27t8.5 -21.5t21.5 -8.5q43 0 73 63q7 14 7 27q0 12 -9 21t-21 9z" />
    <glyph glyph-name="colon" unicode=":" horiz-adv-x="120" 
d="M20 30q0 -13 -8.5 -21.5t-21.5 -8.5t-21.5 8.5t-8.5 21.5t8.5 21.5t21.5 8.5t21.5 -8.5t8.5 -21.5zM80 150q0 -13 -8.5 -21.5t-21.5 -8.5t-21.5 8.5t-8.5 21.5t8.5 21.5t21.5 8.5t21.5 -8.5t8.5 -21.5z" />
    <glyph glyph-name="semicolon" unicode=";" horiz-adv-x="120" 
d="M-10 60q13 0 21.5 -8.5t8.5 -21.5q0 -23 -18 -46.5t-37 -23.5q-6 0 -10.5 4.5t-4.5 10.5q0 8 7 13q17 9 7 27q-4 5 -4 15q0 13 8.5 21.5t21.5 8.5zM80 150q0 -13 -8.5 -21.5t-21.5 -8.5t-21.5 8.5t-8.5 21.5t8.5 21.5t21.5 8.5t21.5 -8.5t8.5 -21.5z" />
    <glyph glyph-name="less" unicode="&#x3c;" 
d="M279 239q4 -12 -2 -23t-18 -15l-116 -36l60 -28q11 -5 15 -17t-1 -23q-8 -17 -27 -17q-7 0 -13 3l-130 60q-11 5 -15 16.5t1 23.5q5 11 18 16l190 60q12 4 23 -2t15 -18z" />
    <glyph glyph-name="equal" unicode="=" 
d="M240 190h-160q-13 0 -21.5 8.5t-8.5 21.5t8.5 21.5t21.5 8.5h160q13 0 21.5 -8.5t8.5 -21.5t-8.5 -21.5t-21.5 -8.5zM190 90h-160q-13 0 -21.5 8.5t-8.5 21.5t8.5 21.5t21.5 8.5h160q13 0 21.5 -8.5t8.5 -21.5t-8.5 -21.5t-21.5 -8.5z" />
    <glyph glyph-name="greater" unicode="&#x3e;" 
d="M250 179q4 -12 -2 -23t-18 -15l-190 -60q-3 -1 -9 -1q-23 0 -29 21q-4 12 2 23t18 15l116 36l-60 28q-11 5 -15 16.5t1 23.5q5 11 16.5 15t23.5 -1l130 -60q11 -5 16 -18z" />
    <glyph glyph-name="question" unicode="?" 
d="M190 340q38 0 64 -26t26 -64q0 -46 -38 -82q-22 -21 -64 -43q-21 -12 -30 -19l-11 -9q-8 -17 -27 -17q-7 0 -13 3q-11 6 -15 18t1 22q11 22 65 54q38 21 55 37t17 36q0 12 -9 21t-21 9q-21 0 -35.5 -14.5t-14.5 -35.5q0 -13 -8.5 -21.5t-21.5 -8.5t-21.5 8.5t-8.5 21.5
q0 46 32 78t78 32zM70 60q13 0 21.5 -8.5t8.5 -21.5t-8.5 -21.5t-21.5 -8.5t-21.5 8.5t-8.5 21.5t8.5 21.5t21.5 8.5z" />
    <glyph glyph-name="at" unicode="@" horiz-adv-x="600" 
d="M590 290q0 -28 -1.5 -45.5t-11.5 -52.5t-30 -75l-10 -20q-21 -38 -36 -55q-40 -42 -91 -42q-47 0 -73 38q-38 -38 -87 -38q-38 0 -64 26t-26 64q0 27 13 53l50 100q21 38 36 55q40 42 91 42q40 0 67 -30l6 13q6 11 18 15t22 -1q11 -6 15 -18t-1 -22l-90 -180
q-7 -14 -7 -27t8.5 -21.5t21.5 -8.5q42 0 73 63l10 20q17 35 26 64t10 43.5t1 39.5q0 54 -38 92t-92 38q-95 0 -164.5 -53t-128.5 -170q-17 -35 -26 -64t-10 -43.5t-1 -39.5q0 -54 38 -92t92 -38q58 0 112 21q30 13 39 22q9 7 19 7q13 0 21.5 -8.5t8.5 -21.5q0 -15 -11 -23
q-10 -8 -25 -17.5t-63 -24.5t-101 -15q-79 0 -134.5 55.5t-55.5 134.5q0 28 1.5 45.5t11.5 52.5t30 75q62 123 134 183q43 36 95 54q55 20 118 20q79 0 134.5 -55.5t55.5 -134.5zM250 60q43 0 73 63l10 20l40 80q7 14 7 27q0 12 -9 21t-21 9q-43 0 -73 -63l-50 -100
q-7 -14 -7 -27t8.5 -21.5t21.5 -8.5z" />
    <glyph glyph-name="A" unicode="A" 
d="M228 334q16 -13 11 -31l-60 -279q-5 -24 -29 -24q-4 0 -6 1q-13 2 -19.5 12.5t-3.5 22.5l9 44h-63l-53 -69q-9 -11 -24 -11q-10 0 -19 6q-10 8 -11.5 20t6.5 22l220 280q8 10 20 12t22 -6zM115 140h28l10 49z" />
    <glyph glyph-name="B" unicode="B" 
d="M260 270q0 -63 -53 -94q13 -21 13 -46q0 -54 -38 -92t-92 -38h-100q-7 0 -13 3q-11 6 -15 18t1 22l140 280q8 16 27 17h60h1q29 -1 48.5 -20.5t20.5 -48.5v-1zM150 220q21 0 35.5 14.5t14.5 35.5q0 10 -10 10h-42l-30 -60h32zM90 60q29 0 49.5 20.5t20.5 49.5q0 12 -9 21
t-21 9h-42l-50 -100h52z" />
    <glyph glyph-name="C" unicode="C" 
d="M190 340q38 0 64 -26t26 -64q0 -27 -13 -53q-8 -17 -27 -17q-7 0 -13 3q-11 6 -15 18t1 22q7 14 7 27q0 12 -9 21t-21 9q-43 0 -73 -63l-50 -100q-7 -14 -7 -27t8.5 -21.5t21.5 -8.5q43 0 73 63q6 11 18 15t22 -1q11 -6 15 -18t-1 -22q-21 -38 -36 -55q-40 -42 -91 -42
q-38 0 -64 26t-26 64q0 27 13 53l50 100q21 38 36 55q40 42 91 42z" />
    <glyph glyph-name="D" unicode="D" 
d="M280 250q0 -27 -13 -53l-50 -100q-21 -38 -36 -55q-40 -42 -91 -42h-100q-7 0 -13 3q-11 6 -15 18t1 22l140 280q8 17 27 17h60q38 0 64 -26t26 -64zM90 60q43 0 73 63l50 100q7 12 7 27q0 12 -9 21t-21 9h-42l-110 -220h52z" />
    <glyph glyph-name="E" unicode="E" 
d="M290 340q13 0 21.5 -8.5t8.5 -21.5t-8.5 -21.5t-21.5 -8.5h-142l-40 -80h72q13 0 21.5 -8.5t8.5 -21.5t-8.5 -21.5t-21.5 -8.5h-102l-40 -80h112q13 0 21.5 -8.5t8.5 -21.5t-8.5 -21.5t-21.5 -8.5h-160q-7 0 -13 3q-11 6 -15 18t1 22l140 280q8 17 27 17h160z" />
    <glyph glyph-name="F" unicode="F" 
d="M290 340q13 0 21.5 -8.5t8.5 -21.5t-8.5 -21.5t-21.5 -8.5h-142l-40 -80h72q13 0 21.5 -8.5t8.5 -21.5t-8.5 -21.5t-21.5 -8.5h-102l-61 -123q-8 -17 -27 -17q-7 0 -13 3q-11 6 -15 18t1 22l140 280q8 15 27 17h160z" />
    <glyph glyph-name="G" unicode="G" 
d="M190 340q38 0 64 -26t26 -64q0 -13 -8.5 -21.5t-21.5 -8.5t-21.5 8.5t-8.5 21.5q0 12 -9 21t-21 9q-43 0 -73 -63l-50 -100q-7 -14 -7 -27t8.5 -21.5t21.5 -8.5q42 0 71 60h-31q-13 0 -21.5 8.5t-8.5 21.5t8.5 21.5t21.5 8.5h80q7 0 13 -3q11 -6 15 -18t-1 -22l-20 -40
q-21 -38 -36 -55q-40 -42 -91 -42q-38 0 -64 26t-26 64q0 27 13 53l50 100q21 38 36 55q40 42 91 42z" />
    <glyph glyph-name="H" unicode="H" 
d="M303 337q11 -6 15 -18t-1 -22l-140 -280q-8 -17 -27 -17q-7 0 -13 3q-11 6 -15 18t1 22l48 97h-93l-61 -123q-8 -17 -27 -17q-7 0 -13 3q-11 6 -15 18t1 22l140 280q6 11 18 15t22 -1q11 -6 15 -18t-1 -22l-49 -97h93l62 123q6 11 18 15t22 -1z" />
    <glyph glyph-name="I" unicode="I" horiz-adv-x="120" 
d="M-10 0q-7 0 -13 3q-11 6 -15 18t1 22l140 280q6 11 18 15t22 -1q11 -6 15 -18t-1 -22l-140 -280q-8 -17 -27 -17z" />
    <glyph glyph-name="J" unicode="J" 
d="M303 337q11 -6 15 -18t-1 -22l-100 -200q-21 -38 -36 -55q-40 -42 -91 -42q-38 0 -64 26t-26 64q0 27 13 53q6 11 18 15t22 -1q11 -6 15 -18t-1 -22q-7 -14 -7 -27t8.5 -21.5t21.5 -8.5q43 0 73 63l100 200q6 11 18 15t22 -1z" />
    <glyph glyph-name="K" unicode="K" 
d="M314 328q7 -10 5.5 -22t-11.5 -20l-164 -126l35 -122q3 -12 -3 -22.5t-18 -14.5q-3 -1 -8 -1q-22 0 -29 22l-28 99l-39 -31l-37 -73q-8 -17 -27 -17q-7 0 -13 3q-11 6 -15 18t1 22l140 280q6 11 18 15t22 -1q11 -6 15 -18t-1 -22l-42 -84l157 121q10 7 22 5.5t20 -11.5z
" />
    <glyph glyph-name="L" unicode="L" horiz-adv-x="260" 
d="M150 60q13 0 21.5 -8.5t8.5 -21.5t-8.5 -21.5t-21.5 -8.5h-160q-7 0 -13 3q-11 6 -15 18t1 22l140 280q6 11 18 15t22 -1q11 -6 15 -18t-1 -22l-119 -237h112z" />
    <glyph glyph-name="M" unicode="M" horiz-adv-x="320" 
d="M343 337q11 -6 15 -18t-1 -22l-140 -280q-8 -17 -27 -17q-7 0 -13 3q-11 6 -15 18t1 22l57 115l-69 -69q-7 -9 -21 -9q-13 0 -21.5 8.5t-8.5 21.5v73l-83 -166q-8 -17 -27 -17q-7 0 -13 3q-11 6 -15 18t1 22l140 280q6 11 18 15t22 -1q17 -8 17 -27v-128l149 149
q16 16 34 6z" />
    <glyph glyph-name="N" unicode="N" 
d="M303 337q11 -6 15 -18t-1 -22l-140 -280q-8 -17 -27 -17q-7 0 -13 3q-15 8 -17 25l-12 171l-91 -182q-8 -17 -27 -17q-7 0 -13 3q-11 6 -15 18t1 22l140 280q6 11 18 15t22 -1q15 -8 17 -25l12 -171l91 182q6 11 18 15t22 -1z" />
    <glyph glyph-name="O" unicode="O" 
d="M280 250q0 -27 -13 -53l-50 -100q-21 -38 -36 -55q-40 -42 -91 -42q-38 0 -64 26t-26 64q0 27 13 53l50 100q21 38 36 55q40 42 91 42q38 0 64 -26t26 -64zM90 60q43 0 73 63l50 100q7 14 7 27q0 12 -9 21t-21 9q-43 0 -73 -63l-50 -100q-7 -14 -7 -27t8.5 -21.5
t21.5 -8.5z" />
    <glyph glyph-name="P" unicode="P" 
d="M190 340q38 0 64 -26t26 -64q0 -54 -38 -92t-92 -38h-82l-51 -103q-8 -17 -27 -17q-7 0 -13 3q-11 6 -15 18t1 22l140 280q8 15 27 17h60zM150 180q29 0 49.5 20.5t20.5 49.5q0 12 -9 21t-21 9h-42l-50 -100h52z" />
    <glyph glyph-name="Q" unicode="Q" 
d="M280 250q0 -27 -13 -53l-50 -100q-21 -38 -36 -55l-1 -1l18 -22q8 -10 7 -22t-11 -20q-7 -7 -19 -7q-14 0 -23 11l-22 26q-18 -7 -40 -7q-38 0 -64 26t-26 64q0 27 13 53l50 100q21 38 36 55q40 42 91 42q38 0 64 -26t26 -64zM123 109l18 -21q9 11 22 35l50 100
q7 14 7 27q0 12 -9 21t-21 9q-43 0 -73 -63l-50 -100q-7 -14 -7 -27q0 -11 7.5 -20t18.5 -10l-9 11q-8 9 -7 21.5t11 20.5q9 8 21.5 7t20.5 -11z" />
    <glyph glyph-name="R" unicode="R" 
d="M280 250q0 -50 -33 -87t-82 -42l15 -86q2 -12 -5.5 -22.5t-19.5 -12.5h-5q-25 0 -30 25l-15 95h-37l-51 -103q-8 -17 -27 -17q-7 0 -13 3q-11 6 -15 18t1 22l140 280q8 15 27 17h60q38 0 64 -26t26 -64zM150 180q29 0 49.5 20.5t20.5 49.5q0 12 -9 21t-21 9h-42l-50 -100
h32h20z" />
    <glyph glyph-name="S" unicode="S" horiz-adv-x="260" 
d="M170 340q38 0 64 -26t26 -64q0 -13 -8.5 -21.5t-21.5 -8.5t-21.5 8.5t-8.5 21.5q0 12 -9 21t-21 9q-13 0 -21.5 -9t-8.5 -21q0 -20 24 -52q36 -47 36 -88q0 -46 -32 -78t-78 -32q-38 0 -64 26t-26 64q0 27 13 53q6 11 18 15t22 -1q11 -6 15 -18t-1 -22q-7 -14 -7 -27
t8.5 -21.5t21.5 -8.5q21 0 35.5 14.5t14.5 35.5q0 20 -24 52q-36 47 -36 88q0 38 26 64t64 26z" />
    <glyph glyph-name="T" unicode="T" horiz-adv-x="240" 
d="M270 340q13 0 21.5 -8.5t8.5 -21.5t-8.5 -21.5t-21.5 -8.5h-62l-131 -263q-8 -17 -27 -17q-7 0 -13 3q-11 6 -15 18t1 22l118 237h-31q-13 0 -21.5 8.5t-8.5 21.5t8.5 21.5t21.5 8.5h160z" />
    <glyph glyph-name="U" unicode="U" 
d="M303 337q11 -6 15 -18t-1 -22l-100 -200q-21 -38 -36 -55q-40 -42 -91 -42q-38 0 -64 26t-26 64q0 27 13 53l90 180q6 11 18 15t22 -1q11 -6 15 -18t-1 -22l-90 -180q-7 -14 -7 -27t8.5 -21.5t21.5 -8.5q43 0 73 63l100 200q6 11 18 15t22 -1z" />
    <glyph glyph-name="V" unicode="V" 
d="M314 291q-217 -276 -221 -280q-9 -11 -23 -11q-4 0 -6 1q-13 2 -19.5 12.5t-3.5 22.5l60 280q2 12 12.5 19t22.5 4q12 -2 19 -12.5t4 -22.5l-33 -154l140 178q8 10 20 12t22 -6t12 -20.5t-6 -22.5z" />
    <glyph glyph-name="W" unicode="W" horiz-adv-x="440" 
d="M468 334q10 -8 12 -20.5t-6 -22.5l-220 -280q-9 -11 -24 -11q-10 0 -19 6q-15 13 -10 31l32 152q-136 -174 -140 -178q-9 -11 -23 -11q-4 0 -6 1q-13 2 -19.5 12.5t-3.5 22.5l60 280q2 12 12.5 19t22.5 4q12 -2 19 -12.5t4 -22.5l-33 -154l140 178q8 10 20 12t22 -6
q16 -13 11 -31l-33 -153l140 178q8 10 20 12t22 -6z" />
    <glyph glyph-name="X" unicode="X" 
d="M313 330q8 -9 8 -21.5t-10 -20.5l-139 -130l9 -126q1 -12 -7 -21.5t-21 -10.5h-2q-12 0 -20.5 8t-9.5 20l-5 77l-105 -97q-8 -8 -20 -8q-13 0 -22 9q-8 10 -8 22.5t9 20.5l140 130l-9 126q-1 12 7 21.5t21 10.5q12 1 21.5 -7t10.5 -21l5 -77l104 97q10 8 22.5 8t20.5 -10
z" />
    <glyph glyph-name="Y" unicode="Y" 
d="M312 330q8 -9 8 -21.5t-10 -20.5l-146 -136l-67 -135q-8 -17 -27 -17q-7 0 -13 3q-11 6 -15 18t1 22l66 133l-9 132q-1 12 7 21.5t21 10.5q12 1 21.5 -7t10.5 -21l5 -77l104 97q10 8 22.5 8t20.5 -10z" />
    <glyph glyph-name="Z" unicode="Z" 
d="M320 310q0 -12 -10 -22l-244 -228h84q13 0 21.5 -8.5t8.5 -21.5t-8.5 -21.5t-21.5 -8.5h-160q-13 0 -21.5 8.5t-8.5 21.5q0 11 9 22l245 228h-84q-13 0 -21.5 8.5t-8.5 21.5t8.5 21.5t21.5 8.5h160q13 0 21.5 -8.5t8.5 -21.5z" />
    <glyph glyph-name="bracketleft" unicode="[" horiz-adv-x="120" 
d="M250 420q13 0 21.5 -8.5t8.5 -21.5t-8.5 -21.5t-21.5 -8.5h-62l-190 -380h32q13 0 21.5 -8.5t8.5 -21.5t-8.5 -21.5t-21.5 -8.5h-80q-7 0 -13 3q-11 6 -15 18t1 22l220 440q8 15 27 17h80z" />
    <glyph glyph-name="backslash" unicode="\" horiz-adv-x="240" 
d="M150 0q-24 0 -29 24l-60 280q-3 12 3.5 22.5t19.5 12.5q12 3 22.5 -4t12.5 -19l60 -280q3 -12 -4 -22.5t-19 -12.5q-2 -1 -6 -1z" />
    <glyph glyph-name="bracketright" unicode="]" horiz-adv-x="120" 
d="M-130 -80q-13 0 -21.5 8.5t-8.5 21.5t8.5 21.5t21.5 8.5h61l190 380h-31q-13 0 -21.5 8.5t-8.5 21.5t8.5 21.5t21.5 8.5h80q7 0 13 -3q11 -6 15 -18t-1 -22l-220 -440q-8 -16 -27 -17h-1h-79z" />
    <glyph glyph-name="asciicircum" unicode="^" horiz-adv-x="240" 
d="M240 237q3 -12 -3.5 -22.5t-18.5 -13.5q-2 -1 -7 -1q-24 0 -29 23l-9 34l-63 -50q-8 -7 -19 -7q-15 0 -23 11q-8 10 -7 22t11 20l100 80q10 8 22 7t20 -11q4 -6 6 -12z" />
    <glyph glyph-name="underscore" unicode="_" 
d="M150 0h-160q-13 0 -21.5 8.5t-8.5 21.5t8.5 21.5t21.5 8.5h160q13 0 21.5 -8.5t8.5 -21.5t-8.5 -21.5t-21.5 -8.5z" />
    <glyph glyph-name="grave" unicode="`" horiz-adv-x="120" 
d="M130 280q-19 0 -27 17l-40 80q-5 10 -1 22t15 18q10 5 22 1t18 -15l40 -80q5 -10 1 -22t-15 -18q-6 -3 -13 -3z" />
    <glyph glyph-name="a" unicode="a" 
d="M228 334q16 -13 11 -31l-60 -279q-5 -24 -29 -24q-4 0 -6 1q-13 2 -19.5 12.5t-3.5 22.5l9 44h-63l-53 -69q-9 -11 -24 -11q-10 0 -19 6q-10 8 -11.5 20t6.5 22l220 280q8 10 20 12t22 -6zM115 140h28l10 49z" />
    <glyph glyph-name="b" unicode="b" 
d="M260 270q0 -63 -53 -94q13 -21 13 -46q0 -54 -38 -92t-92 -38h-100q-7 0 -13 3q-11 6 -15 18t1 22l140 280q8 16 27 17h60h1q29 -1 48.5 -20.5t20.5 -48.5v-1zM150 220q21 0 35.5 14.5t14.5 35.5q0 10 -10 10h-42l-30 -60h32zM90 60q29 0 49.5 20.5t20.5 49.5q0 12 -9 21
t-21 9h-42l-50 -100h52z" />
    <glyph glyph-name="c" unicode="c" 
d="M190 340q38 0 64 -26t26 -64q0 -27 -13 -53q-8 -17 -27 -17q-7 0 -13 3q-11 6 -15 18t1 22q7 14 7 27q0 12 -9 21t-21 9q-43 0 -73 -63l-50 -100q-7 -14 -7 -27t8.5 -21.5t21.5 -8.5q43 0 73 63q6 11 18 15t22 -1q11 -6 15 -18t-1 -22q-21 -38 -36 -55q-40 -42 -91 -42
q-38 0 -64 26t-26 64q0 27 13 53l50 100q21 38 36 55q40 42 91 42z" />
    <glyph glyph-name="d" unicode="d" 
d="M280 250q0 -27 -13 -53l-50 -100q-21 -38 -36 -55q-40 -42 -91 -42h-100q-7 0 -13 3q-11 6 -15 18t1 22l140 280q8 17 27 17h60q38 0 64 -26t26 -64zM90 60q43 0 73 63l50 100q7 12 7 27q0 12 -9 21t-21 9h-42l-110 -220h52z" />
    <glyph glyph-name="e" unicode="e" 
d="M290 340q13 0 21.5 -8.5t8.5 -21.5t-8.5 -21.5t-21.5 -8.5h-142l-40 -80h72q13 0 21.5 -8.5t8.5 -21.5t-8.5 -21.5t-21.5 -8.5h-102l-40 -80h112q13 0 21.5 -8.5t8.5 -21.5t-8.5 -21.5t-21.5 -8.5h-160q-7 0 -13 3q-11 6 -15 18t1 22l140 280q8 17 27 17h160z" />
    <glyph glyph-name="f" unicode="f" 
d="M290 340q13 0 21.5 -8.5t8.5 -21.5t-8.5 -21.5t-21.5 -8.5h-142l-40 -80h72q13 0 21.5 -8.5t8.5 -21.5t-8.5 -21.5t-21.5 -8.5h-102l-61 -123q-8 -17 -27 -17q-7 0 -13 3q-11 6 -15 18t1 22l140 280q8 15 27 17h160z" />
    <glyph glyph-name="g" unicode="g" 
d="M190 340q38 0 64 -26t26 -64q0 -13 -8.5 -21.5t-21.5 -8.5t-21.5 8.5t-8.5 21.5q0 12 -9 21t-21 9q-43 0 -73 -63l-50 -100q-7 -14 -7 -27t8.5 -21.5t21.5 -8.5q42 0 71 60h-31q-13 0 -21.5 8.5t-8.5 21.5t8.5 21.5t21.5 8.5h80q7 0 13 -3q11 -6 15 -18t-1 -22l-20 -40
q-21 -38 -36 -55q-40 -42 -91 -42q-38 0 -64 26t-26 64q0 27 13 53l50 100q21 38 36 55q40 42 91 42z" />
    <glyph glyph-name="h" unicode="h" 
d="M303 337q11 -6 15 -18t-1 -22l-140 -280q-8 -17 -27 -17q-7 0 -13 3q-11 6 -15 18t1 22l48 97h-93l-61 -123q-8 -17 -27 -17q-7 0 -13 3q-11 6 -15 18t1 22l140 280q6 11 18 15t22 -1q11 -6 15 -18t-1 -22l-49 -97h93l62 123q6 11 18 15t22 -1z" />
    <glyph glyph-name="i" unicode="i" horiz-adv-x="120" 
d="M-10 0q-7 0 -13 3q-11 6 -15 18t1 22l140 280q6 11 18 15t22 -1q11 -6 15 -18t-1 -22l-140 -280q-8 -17 -27 -17z" />
    <glyph glyph-name="j" unicode="j" 
d="M303 337q11 -6 15 -18t-1 -22l-100 -200q-21 -38 -36 -55q-40 -42 -91 -42q-38 0 -64 26t-26 64q0 27 13 53q6 11 18 15t22 -1q11 -6 15 -18t-1 -22q-7 -14 -7 -27t8.5 -21.5t21.5 -8.5q43 0 73 63l100 200q6 11 18 15t22 -1z" />
    <glyph glyph-name="k" unicode="k" 
d="M314 328q7 -10 5.5 -22t-11.5 -20l-164 -126l35 -122q3 -12 -3 -22.5t-18 -14.5q-3 -1 -8 -1q-22 0 -29 22l-28 99l-39 -31l-37 -73q-8 -17 -27 -17q-7 0 -13 3q-11 6 -15 18t1 22l140 280q6 11 18 15t22 -1q11 -6 15 -18t-1 -22l-42 -84l157 121q10 7 22 5.5t20 -11.5z
" />
    <glyph glyph-name="l" unicode="l" horiz-adv-x="260" 
d="M150 60q13 0 21.5 -8.5t8.5 -21.5t-8.5 -21.5t-21.5 -8.5h-160q-7 0 -13 3q-11 6 -15 18t1 22l140 280q6 11 18 15t22 -1q11 -6 15 -18t-1 -22l-119 -237h112z" />
    <glyph glyph-name="m" unicode="m" horiz-adv-x="320" 
d="M343 337q11 -6 15 -18t-1 -22l-140 -280q-8 -17 -27 -17q-7 0 -13 3q-11 6 -15 18t1 22l57 115l-69 -69q-7 -9 -21 -9q-13 0 -21.5 8.5t-8.5 21.5v73l-83 -166q-8 -17 -27 -17q-7 0 -13 3q-11 6 -15 18t1 22l140 280q6 11 18 15t22 -1q17 -8 17 -27v-128l149 149
q16 16 34 6z" />
    <glyph glyph-name="n" unicode="n" 
d="M303 337q11 -6 15 -18t-1 -22l-140 -280q-8 -17 -27 -17q-7 0 -13 3q-15 8 -17 25l-12 171l-91 -182q-8 -17 -27 -17q-7 0 -13 3q-11 6 -15 18t1 22l140 280q6 11 18 15t22 -1q15 -8 17 -25l12 -171l91 182q6 11 18 15t22 -1z" />
    <glyph glyph-name="o" unicode="o" 
d="M280 250q0 -27 -13 -53l-50 -100q-21 -38 -36 -55q-40 -42 -91 -42q-38 0 -64 26t-26 64q0 27 13 53l50 100q21 38 36 55q40 42 91 42q38 0 64 -26t26 -64zM90 60q43 0 73 63l50 100q7 14 7 27q0 12 -9 21t-21 9q-43 0 -73 -63l-50 -100q-7 -14 -7 -27t8.5 -21.5
t21.5 -8.5z" />
    <glyph glyph-name="p" unicode="p" 
d="M190 340q38 0 64 -26t26 -64q0 -54 -38 -92t-92 -38h-82l-51 -103q-8 -17 -27 -17q-7 0 -13 3q-11 6 -15 18t1 22l140 280q8 15 27 17h60zM150 180q29 0 49.5 20.5t20.5 49.5q0 12 -9 21t-21 9h-42l-50 -100h52z" />
    <glyph glyph-name="q" unicode="q" 
d="M280 250q0 -27 -13 -53l-50 -100q-21 -38 -36 -55l-1 -1l18 -22q8 -10 7 -22t-11 -20q-7 -7 -19 -7q-14 0 -23 11l-22 26q-18 -7 -40 -7q-38 0 -64 26t-26 64q0 27 13 53l50 100q21 38 36 55q40 42 91 42q38 0 64 -26t26 -64zM123 109l18 -21q9 11 22 35l50 100
q7 14 7 27q0 12 -9 21t-21 9q-43 0 -73 -63l-50 -100q-7 -14 -7 -27q0 -11 7.5 -20t18.5 -10l-9 11q-8 9 -7 21.5t11 20.5q9 8 21.5 7t20.5 -11z" />
    <glyph glyph-name="r" unicode="r" 
d="M280 250q0 -50 -33 -87t-82 -42l15 -86q2 -12 -5.5 -22.5t-19.5 -12.5h-5q-25 0 -30 25l-15 95h-37l-51 -103q-8 -17 -27 -17q-7 0 -13 3q-11 6 -15 18t1 22l140 280q8 15 27 17h60q38 0 64 -26t26 -64zM150 180q29 0 49.5 20.5t20.5 49.5q0 12 -9 21t-21 9h-42l-50 -100
h32h20z" />
    <glyph glyph-name="s" unicode="s" horiz-adv-x="260" 
d="M170 340q38 0 64 -26t26 -64q0 -13 -8.5 -21.5t-21.5 -8.5t-21.5 8.5t-8.5 21.5q0 12 -9 21t-21 9q-13 0 -21.5 -9t-8.5 -21q0 -20 24 -52q36 -47 36 -88q0 -46 -32 -78t-78 -32q-38 0 -64 26t-26 64q0 27 13 53q6 11 18 15t22 -1q11 -6 15 -18t-1 -22q-7 -14 -7 -27
t8.5 -21.5t21.5 -8.5q21 0 35.5 14.5t14.5 35.5q0 20 -24 52q-36 47 -36 88q0 38 26 64t64 26z" />
    <glyph glyph-name="t" unicode="t" horiz-adv-x="240" 
d="M270 340q13 0 21.5 -8.5t8.5 -21.5t-8.5 -21.5t-21.5 -8.5h-62l-131 -263q-8 -17 -27 -17q-7 0 -13 3q-11 6 -15 18t1 22l118 237h-31q-13 0 -21.5 8.5t-8.5 21.5t8.5 21.5t21.5 8.5h160z" />
    <glyph glyph-name="u" unicode="u" 
d="M303 337q11 -6 15 -18t-1 -22l-100 -200q-21 -38 -36 -55q-40 -42 -91 -42q-38 0 -64 26t-26 64q0 27 13 53l90 180q6 11 18 15t22 -1q11 -6 15 -18t-1 -22l-90 -180q-7 -14 -7 -27t8.5 -21.5t21.5 -8.5q43 0 73 63l100 200q6 11 18 15t22 -1z" />
    <glyph glyph-name="v" unicode="v" 
d="M314 291q-217 -276 -221 -280q-9 -11 -23 -11q-4 0 -6 1q-13 2 -19.5 12.5t-3.5 22.5l60 280q2 12 12.5 19t22.5 4q12 -2 19 -12.5t4 -22.5l-33 -154l140 178q8 10 20 12t22 -6t12 -20.5t-6 -22.5z" />
    <glyph glyph-name="w" unicode="w" horiz-adv-x="440" 
d="M468 334q10 -8 12 -20.5t-6 -22.5l-220 -280q-9 -11 -24 -11q-10 0 -19 6q-15 13 -10 31l32 152q-136 -174 -140 -178q-9 -11 -23 -11q-4 0 -6 1q-13 2 -19.5 12.5t-3.5 22.5l60 280q2 12 12.5 19t22.5 4q12 -2 19 -12.5t4 -22.5l-33 -154l140 178q8 10 20 12t22 -6
q16 -13 11 -31l-33 -153l140 178q8 10 20 12t22 -6z" />
    <glyph glyph-name="x" unicode="x" 
d="M313 330q8 -9 8 -21.5t-10 -20.5l-139 -130l9 -126q1 -12 -7 -21.5t-21 -10.5h-2q-12 0 -20.5 8t-9.5 20l-5 77l-105 -97q-8 -8 -20 -8q-13 0 -22 9q-8 10 -8 22.5t9 20.5l140 130l-9 126q-1 12 7 21.5t21 10.5q12 1 21.5 -7t10.5 -21l5 -77l104 97q10 8 22.5 8t20.5 -10
z" />
    <glyph glyph-name="y" unicode="y" 
d="M312 330q8 -9 8 -21.5t-10 -20.5l-146 -136l-67 -135q-8 -17 -27 -17q-7 0 -13 3q-11 6 -15 18t1 22l66 133l-9 132q-1 12 7 21.5t21 10.5q12 1 21.5 -7t10.5 -21l5 -77l104 97q10 8 22.5 8t20.5 -10z" />
    <glyph glyph-name="z" unicode="z" 
d="M320 310q0 -12 -10 -22l-244 -228h84q13 0 21.5 -8.5t8.5 -21.5t-8.5 -21.5t-21.5 -8.5h-160q-13 0 -21.5 8.5t-8.5 21.5q0 11 9 22l245 228h-84q-13 0 -21.5 8.5t-8.5 21.5t8.5 21.5t21.5 8.5h160q13 0 21.5 -8.5t8.5 -21.5z" />
    <glyph glyph-name="braceleft" unicode="{" horiz-adv-x="160" 
d="M270 420q13 0 21.5 -8.5t8.5 -21.5t-8.5 -21.5t-21.5 -8.5q-43 0 -73 -63l-20 -40q-21 -38 -36 -55q-15 -16 -35 -28q4 -14 4 -23v-1q0 -27 -13 -53l-10 -20l-20 -40q-7 -14 -7 -27t8.5 -21.5t21.5 -8.5t21.5 -8.5t8.5 -21.5t-8.5 -21.5t-21.5 -8.5q-38 0 -64 26t-26 64
q0 27 13 53l20 40l10 20q7 14 7 27q0 10 -10 10q-13 0 -21.5 8.5t-8.5 21.5t8.5 21.5t21.5 8.5h10q43 0 73 63l20 40q21 38 36 55q40 42 91 42z" />
    <glyph glyph-name="bar" unicode="|" horiz-adv-x="120" 
d="M-30 -40q-7 0 -13 3q-11 6 -15 18t1 22l180 360q6 11 18 15t22 -1q11 -6 15 -18t-1 -22l-180 -360q-8 -17 -27 -17z" />
    <glyph glyph-name="braceright" unicode="}" horiz-adv-x="160" 
d="M-110 -80q-13 0 -21.5 8.5t-8.5 21.5t8.5 21.5t21.5 8.5q43 0 73 63l20 40q21 38 36 55q18 18 35 28q-4 14 -4 22v2q0 27 13 53l10 20l20 40q7 14 7 27q0 12 -9 21t-21 9q-13 0 -21.5 8.5t-8.5 21.5t8.5 21.5t21.5 8.5q38 0 64 -26t26 -64q0 -27 -13 -53l-20 -40l-10 -20
q-7 -14 -7 -27q0 -10 10 -10q13 0 21.5 -8.5t8.5 -21.5t-8.5 -21.5t-21.5 -8.5h-10q-43 0 -73 -63l-20 -40q-21 -38 -36 -55q-40 -42 -91 -42z" />
    <glyph glyph-name="asciitilde" unicode="~" horiz-adv-x="320" 
d="M50 120q-7 0 -13 3q-11 6 -15 18t1 22q29 57 87 57q38 0 69 -27q16 -13 31 -13q22 0 33 23q6 11 18 15t22 -1q11 -6 15 -18t-1 -22q-29 -57 -87 -57q-38 0 -69 27q-18 13 -31 13q-22 0 -33 -23q-8 -17 -27 -17z" />
    <glyph glyph-name="Agrave" unicode="&#xc0;" 
d="M228 334q16 -13 11 -31l-60 -279q-5 -24 -29 -24q-4 0 -6 1q-13 2 -19.5 12.5t-3.5 22.5l9 44h-63l-53 -69q-9 -11 -24 -11q-10 0 -19 6q-10 8 -11.5 20t6.5 22l220 280q8 10 20 12t22 -6zM115 140h28l10 49zM260 380q-19 0 -27 17l-20 40q-5 10 -1 22t15 18q10 5 22 1
t18 -15l20 -40q5 -10 1 -22t-15 -18q-6 -3 -13 -3z" />
    <glyph glyph-name="Aacute" unicode="&#xc1;" 
d="M228 334q16 -13 11 -31l-60 -279q-5 -24 -29 -24q-4 0 -6 1q-13 2 -19.5 12.5t-3.5 22.5l9 44h-63l-53 -69q-9 -11 -24 -11q-10 0 -19 6q-10 8 -11.5 20t6.5 22l220 280q8 10 20 12t22 -6zM115 140h28l10 49zM260 380q-15 0 -25 13q-7 11 -4.5 23t12.5 19l60 40
q11 7 23 4.5t19 -12.5q7 -11 4.5 -23t-12.5 -19l-60 -40q-10 -5 -17 -5z" />
    <glyph glyph-name="Acircumflex" unicode="&#xc2;" 
d="M228 334q16 -13 11 -31l-60 -279q-5 -24 -29 -24q-4 0 -6 1q-13 2 -19.5 12.5t-3.5 22.5l9 44h-63l-53 -69q-9 -11 -24 -11q-10 0 -19 6q-10 8 -11.5 20t6.5 22l220 280q8 10 20 12t22 -6zM115 140h28l10 49zM327 423q5 -10 1 -22t-15 -18q-6 -3 -13 -3q-19 0 -27 17
l-5 9l-31 -21q-10 -5 -17 -5q-15 0 -25 13q-7 11 -4.5 23t12.5 19l60 40q11 7 23 4.5t19 -12.5l2 -4z" />
    <glyph glyph-name="Atilde" unicode="&#xc3;" 
d="M228 334q16 -13 11 -31l-60 -279q-5 -24 -29 -24q-4 0 -6 1q-13 2 -19.5 12.5t-3.5 22.5l9 44h-63l-53 -69q-9 -11 -24 -11q-10 0 -19 6q-10 8 -11.5 20t6.5 22l220 280q8 10 20 12t22 -6zM115 140h28l10 49zM353 457q11 -6 15 -18t-1 -22q-19 -37 -67 -37q-19 0 -48 13
q-14 7 -22 7q-9 0 -14 -5q-8 -15 -26 -15q-7 0 -13 3q-11 6 -15 18t1 22q19 37 67 37q19 0 48 -13q14 -7 22 -7q9 0 14 5q6 10 17.5 13.5t21.5 -1.5z" />
    <glyph glyph-name="Adieresis" unicode="&#xc4;" 
d="M228 334q16 -13 11 -31l-60 -279q-5 -24 -29 -24q-4 0 -6 1q-13 2 -19.5 12.5t-3.5 22.5l9 44h-63l-53 -69q-9 -11 -24 -11q-10 0 -19 6q-10 8 -11.5 20t6.5 22l220 280q8 10 20 12t22 -6zM115 140h28l10 49zM250 410q0 -13 -8.5 -21.5t-21.5 -8.5t-21.5 8.5t-8.5 21.5
t8.5 21.5t21.5 8.5t21.5 -8.5t8.5 -21.5zM330 410q0 -13 -8.5 -21.5t-21.5 -8.5t-21.5 8.5t-8.5 21.5t8.5 21.5t21.5 8.5t21.5 -8.5t8.5 -21.5z" />
    <glyph glyph-name="AE" unicode="&#xc6;" horiz-adv-x="440" 
d="M450 340q13 0 21.5 -8.5t8.5 -21.5t-8.5 -21.5t-21.5 -8.5h-142l-40 -80h72q13 0 21.5 -8.5t8.5 -21.5t-8.5 -21.5t-21.5 -8.5h-102l-40 -80h112q13 0 21.5 -8.5t8.5 -21.5t-8.5 -21.5t-21.5 -8.5h-160q-7 0 -13 3q-11 6 -15 18t1 22l18 37h-74l-53 -69q-9 -11 -24 -11
q-10 0 -19 6q-10 8 -11.5 20t6.5 22l220 280v1q9 11 24 11h240zM171 140l70 140h-16l-110 -140h56z" />
    <glyph glyph-name="Ccedilla" unicode="&#xc7;" 
d="M190 340q38 0 64 -26t26 -64q0 -27 -13 -53q-8 -17 -27 -17q-7 0 -13 3q-11 6 -15 18t1 22q7 14 7 27q0 12 -9 21t-21 9q-43 0 -73 -63l-50 -100q-7 -14 -7 -27t8.5 -21.5t21.5 -8.5q43 0 73 63q6 11 18 15t22 -1q11 -6 15 -18t-1 -22q-21 -38 -36 -55q-40 -42 -91 -42
q-8 0 -12 1q2 -8 2 -11q0 -23 -18 -46.5t-37 -23.5q-6 0 -10.5 4.5t-4.5 10.5q0 8 7 13q17 9 7 27q-4 5 -4 15q0 18 17 27q-37 27 -37 73q0 27 13 53l50 100q21 38 36 55q40 42 91 42z" />
    <glyph glyph-name="Egrave" unicode="&#xc8;" 
d="M290 340q13 0 21.5 -8.5t8.5 -21.5t-8.5 -21.5t-21.5 -8.5h-142l-40 -80h72q13 0 21.5 -8.5t8.5 -21.5t-8.5 -21.5t-21.5 -8.5h-102l-40 -80h112q13 0 21.5 -8.5t8.5 -21.5t-8.5 -21.5t-21.5 -8.5h-160q-7 0 -13 3q-11 6 -15 18t1 22l140 280q8 17 27 17h160zM260 380
q-19 0 -27 17l-20 40q-5 10 -1 22t15 18q10 5 22 1t18 -15l20 -40q5 -10 1 -22t-15 -18q-6 -3 -13 -3z" />
    <glyph glyph-name="Eacute" unicode="&#xc9;" 
d="M290 340q13 0 21.5 -8.5t8.5 -21.5t-8.5 -21.5t-21.5 -8.5h-142l-40 -80h72q13 0 21.5 -8.5t8.5 -21.5t-8.5 -21.5t-21.5 -8.5h-102l-40 -80h112q13 0 21.5 -8.5t8.5 -21.5t-8.5 -21.5t-21.5 -8.5h-160q-7 0 -13 3q-11 6 -15 18t1 22l140 280q8 17 27 17h160zM260 380
q-15 0 -25 13q-7 11 -4.5 23t12.5 19l60 40q11 7 23 4.5t19 -12.5q7 -11 4.5 -23t-12.5 -19l-60 -40q-10 -5 -17 -5z" />
    <glyph glyph-name="Ecircumflex" unicode="&#xca;" 
d="M290 340q13 0 21.5 -8.5t8.5 -21.5t-8.5 -21.5t-21.5 -8.5h-142l-40 -80h72q13 0 21.5 -8.5t8.5 -21.5t-8.5 -21.5t-21.5 -8.5h-102l-40 -80h112q13 0 21.5 -8.5t8.5 -21.5t-8.5 -21.5t-21.5 -8.5h-160q-7 0 -13 3q-11 6 -15 18t1 22l140 280q8 17 27 17h160zM327 423
q5 -10 1 -22t-15 -18q-6 -3 -13 -3q-19 0 -27 17l-5 9l-31 -21q-10 -5 -17 -5q-15 0 -25 13q-7 11 -4.5 23t12.5 19l60 40q11 7 23 4.5t19 -12.5l2 -4z" />
    <glyph glyph-name="Edieresis" unicode="&#xcb;" 
d="M290 340q13 0 21.5 -8.5t8.5 -21.5t-8.5 -21.5t-21.5 -8.5h-142l-40 -80h72q13 0 21.5 -8.5t8.5 -21.5t-8.5 -21.5t-21.5 -8.5h-102l-40 -80h112q13 0 21.5 -8.5t8.5 -21.5t-8.5 -21.5t-21.5 -8.5h-160q-7 0 -13 3q-11 6 -15 18t1 22l140 280q8 17 27 17h160zM250 410
q0 -13 -8.5 -21.5t-21.5 -8.5t-21.5 8.5t-8.5 21.5t8.5 21.5t21.5 8.5t21.5 -8.5t8.5 -21.5zM330 410q0 -13 -8.5 -21.5t-21.5 -8.5t-21.5 8.5t-8.5 21.5t8.5 21.5t21.5 8.5t21.5 -8.5t8.5 -21.5z" />
    <glyph glyph-name="Igrave" unicode="&#xcc;" horiz-adv-x="120" 
d="M-10 0q-7 0 -13 3q-11 6 -15 18t1 22l140 280q6 11 18 15t22 -1q11 -6 15 -18t-1 -22l-140 -280q-8 -17 -27 -17zM180 380q-19 0 -27 17l-20 40q-5 10 -1 22t15 18q10 5 22 1t18 -15l20 -40q5 -10 1 -22t-15 -18q-6 -3 -13 -3z" />
    <glyph glyph-name="Iacute" unicode="&#xcd;" horiz-adv-x="120" 
d="M-10 0q-7 0 -13 3q-11 6 -15 18t1 22l140 280q6 11 18 15t22 -1q11 -6 15 -18t-1 -22l-140 -280q-8 -17 -27 -17zM180 380q-15 0 -25 13q-7 11 -4.5 23t12.5 19l60 40q11 7 23 4.5t19 -12.5q7 -11 4.5 -23t-12.5 -19l-60 -40q-10 -5 -17 -5z" />
    <glyph glyph-name="Icircumflex" unicode="&#xce;" horiz-adv-x="120" 
d="M-10 0q19 0 27 17l140 280q5 10 1 22t-15 18q-10 5 -22 1t-18 -15l-140 -280q-5 -10 -1 -22t15 -18q6 -3 13 -3zM247 423q5 -10 1 -22t-15 -18q-6 -3 -13 -3q-19 0 -27 17l-5 9l-31 -21q-10 -5 -17 -5q-15 0 -25 13q-7 11 -4.5 23t12.5 19l60 40q11 7 23 4.5t19 -12.5
l2 -4z" />
    <glyph glyph-name="Idieresis" unicode="&#xcf;" horiz-adv-x="120" 
d="M-10 0q-7 0 -13 3q-11 6 -15 18t1 22l140 280q6 11 18 15t22 -1q11 -6 15 -18t-1 -22l-140 -280q-8 -17 -27 -17zM170 410q0 -13 -8.5 -21.5t-21.5 -8.5t-21.5 8.5t-8.5 21.5t8.5 21.5t21.5 8.5t21.5 -8.5t8.5 -21.5zM250 410q0 -13 -8.5 -21.5t-21.5 -8.5t-21.5 8.5
t-8.5 21.5t8.5 21.5t21.5 8.5t21.5 -8.5t8.5 -21.5z" />
    <glyph glyph-name="Ntilde" unicode="&#xd1;" 
d="M303 337q11 -6 15 -18t-1 -22l-140 -280q-8 -17 -27 -17q-7 0 -13 3q-15 8 -17 25l-12 171l-91 -182q-8 -17 -27 -17q-7 0 -13 3q-11 6 -15 18t1 22l140 280q6 11 18 15t22 -1q15 -8 17 -25l12 -171l91 182q6 11 18 15t22 -1zM353 457q11 -6 15 -18t-1 -22
q-19 -37 -67 -37q-19 0 -48 13q-14 7 -22 7q-9 0 -14 -5q-8 -15 -26 -15q-7 0 -13 3q-11 6 -15 18t1 22q19 37 67 37q19 0 48 -13q14 -7 22 -7q9 0 14 5q6 10 17.5 13.5t21.5 -1.5z" />
    <glyph glyph-name="Ograve" unicode="&#xd2;" 
d="M280 250q0 -27 -13 -53l-50 -100q-21 -38 -36 -55q-40 -42 -91 -42q-38 0 -64 26t-26 64q0 27 13 53l50 100q21 38 36 55q40 42 91 42q38 0 64 -26t26 -64zM90 60q43 0 73 63l50 100q7 14 7 27q0 12 -9 21t-21 9q-43 0 -73 -63l-50 -100q-7 -14 -7 -27t8.5 -21.5
t21.5 -8.5zM260 380q-19 0 -27 17l-20 40q-5 10 -1 22t15 18q10 5 22 1t18 -15l20 -40q5 -10 1 -22t-15 -18q-6 -3 -13 -3z" />
    <glyph glyph-name="Oacute" unicode="&#xd3;" 
d="M280 250q0 -27 -13 -53l-50 -100q-21 -38 -36 -55q-40 -42 -91 -42q-38 0 -64 26t-26 64q0 27 13 53l50 100q21 38 36 55q40 42 91 42q38 0 64 -26t26 -64zM90 60q43 0 73 63l50 100q7 14 7 27q0 12 -9 21t-21 9q-43 0 -73 -63l-50 -100q-7 -14 -7 -27t8.5 -21.5
t21.5 -8.5zM260 380q-15 0 -25 13q-7 11 -4.5 23t12.5 19l60 40q11 7 23 4.5t19 -12.5q7 -11 4.5 -23t-12.5 -19l-60 -40q-10 -5 -17 -5z" />
    <glyph glyph-name="Ocircumflex" unicode="&#xd4;" 
d="M280 250q0 -27 -13 -53l-50 -100q-21 -38 -36 -55q-40 -42 -91 -42q-38 0 -64 26t-26 64q0 27 13 53l50 100q21 38 36 55q40 42 91 42q38 0 64 -26t26 -64zM90 60q43 0 73 63l50 100q7 14 7 27q0 12 -9 21t-21 9q-43 0 -73 -63l-50 -100q-7 -14 -7 -27t8.5 -21.5
t21.5 -8.5zM327 423q5 -10 1 -22t-15 -18q-6 -3 -13 -3q-19 0 -27 17l-5 9l-31 -21q-10 -5 -17 -5q-15 0 -25 13q-7 11 -4.5 23t12.5 19l60 40q11 7 23 4.5t19 -12.5l2 -4z" />
    <glyph glyph-name="Otilde" unicode="&#xd5;" 
d="M280 250q0 -27 -13 -53l-50 -100q-21 -38 -36 -55q-40 -42 -91 -42q-38 0 -64 26t-26 64q0 27 13 53l50 100q21 38 36 55q40 42 91 42q38 0 64 -26t26 -64zM90 60q43 0 73 63l50 100q7 14 7 27q0 12 -9 21t-21 9q-43 0 -73 -63l-50 -100q-7 -14 -7 -27t8.5 -21.5
t21.5 -8.5zM353 457q11 -6 15 -18t-1 -22q-19 -37 -67 -37q-19 0 -48 13q-14 7 -22 7q-9 0 -14 -5q-8 -15 -26 -15q-7 0 -13 3q-11 6 -15 18t1 22q19 37 67 37q19 0 48 -13q14 -7 22 -7q9 0 14 5q6 10 17.5 13.5t21.5 -1.5z" />
    <glyph glyph-name="Odieresis" unicode="&#xd6;" 
d="M280 250q0 -27 -13 -53l-50 -100q-21 -38 -36 -55q-40 -42 -91 -42q-38 0 -64 26t-26 64q0 27 13 53l50 100q21 38 36 55q40 42 91 42q38 0 64 -26t26 -64zM90 60q43 0 73 63l50 100q7 14 7 27q0 12 -9 21t-21 9q-43 0 -73 -63l-50 -100q-7 -14 -7 -27t8.5 -21.5
t21.5 -8.5zM250 410q0 -13 -8.5 -21.5t-21.5 -8.5t-21.5 8.5t-8.5 21.5t8.5 21.5t21.5 8.5t21.5 -8.5t8.5 -21.5zM330 410q0 -13 -8.5 -21.5t-21.5 -8.5t-21.5 8.5t-8.5 21.5t8.5 21.5t21.5 8.5t21.5 -8.5t8.5 -21.5z" />
    <glyph glyph-name="Ugrave" unicode="&#xd9;" 
d="M303 337q11 -6 15 -18t-1 -22l-100 -200q-21 -38 -36 -55q-40 -42 -91 -42q-38 0 -64 26t-26 64q0 27 13 53l90 180q6 11 18 15t22 -1q11 -6 15 -18t-1 -22l-90 -180q-7 -14 -7 -27t8.5 -21.5t21.5 -8.5q43 0 73 63l100 200q6 11 18 15t22 -1zM260 380q-19 0 -27 17
l-20 40q-5 10 -1 22t15 18q10 5 22 1t18 -15l20 -40q5 -10 1 -22t-15 -18q-6 -3 -13 -3z" />
    <glyph glyph-name="Uacute" unicode="&#xda;" 
d="M303 337q11 -6 15 -18t-1 -22l-100 -200q-21 -38 -36 -55q-40 -42 -91 -42q-38 0 -64 26t-26 64q0 27 13 53l90 180q6 11 18 15t22 -1q11 -6 15 -18t-1 -22l-90 -180q-7 -14 -7 -27t8.5 -21.5t21.5 -8.5q43 0 73 63l100 200q6 11 18 15t22 -1zM260 380q-15 0 -25 13
q-7 11 -4.5 23t12.5 19l60 40q11 7 23 4.5t19 -12.5q7 -11 4.5 -23t-12.5 -19l-60 -40q-10 -5 -17 -5z" />
    <glyph glyph-name="Ucircumflex" unicode="&#xdb;" 
d="M303 337q11 -6 15 -18t-1 -22l-100 -200q-21 -38 -36 -55q-40 -42 -91 -42q-38 0 -64 26t-26 64q0 27 13 53l90 180q6 11 18 15t22 -1q11 -6 15 -18t-1 -22l-90 -180q-7 -14 -7 -27t8.5 -21.5t21.5 -8.5q43 0 73 63l100 200q6 11 18 15t22 -1zM327 423q5 -10 1 -22
t-15 -18q-6 -3 -13 -3q-19 0 -27 17l-5 9l-31 -21q-10 -5 -17 -5q-15 0 -25 13q-7 11 -4.5 23t12.5 19l60 40q11 7 23 4.5t19 -12.5l2 -4z" />
    <glyph glyph-name="Udieresis" unicode="&#xdc;" 
d="M303 337q11 -6 15 -18t-1 -22l-100 -200q-21 -38 -36 -55q-40 -42 -91 -42q-38 0 -64 26t-26 64q0 27 13 53l90 180q6 11 18 15t22 -1q11 -6 15 -18t-1 -22l-90 -180q-7 -14 -7 -27t8.5 -21.5t21.5 -8.5q43 0 73 63l100 200q6 11 18 15t22 -1zM250 410q0 -13 -8.5 -21.5
t-21.5 -8.5t-21.5 8.5t-8.5 21.5t8.5 21.5t21.5 8.5t21.5 -8.5t8.5 -21.5zM330 410q0 -13 -8.5 -21.5t-21.5 -8.5t-21.5 8.5t-8.5 21.5t8.5 21.5t21.5 8.5t21.5 -8.5t8.5 -21.5z" />
    <glyph glyph-name="germandbls" unicode="&#xdf;" 
d="M226 188q-7 -7 -9 -11t0 -13q3 -21 3 -34q0 -54 -38 -92t-92 -38q-13 0 -21.5 8.5t-8.5 21.5t8.5 21.5t21.5 8.5q29 0 49.5 20.5t20.5 49.5q0 10 -2 24q-6 26 5 49q5 10 17 24q20 24 20 43q0 10 -10 10q-43 0 -73 -63l-100 -200q-8 -17 -27 -17q-7 0 -13 3q-11 6 -15 18
t1 22l100 200q21 38 36 55q40 42 91 42h1q29 -1 49 -21.5t20 -48.5q0 -40 -34 -82z" />
    <glyph glyph-name="agrave" unicode="&#xe0;" 
d="M228 334q16 -13 11 -31l-60 -279q-5 -24 -29 -24q-4 0 -6 1q-13 2 -19.5 12.5t-3.5 22.5l9 44h-63l-53 -69q-9 -11 -24 -11q-10 0 -19 6q-10 8 -11.5 20t6.5 22l220 280q8 10 20 12t22 -6zM115 140h28l10 49zM260 380q-19 0 -27 17l-20 40q-5 10 -1 22t15 18q10 5 22 1
t18 -15l20 -40q5 -10 1 -22t-15 -18q-6 -3 -13 -3z" />
    <glyph glyph-name="aacute" unicode="&#xe1;" 
d="M228 334q16 -13 11 -31l-60 -279q-5 -24 -29 -24q-4 0 -6 1q-13 2 -19.5 12.5t-3.5 22.5l9 44h-63l-53 -69q-9 -11 -24 -11q-10 0 -19 6q-10 8 -11.5 20t6.5 22l220 280q8 10 20 12t22 -6zM115 140h28l10 49zM260 380q-15 0 -25 13q-7 11 -4.5 23t12.5 19l60 40
q11 7 23 4.5t19 -12.5q7 -11 4.5 -23t-12.5 -19l-60 -40q-10 -5 -17 -5z" />
    <glyph glyph-name="acircumflex" unicode="&#xe2;" 
d="M228 334q16 -13 11 -31l-60 -279q-5 -24 -29 -24q-4 0 -6 1q-13 2 -19.5 12.5t-3.5 22.5l9 44h-63l-53 -69q-9 -11 -24 -11q-10 0 -19 6q-10 8 -11.5 20t6.5 22l220 280q8 10 20 12t22 -6zM115 140h28l10 49zM327 423q5 -10 1 -22t-15 -18q-6 -3 -13 -3q-19 0 -27 17
l-5 9l-31 -21q-10 -5 -17 -5q-15 0 -25 13q-7 11 -4.5 23t12.5 19l60 40q11 7 23 4.5t19 -12.5l2 -4z" />
    <glyph glyph-name="atilde" unicode="&#xe3;" 
d="M228 334q16 -13 11 -31l-60 -279q-5 -24 -29 -24q-4 0 -6 1q-13 2 -19.5 12.5t-3.5 22.5l9 44h-63l-53 -69q-9 -11 -24 -11q-10 0 -19 6q-10 8 -11.5 20t6.5 22l220 280q8 10 20 12t22 -6zM115 140h28l10 49zM353 457q11 -6 15 -18t-1 -22q-19 -37 -67 -37q-19 0 -48 13
q-14 7 -22 7q-9 0 -14 -5q-8 -15 -26 -15q-7 0 -13 3q-11 6 -15 18t1 22q19 37 67 37q19 0 48 -13q14 -7 22 -7q9 0 14 5q6 10 17.5 13.5t21.5 -1.5z" />
    <glyph glyph-name="adieresis" unicode="&#xe4;" 
d="M228 334q16 -13 11 -31l-60 -279q-5 -24 -29 -24q-4 0 -6 1q-13 2 -19.5 12.5t-3.5 22.5l9 44h-63l-53 -69q-9 -11 -24 -11q-10 0 -19 6q-10 8 -11.5 20t6.5 22l220 280q8 10 20 12t22 -6zM115 140h28l10 49zM250 410q0 -13 -8.5 -21.5t-21.5 -8.5t-21.5 8.5t-8.5 21.5
t8.5 21.5t21.5 8.5t21.5 -8.5t8.5 -21.5zM330 410q0 -13 -8.5 -21.5t-21.5 -8.5t-21.5 8.5t-8.5 21.5t8.5 21.5t21.5 8.5t21.5 -8.5t8.5 -21.5z" />
    <glyph glyph-name="ae" unicode="&#xe6;" horiz-adv-x="440" 
d="M450 340q13 0 21.5 -8.5t8.5 -21.5t-8.5 -21.5t-21.5 -8.5h-142l-40 -80h72q13 0 21.5 -8.5t8.5 -21.5t-8.5 -21.5t-21.5 -8.5h-102l-40 -80h112q13 0 21.5 -8.5t8.5 -21.5t-8.5 -21.5t-21.5 -8.5h-160q-7 0 -13 3q-11 6 -15 18t1 22l18 37h-74l-53 -69q-9 -11 -24 -11
q-10 0 -19 6q-10 8 -11.5 20t6.5 22l220 280v1q9 11 24 11h240zM171 140l70 140h-16l-110 -140h56z" />
    <glyph glyph-name="ccedilla" unicode="&#xe7;" 
d="M190 340q38 0 64 -26t26 -64q0 -27 -13 -53q-8 -17 -27 -17q-7 0 -13 3q-11 6 -15 18t1 22q7 14 7 27q0 12 -9 21t-21 9q-43 0 -73 -63l-50 -100q-7 -14 -7 -27t8.5 -21.5t21.5 -8.5q43 0 73 63q6 11 18 15t22 -1q11 -6 15 -18t-1 -22q-21 -38 -36 -55q-40 -42 -91 -42
q-8 0 -12 1q2 -8 2 -11q0 -23 -18 -46.5t-37 -23.5q-6 0 -10.5 4.5t-4.5 10.5q0 8 7 13q17 9 7 27q-4 5 -4 15q0 18 17 27q-37 27 -37 73q0 27 13 53l50 100q21 38 36 55q40 42 91 42z" />
    <glyph glyph-name="egrave" unicode="&#xe8;" 
d="M290 340q13 0 21.5 -8.5t8.5 -21.5t-8.5 -21.5t-21.5 -8.5h-142l-40 -80h72q13 0 21.5 -8.5t8.5 -21.5t-8.5 -21.5t-21.5 -8.5h-102l-40 -80h112q13 0 21.5 -8.5t8.5 -21.5t-8.5 -21.5t-21.5 -8.5h-160q-7 0 -13 3q-11 6 -15 18t1 22l140 280q8 17 27 17h160zM260 380
q-19 0 -27 17l-20 40q-5 10 -1 22t15 18q10 5 22 1t18 -15l20 -40q5 -10 1 -22t-15 -18q-6 -3 -13 -3z" />
    <glyph glyph-name="eacute" unicode="&#xe9;" 
d="M290 340q13 0 21.5 -8.5t8.5 -21.5t-8.5 -21.5t-21.5 -8.5h-142l-40 -80h72q13 0 21.5 -8.5t8.5 -21.5t-8.5 -21.5t-21.5 -8.5h-102l-40 -80h112q13 0 21.5 -8.5t8.5 -21.5t-8.5 -21.5t-21.5 -8.5h-160q-7 0 -13 3q-11 6 -15 18t1 22l140 280q8 17 27 17h160zM260 380
q-15 0 -25 13q-7 11 -4.5 23t12.5 19l60 40q11 7 23 4.5t19 -12.5q7 -11 4.5 -23t-12.5 -19l-60 -40q-10 -5 -17 -5z" />
    <glyph glyph-name="ecircumflex" unicode="&#xea;" 
d="M290 340q13 0 21.5 -8.5t8.5 -21.5t-8.5 -21.5t-21.5 -8.5h-142l-40 -80h72q13 0 21.5 -8.5t8.5 -21.5t-8.5 -21.5t-21.5 -8.5h-102l-40 -80h112q13 0 21.5 -8.5t8.5 -21.5t-8.5 -21.5t-21.5 -8.5h-160q-7 0 -13 3q-11 6 -15 18t1 22l140 280q8 17 27 17h160zM327 423
q5 -10 1 -22t-15 -18q-6 -3 -13 -3q-19 0 -27 17l-5 9l-31 -21q-10 -5 -17 -5q-15 0 -25 13q-7 11 -4.5 23t12.5 19l60 40q11 7 23 4.5t19 -12.5l2 -4z" />
    <glyph glyph-name="edieresis" unicode="&#xeb;" 
d="M290 340q13 0 21.5 -8.5t8.5 -21.5t-8.5 -21.5t-21.5 -8.5h-142l-40 -80h72q13 0 21.5 -8.5t8.5 -21.5t-8.5 -21.5t-21.5 -8.5h-102l-40 -80h112q13 0 21.5 -8.5t8.5 -21.5t-8.5 -21.5t-21.5 -8.5h-160q-7 0 -13 3q-11 6 -15 18t1 22l140 280q8 17 27 17h160zM250 410
q0 -13 -8.5 -21.5t-21.5 -8.5t-21.5 8.5t-8.5 21.5t8.5 21.5t21.5 8.5t21.5 -8.5t8.5 -21.5zM330 410q0 -13 -8.5 -21.5t-21.5 -8.5t-21.5 8.5t-8.5 21.5t8.5 21.5t21.5 8.5t21.5 -8.5t8.5 -21.5z" />
    <glyph glyph-name="igrave" unicode="&#xec;" horiz-adv-x="120" 
d="M-10 0q-7 0 -13 3q-11 6 -15 18t1 22l140 280q6 11 18 15t22 -1q11 -6 15 -18t-1 -22l-140 -280q-8 -17 -27 -17zM180 380q-19 0 -27 17l-20 40q-5 10 -1 22t15 18q10 5 22 1t18 -15l20 -40q5 -10 1 -22t-15 -18q-6 -3 -13 -3z" />
    <glyph glyph-name="iacute" unicode="&#xed;" horiz-adv-x="120" 
d="M-10 0q-7 0 -13 3q-11 6 -15 18t1 22l140 280q6 11 18 15t22 -1q11 -6 15 -18t-1 -22l-140 -280q-8 -17 -27 -17zM180 380q-15 0 -25 13q-7 11 -4.5 23t12.5 19l60 40q11 7 23 4.5t19 -12.5q7 -11 4.5 -23t-12.5 -19l-60 -40q-10 -5 -17 -5z" />
    <glyph glyph-name="icircumflex" unicode="&#xee;" horiz-adv-x="120" 
d="M-10 0q19 0 27 17l140 280q5 10 1 22t-15 18q-10 5 -22 1t-18 -15l-140 -280q-5 -10 -1 -22t15 -18q6 -3 13 -3zM247 423q5 -10 1 -22t-15 -18q-6 -3 -13 -3q-19 0 -27 17l-5 9l-31 -21q-10 -5 -17 -5q-15 0 -25 13q-7 11 -4.5 23t12.5 19l60 40q11 7 23 4.5t19 -12.5
l2 -4z" />
    <glyph glyph-name="idieresis" unicode="&#xef;" horiz-adv-x="120" 
d="M-10 0q-7 0 -13 3q-11 6 -15 18t1 22l140 280q6 11 18 15t22 -1q11 -6 15 -18t-1 -22l-140 -280q-8 -17 -27 -17zM170 410q0 -13 -8.5 -21.5t-21.5 -8.5t-21.5 8.5t-8.5 21.5t8.5 21.5t21.5 8.5t21.5 -8.5t8.5 -21.5zM250 410q0 -13 -8.5 -21.5t-21.5 -8.5t-21.5 8.5
t-8.5 21.5t8.5 21.5t21.5 8.5t21.5 -8.5t8.5 -21.5z" />
    <glyph glyph-name="ntilde" unicode="&#xf1;" 
d="M303 337q11 -6 15 -18t-1 -22l-140 -280q-8 -17 -27 -17q-7 0 -13 3q-15 8 -17 25l-12 171l-91 -182q-8 -17 -27 -17q-7 0 -13 3q-11 6 -15 18t1 22l140 280q6 11 18 15t22 -1q15 -8 17 -25l12 -171l91 182q6 11 18 15t22 -1zM353 457q11 -6 15 -18t-1 -22
q-19 -37 -67 -37q-19 0 -48 13q-14 7 -22 7q-9 0 -14 -5q-8 -15 -26 -15q-7 0 -13 3q-11 6 -15 18t1 22q19 37 67 37q19 0 48 -13q14 -7 22 -7q9 0 14 5q6 10 17.5 13.5t21.5 -1.5z" />
    <glyph glyph-name="ograve" unicode="&#xf2;" 
d="M280 250q0 -27 -13 -53l-50 -100q-21 -38 -36 -55q-40 -42 -91 -42q-38 0 -64 26t-26 64q0 27 13 53l50 100q21 38 36 55q40 42 91 42q38 0 64 -26t26 -64zM90 60q43 0 73 63l50 100q7 14 7 27q0 12 -9 21t-21 9q-43 0 -73 -63l-50 -100q-7 -14 -7 -27t8.5 -21.5
t21.5 -8.5zM260 380q-19 0 -27 17l-20 40q-5 10 -1 22t15 18q10 5 22 1t18 -15l20 -40q5 -10 1 -22t-15 -18q-6 -3 -13 -3z" />
    <glyph glyph-name="oacute" unicode="&#xf3;" 
d="M280 250q0 -27 -13 -53l-50 -100q-21 -38 -36 -55q-40 -42 -91 -42q-38 0 -64 26t-26 64q0 27 13 53l50 100q21 38 36 55q40 42 91 42q38 0 64 -26t26 -64zM90 60q43 0 73 63l50 100q7 14 7 27q0 12 -9 21t-21 9q-43 0 -73 -63l-50 -100q-7 -14 -7 -27t8.5 -21.5
t21.5 -8.5zM260 380q-15 0 -25 13q-7 11 -4.5 23t12.5 19l60 40q11 7 23 4.5t19 -12.5q7 -11 4.5 -23t-12.5 -19l-60 -40q-10 -5 -17 -5z" />
    <glyph glyph-name="ocircumflex" unicode="&#xf4;" 
d="M280 250q0 -27 -13 -53l-50 -100q-21 -38 -36 -55q-40 -42 -91 -42q-38 0 -64 26t-26 64q0 27 13 53l50 100q21 38 36 55q40 42 91 42q38 0 64 -26t26 -64zM90 60q43 0 73 63l50 100q7 14 7 27q0 12 -9 21t-21 9q-43 0 -73 -63l-50 -100q-7 -14 -7 -27t8.5 -21.5
t21.5 -8.5zM327 423q5 -10 1 -22t-15 -18q-6 -3 -13 -3q-19 0 -27 17l-5 9l-31 -21q-10 -5 -17 -5q-15 0 -25 13q-7 11 -4.5 23t12.5 19l60 40q11 7 23 4.5t19 -12.5l2 -4z" />
    <glyph glyph-name="otilde" unicode="&#xf5;" 
d="M280 250q0 -27 -13 -53l-50 -100q-21 -38 -36 -55q-40 -42 -91 -42q-38 0 -64 26t-26 64q0 27 13 53l50 100q21 38 36 55q40 42 91 42q38 0 64 -26t26 -64zM90 60q43 0 73 63l50 100q7 14 7 27q0 12 -9 21t-21 9q-43 0 -73 -63l-50 -100q-7 -14 -7 -27t8.5 -21.5
t21.5 -8.5zM353 457q11 -6 15 -18t-1 -22q-19 -37 -67 -37q-19 0 -48 13q-14 7 -22 7q-9 0 -14 -5q-8 -15 -26 -15q-7 0 -13 3q-11 6 -15 18t1 22q19 37 67 37q19 0 48 -13q14 -7 22 -7q9 0 14 5q6 10 17.5 13.5t21.5 -1.5z" />
    <glyph glyph-name="odieresis" unicode="&#xf6;" 
d="M280 250q0 -27 -13 -53l-50 -100q-21 -38 -36 -55q-40 -42 -91 -42q-38 0 -64 26t-26 64q0 27 13 53l50 100q21 38 36 55q40 42 91 42q38 0 64 -26t26 -64zM90 60q43 0 73 63l50 100q7 14 7 27q0 12 -9 21t-21 9q-43 0 -73 -63l-50 -100q-7 -14 -7 -27t8.5 -21.5
t21.5 -8.5zM250 410q0 -13 -8.5 -21.5t-21.5 -8.5t-21.5 8.5t-8.5 21.5t8.5 21.5t21.5 8.5t21.5 -8.5t8.5 -21.5zM330 410q0 -13 -8.5 -21.5t-21.5 -8.5t-21.5 8.5t-8.5 21.5t8.5 21.5t21.5 8.5t21.5 -8.5t8.5 -21.5z" />
    <glyph glyph-name="ugrave" unicode="&#xf9;" 
d="M303 337q11 -6 15 -18t-1 -22l-100 -200q-21 -38 -36 -55q-40 -42 -91 -42q-38 0 -64 26t-26 64q0 27 13 53l90 180q6 11 18 15t22 -1q11 -6 15 -18t-1 -22l-90 -180q-7 -14 -7 -27t8.5 -21.5t21.5 -8.5q43 0 73 63l100 200q6 11 18 15t22 -1zM260 380q-19 0 -27 17
l-20 40q-5 10 -1 22t15 18q10 5 22 1t18 -15l20 -40q5 -10 1 -22t-15 -18q-6 -3 -13 -3z" />
    <glyph glyph-name="uacute" unicode="&#xfa;" 
d="M303 337q11 -6 15 -18t-1 -22l-100 -200q-21 -38 -36 -55q-40 -42 -91 -42q-38 0 -64 26t-26 64q0 27 13 53l90 180q6 11 18 15t22 -1q11 -6 15 -18t-1 -22l-90 -180q-7 -14 -7 -27t8.5 -21.5t21.5 -8.5q43 0 73 63l100 200q6 11 18 15t22 -1zM260 380q-15 0 -25 13
q-7 11 -4.5 23t12.5 19l60 40q11 7 23 4.5t19 -12.5q7 -11 4.5 -23t-12.5 -19l-60 -40q-10 -5 -17 -5z" />
    <glyph glyph-name="ucircumflex" unicode="&#xfb;" 
d="M303 337q11 -6 15 -18t-1 -22l-100 -200q-21 -38 -36 -55q-40 -42 -91 -42q-38 0 -64 26t-26 64q0 27 13 53l90 180q6 11 18 15t22 -1q11 -6 15 -18t-1 -22l-90 -180q-7 -14 -7 -27t8.5 -21.5t21.5 -8.5q43 0 73 63l100 200q6 11 18 15t22 -1zM327 423q5 -10 1 -22
t-15 -18q-6 -3 -13 -3q-19 0 -27 17l-5 9l-31 -21q-10 -5 -17 -5q-15 0 -25 13q-7 11 -4.5 23t12.5 19l60 40q11 7 23 4.5t19 -12.5l2 -4z" />
    <glyph glyph-name="udieresis" unicode="&#xfc;" 
d="M303 337q11 -6 15 -18t-1 -22l-100 -200q-21 -38 -36 -55q-40 -42 -91 -42q-38 0 -64 26t-26 64q0 27 13 53l90 180q6 11 18 15t22 -1q11 -6 15 -18t-1 -22l-90 -180q-7 -14 -7 -27t8.5 -21.5t21.5 -8.5q43 0 73 63l100 200q6 11 18 15t22 -1zM250 410q0 -13 -8.5 -21.5
t-21.5 -8.5t-21.5 8.5t-8.5 21.5t8.5 21.5t21.5 8.5t21.5 -8.5t8.5 -21.5zM330 410q0 -13 -8.5 -21.5t-21.5 -8.5t-21.5 8.5t-8.5 21.5t8.5 21.5t21.5 8.5t21.5 -8.5t8.5 -21.5z" />
    <glyph glyph-name="bullet" unicode="&#x2022;" horiz-adv-x="120" 
d="M90 170q0 -13 -8.5 -21.5t-21.5 -8.5t-21.5 8.5t-8.5 21.5t8.5 21.5t21.5 8.5t21.5 -8.5t8.5 -21.5z" />
    </font>
</defs>
</svg>
