<?xml version="1.0" standalone="no"?>
<!DOCTYPE svg PUBLIC "-//W3C//DTD SVG 1.1//EN" "http://www.w3.org/Graphics/SVG/1.1/DTD/svg11.dtd" >
<svg>
<metadata>
Created by FontForge 20090622 at Wed May 29 07:40:45 2019
 By deploy user
Copyright (c) Emigre Graphics, 1996. All rights reserved.
</metadata>
<defs>
<font id="MrsEavesOT-Roman" horiz-adv-x="458" >
  <font-face 
    font-family="Mrs Eaves OT"
    font-weight="400"
    font-stretch="normal"
    units-per-em="1000"
    panose-1="0 0 0 0 0 0 0 0 0 0"
    ascent="708"
    descent="-292"
    x-height="333"
    cap-height="600"
    bbox="-109 -270 1368 871"
    underline-thickness="25"
    underline-position="-62"
    unicode-range="U+0020-U+FB04"
  />
<missing-glyph horiz-adv-x="500" 
 />
    <glyph glyph-name="f_f_b" unicode="ffb" horiz-adv-x="1122" 
d="M778 231v-128q14 -37 40.5 -58.5t60.5 -21.5q56 0 85 40t29 104q0 63 -29 103t-85 40q-34 0 -60.5 -21.5t-40.5 -57.5zM429 298h-241v-160q0 -75 14.5 -96t64.5 -21v-21h-229v21q50 0 64.5 21t14.5 96v160h-82v35h82v55q0 94 47.5 140.5t116.5 46.5q65 0 91 -46
q19 -33 1 -54q-8 -10 -25 -10q-16 0 -25 12t-12 27t-15 27t-33 12q-39 0 -57 -35.5t-18 -119.5v-55h241v80q0 187 181 187h168v-309q48 59 122 59q71 0 122 -53.5t51 -129.5t-51 -130t-122 -54q-81 0 -128 67l-44 -67h-21v475q0 67 -15 90.5t-56 23.5q-36 0 -59 -5.5
t-41.5 -22t-27 -49t-8.5 -82.5v-80h101v-35h-101v-160q0 -75 14.5 -96t64.5 -21v-21h-229v21q50 0 64.5 21t14.5 96v160z" />
    <glyph glyph-name="f_f_h" unicode="ffh" horiz-adv-x="1147" 
d="M429 333v80q0 187 181 187h184v-322q59 72 131 72q123 0 123 -149v-63q0 -75 14.5 -96t65.5 -21v-21h-221v21q47 0 59 20t12 97v58q0 107 -76 107q-40 0 -74 -29.5t-34 -70.5v-65q0 -78 11 -97.5t52 -19.5v-21h-213v21q50 0 64.5 21t14.5 96v320q0 67 -15 90.5t-55 23.5
q-88 0 -120.5 -30t-32.5 -129v-80h101v-35h-101v-160q0 -75 14.5 -96t64.5 -21v-21h-229v21q50 0 64.5 21t14.5 96v160h-241v-160q0 -75 14.5 -96t64.5 -21v-21h-229v21q50 0 64.5 21t14.5 96v160h-82v35h82v55q0 94 47.5 140.5t116.5 46.5q65 0 91 -46q19 -33 1 -54
q-8 -10 -25 -10q-16 0 -25 12t-12 27t-15 27t-33 12q-39 0 -57 -35.5t-18 -119.5v-55h241z" />
    <glyph glyph-name="f_f_j" unicode="ffj" horiz-adv-x="911" 
d="M429 333v96q0 95 52.5 141.5t127.5 46.5q59 0 96.5 -31.5t37.5 -65.5q0 -15 -11 -24.5t-25 -9.5q-18 0 -28 15.5t-13.5 33.5t-20.5 33.5t-47 15.5q-46 0 -72 -33.5t-26 -121.5v-96h313v-411q0 -94 -42.5 -141.5t-104.5 -47.5q-52 0 -84.5 26.5t-32.5 55.5q0 13 7.5 21
t21.5 8q17 0 26.5 -12t13 -27t16.5 -27t37 -12q71 0 71 156v259q0 75 -14.5 96t-64.5 21h-163v-160q0 -75 14.5 -96t64.5 -21v-21h-229v21q50 0 64.5 21t14.5 96v160h-241v-160q0 -75 14.5 -96t64.5 -21v-21h-229v21q50 0 64.5 21t14.5 96v160h-82v35h82v55q0 94 47.5 140.5
t116.5 46.5q65 0 91 -46q19 -33 1 -54q-8 -10 -25 -10q-16 0 -25 12t-12 27t-15 27t-33 12q-39 0 -57 -35.5t-18 -119.5v-55h241z" />
    <glyph glyph-name="f_f_r" unicode="ffr" horiz-adv-x="1018" 
d="M429 333v96q0 95 48 141.5t116 46.5q65 0 91 -46q19 -33 1 -54q-8 -10 -25 -10q-16 0 -25 12t-12 26.5t-15 26.5t-33 12q-39 0 -57 -35.5t-18 -119.5v-96h313v-55q15 30 45 51t60 21q38 0 58.5 -20t20.5 -42q0 -47 -40 -47q-14 0 -24.5 11t-10.5 25q0 33 -32 33
q-23 0 -50 -32t-27 -85v-55q0 -75 14.5 -96t64.5 -21v-21h-229v21q50 0 64.5 21t14.5 96v43q0 75 -14.5 96t-64.5 21h-163v-160q0 -75 14.5 -96t64.5 -21v-21h-229v21q50 0 64.5 21t14.5 96v160h-241v-160q0 -75 14.5 -96t64.5 -21v-21h-229v21q50 0 64.5 21t14.5 96v160
h-82v35h82v55q0 94 47.5 140.5t116.5 46.5q65 0 91 -46q19 -33 1 -54q-8 -10 -25 -10q-16 0 -25 12t-12 27t-15 27t-33 12q-39 0 -57 -35.5t-18 -119.5v-55h241z" />
    <glyph glyph-name="f_f_t" unicode="fft" horiz-adv-x="920" 
d="M429 333v96q0 95 48 141.5t116 46.5q46 0 73 -23.5t27 -50.5q0 -36 -33 -36q-16 0 -25 12t-12 26.5t-15 26.5t-33 12q-39 0 -57 -35.5t-18 -119.5v-96h133q55 0 79 32.5t30 88.5h34v-121h87v-35h-87v-200q0 -72 45 -72q29 0 65 34l17 -17q-21 -25 -50.5 -41t-54.5 -16
q-43 0 -68 28t-25 84v200h-205v-160q0 -75 14.5 -96t64.5 -21v-21h-229v21q50 0 64.5 21t14.5 96v160h-241v-160q0 -75 14.5 -96t64.5 -21v-21h-229v21q50 0 64.5 21t14.5 96v160h-82v35h82v55q0 94 47.5 140.5t116.5 46.5q65 0 91 -46q19 -33 1 -54q-8 -10 -25 -10
q-16 0 -25 12t-12 27t-15 27t-33 12q-39 0 -57 -35.5t-18 -119.5v-55h241z" />
    <glyph glyph-name="f_b" unicode="fb" horiz-adv-x="809" 
d="M465 231v-128q14 -37 41 -58.5t61 -21.5q55 0 84 40.5t29 103.5t-29 103t-84 40q-34 0 -61 -21.5t-41 -57.5zM394 458q0 67 -15 90.5t-56 23.5q-72 0 -103.5 -31t-31.5 -128v-80h100v-35h-100v-160q0 -75 14.5 -96t64.5 -21v-21h-229v21q50 0 64.5 21t14.5 96v160h-82v35
h82v80q0 187 181 187h167v-309q48 59 123 59q71 0 122 -53.5t51 -129.5t-51 -130t-122 -54q-82 0 -129 67l-44 -67h-21v475z" />
    <glyph glyph-name="f_h" unicode="fh" horiz-adv-x="834" 
d="M411 458q0 67 -15 90.5t-56 23.5q-88 0 -120 -30t-32 -129v-80h100v-35h-100v-160q0 -75 14.5 -96t64.5 -21v-21h-229v21q50 0 64.5 21t14.5 96v160h-82v35h82v80q0 187 181 187h184v-322q57 72 131 72q123 0 123 -149v-63q0 -75 14.5 -96t64.5 -21v-21h-221v21
q48 0 59.5 19.5t11.5 97.5v58q0 107 -76 107q-39 0 -73 -29.5t-34 -70.5v-65q0 -78 10.5 -97.5t51.5 -19.5v-21h-212v21q50 0 64.5 21t14.5 96v320z" />
    <glyph glyph-name="f_j" unicode="fj" horiz-adv-x="598" 
d="M500 -78q0 -94 -42.5 -141.5t-104.5 -47.5q-52 0 -84 27t-32 55q0 13 7.5 21t21.5 8q17 0 26.5 -12t12.5 -27t16 -27t37 -12q34 0 52.5 34t18.5 122v259q0 75 -14.5 96t-64.5 21h-162v-160q0 -75 14.5 -96t64.5 -21v-21h-229v21q50 0 64.5 21t14.5 96v160h-82v35h82v96
q0 95 52.5 141.5t127.5 46.5q58 0 95.5 -31.5t37.5 -65.5q0 -15 -11 -24.5t-25 -9.5q-18 0 -28 15.5t-13.5 33.5t-20 33.5t-46.5 15.5q-46 0 -72 -33.5t-26 -121.5v-96h312v-411z" />
    <glyph glyph-name="f_r" unicode="fr" horiz-adv-x="706" 
d="M188 333h312v-55q16 30 46 51t60 21q38 0 58 -20t20 -42q0 -47 -40 -47q-14 0 -24.5 11t-10.5 25q0 33 -31 33q-24 0 -51 -32t-27 -85v-55q0 -75 14.5 -96t64.5 -21v-21h-229v21q50 0 64.5 21t14.5 96v43q0 75 -14.5 96t-64.5 21h-162v-160q0 -75 14.5 -96t64.5 -21v-21
h-229v21q50 0 64.5 21t14.5 96v160h-82v35h82v96q0 95 47.5 141.5t116.5 46.5q65 0 91 -46q19 -33 1 -54q-8 -10 -25 -10q-16 0 -25 12t-12 26.5t-15 26.5t-33 12q-39 0 -57 -35.5t-18 -119.5v-96z" />
    <glyph glyph-name="f_t" unicode="ft" horiz-adv-x="608" 
d="M320 333q98 0 109 121h34v-121h87v-35h-87v-200q0 -72 45 -72q31 0 65 34l17 -17q-20 -25 -50 -41t-55 -16q-43 0 -67.5 28t-24.5 84v200h-205v-160q0 -75 14.5 -96t64.5 -21v-21h-229v21q50 0 64.5 21t14.5 96v160h-82v35h82v96q0 95 47.5 141.5t116.5 46.5
q46 0 73 -23.5t27 -50.5q0 -16 -8.5 -26t-24.5 -10t-25 12t-12 26.5t-15 26.5t-33 12q-39 0 -57 -35.5t-18 -119.5v-96h132z" />
    <glyph glyph-name="ff" unicode="ff" horiz-adv-x="625" 
d="M188 298v-160q0 -75 14.5 -96t64.5 -21v-21h-229v21q50 0 64.5 21t14.5 96v160h-82v35h82v55q0 94 47.5 140.5t116.5 46.5q65 0 91 -46q19 -33 1 -54q-8 -10 -25 -10q-16 0 -25 12t-12 27t-15 27t-33 12q-39 0 -57 -35.5t-18 -119.5v-55h241v96q0 95 48 141.5t116 46.5
q65 0 91 -46q19 -33 1 -54q-8 -10 -25 -10q-16 0 -25 12t-12 26.5t-15 26.5t-33 12q-39 0 -57 -35.5t-18 -119.5v-96h101v-35h-101v-160q0 -75 14.5 -96t64.5 -21v-21h-229v21q50 0 64.5 21t14.5 96v160h-241z" />
    <glyph glyph-name="fi" unicode="fi" horiz-adv-x="598" 
d="M35 298v35h82v96q0 95 52.5 141.5t127.5 46.5q58 0 95.5 -31.5t37.5 -65.5q0 -15 -11 -24.5t-25 -9.5q-18 0 -28 15.5t-13.5 33.5t-20 33.5t-46.5 15.5q-46 0 -72 -33.5t-26 -121.5v-96h312v-195q0 -75 14.5 -96t64.5 -21v-21h-229v21q50 0 64.5 21t14.5 96v43
q0 75 -14.5 96t-64.5 21h-162v-160q0 -75 14.5 -96t64.5 -21v-21h-229v21q50 0 64.5 21t14.5 96v160h-82z" />
    <glyph glyph-name="fl" unicode="fl" horiz-adv-x="580" 
d="M340 572q-88 0 -120 -30t-32 -129v-80h100v-35h-100v-160q0 -75 14.5 -96t64.5 -21v-21h-229v21q50 0 64.5 21t14.5 96v160h-82v35h82v80q0 187 181 187h184v-462q0 -75 14.5 -96t64.5 -21v-21h-229v21q50 0 64.5 21t14.5 96v320q0 67 -15 90.5t-56 23.5z" />
    <glyph glyph-name="ffi" unicode="ffi" horiz-adv-x="911" 
d="M117 333v55q0 94 47.5 140.5t116.5 46.5q65 0 91 -46q19 -33 1 -54q-8 -10 -25 -10q-16 0 -25 12t-12 27t-15 27t-33 12q-39 0 -57 -35.5t-18 -119.5v-55h241v96q0 95 52.5 141.5t127.5 46.5q59 0 96.5 -31.5t37.5 -65.5q0 -15 -11 -24.5t-25 -9.5q-18 0 -28 15.5
t-13.5 33.5t-20.5 33.5t-47 15.5q-46 0 -72 -33.5t-26 -121.5v-96h313v-195q0 -75 14.5 -96t64.5 -21v-21h-229v21q50 0 64.5 21t14.5 96v43q0 75 -14.5 96t-64.5 21h-163v-160q0 -75 14.5 -96t64.5 -21v-21h-229v21q50 0 64.5 21t14.5 96v160h-241v-160q0 -75 14.5 -96
t64.5 -21v-21h-229v21q50 0 64.5 21t14.5 96v160h-82v35h82z" />
    <glyph glyph-name="ffl" unicode="ffl" horiz-adv-x="893" 
d="M188 298v-160q0 -75 14.5 -96t64.5 -21v-21h-229v21q50 0 64.5 21t14.5 96v160h-82v35h82v55q0 94 47.5 140.5t116.5 46.5q65 0 91 -46q19 -33 1 -54q-8 -10 -25 -10q-16 0 -25 12t-12 27t-15 27t-33 12q-39 0 -57 -35.5t-18 -119.5v-55h241v80q0 187 181 187h184v-462
q0 -75 14.5 -96t64.5 -21v-21h-229v21q50 0 64.5 21t14.5 96v320q0 67 -15 90.5t-55 23.5q-88 0 -120.5 -30t-32.5 -129v-80h101v-35h-101v-160q0 -75 14.5 -96t64.5 -21v-21h-229v21q50 0 64.5 21t14.5 96v160h-241z" />
    <glyph glyph-name=".notdef" horiz-adv-x="500" 
 />
    <glyph glyph-name=".null" unicode="&#xf001;" horiz-adv-x="0" 
 />
    <glyph glyph-name="nonmarkingreturn" horiz-adv-x="333" 
 />
    <glyph glyph-name="space" unicode=" " horiz-adv-x="233" 
 />
    <glyph glyph-name="exclam" unicode="!" horiz-adv-x="313" 
d="M194 40q0 -20 -14 -34t-34 -14q-19 0 -33 14t-14 34t14 34t33 14q20 0 34 -14t14 -34zM99 568q0 20 14 34.5t33 14.5t33.5 -14.5t14.5 -34.5q0 -21 -6 -64t-14 -132t-11 -212h-34q-3 123 -11 212t-13.5 132t-5.5 64z" />
    <glyph glyph-name="quotedbl" unicode="&#x22;" horiz-adv-x="412" 
d="M75 568q0 20 14 34.5t33 14.5t33.5 -14.5t14.5 -34.5q0 -6 -17.5 -59t-22.5 -116h-17q-5 63 -21.5 116t-16.5 59zM242 568q0 20 13.5 34.5t32.5 14.5q20 0 34.5 -14.5t14.5 -34.5q0 -6 -17.5 -59t-22.5 -116h-17q-5 63 -21.5 116t-16.5 59z" />
    <glyph glyph-name="numbersign" unicode="#" horiz-adv-x="435" 
d="M301 314h78l-9 -52h-78l-20 -123h-40l21 123h-107l-20 -123h-40l21 123h-79l10 52h77l19 111h-77l9 53h77l21 122h40l-21 -122h106l21 122h40l-21 -122h79l-10 -53h-78zM155 314h106l19 111h-106z" />
    <glyph glyph-name="dollar" unicode="$" horiz-adv-x="483" 
d="M252 582q84 -9 119 -53q23 -30 3 -47q-4 -3 -10 -5q-11 -4 -21.5 3.5t-19.5 20t-28 25t-43 16.5v-197l71 -36q44 -24 68.5 -58.5t24.5 -71.5q0 -70 -47.5 -115.5t-116.5 -47.5v-99h-36v101q-92 8 -140 59q-32 34 -14 55q2 2 5 4q14 7 20.5 3.5t19 -15.5t23.5 -25.5
t34 -26t52 -16.5v227l-48 25q-43 22 -71.5 58t-28.5 82q0 55 42.5 94.5t105.5 40.5v100h36v-101zM252 54q45 2 73.5 30t28.5 73q0 57 -102 107v-210zM216 543q-35 -3 -60.5 -24.5t-25.5 -51.5q0 -31 19.5 -54t66.5 -49v179z" />
    <glyph glyph-name="percent" unicode="%" horiz-adv-x="763" 
d="M704 128q0 -59 -44 -101.5t-105 -42.5t-105 42.5t-44 101.5t44 101t105 42t105 -42t44 -101zM591 600l-383 -618l-36 18l383 618zM357 473q0 -58 -44 -100.5t-105 -42.5t-105.5 42t-44.5 101t44 101.5t106 42.5q61 0 105 -42.5t44 -101.5zM638 128q0 48 -21 79t-62 31
t-61.5 -31t-20.5 -79q0 -49 20.5 -79.5t61.5 -30.5t62 30.5t21 79.5zM290 473q0 48 -21 79t-61 31q-41 0 -62 -30.5t-21 -79.5q0 -48 21 -79t62 -31q40 0 61 31t21 79z" />
    <glyph glyph-name="ampersand" unicode="&#x26;" horiz-adv-x="657" 
d="M233 357q35 20 52 31t40 30t33 39.5t10 44.5q0 33 -22.5 54.5t-56.5 21.5q-44 0 -69.5 -28t-25.5 -61q0 -62 39 -132zM385 75q-130 138 -183 212q-67 -58 -67 -137q0 -51 38 -89.5t95 -38.5q72 0 117 53zM409 50q-54 -67 -149 -67q-79 0 -138 45.5t-59 129.5q0 55 30 93
t84 72q-55 86 -55 150q0 61 49 102.5t118 41.5q59 0 101 -32.5t42 -82.5q0 -31 -18.5 -58t-38.5 -41.5t-62.5 -39t-60.5 -37.5q44 -66 163 -196q11 30 14 60q7 55 -9.5 72.5t-78.5 17.5v21h226v-21q-60 0 -78 -17t-26 -73q-7 -53 -23 -87q69 -80 121 -80q30 0 65 35l17 -17
q-43 -58 -101 -58q-64 0 -133 67z" />
    <glyph glyph-name="quotesingle" unicode="'" horiz-adv-x="245" 
d="M75 568q0 20 14 34.5t33 14.5t33.5 -14.5t14.5 -34.5q0 -6 -17.5 -59t-22.5 -116h-17q-5 63 -21.5 116t-16.5 59z" />
    <glyph glyph-name="parenleft" unicode="(" horiz-adv-x="358" 
d="M330 -90l-22 -21q-225 184 -225 406q0 221 224 406l23 -21q-32 -36 -53 -62.5t-54.5 -79t-51.5 -114.5t-18 -129t18 -129t51.5 -114.5t54.5 -79t53 -62.5z" />
    <glyph glyph-name="parenright" unicode=")" horiz-adv-x="358" 
d="M275 295q0 -223 -224 -406l-23 21q33 37 53.5 63t54.5 78.5t52 114.5t18 129t-18 129t-52 114.5t-54.5 78.5t-53.5 63l24 21q223 -184 223 -406z" />
    <glyph glyph-name="asterisk" unicode="*" horiz-adv-x="407" 
d="M194 414q-38 -25 -59.5 -58.5t-26.5 -36.5q-17 -10 -36.5 -4.5t-29.5 22.5t-4.5 35.5t22.5 28.5q6 3 45.5 6t79.5 23q-41 20 -80 23t-45 6q-17 11 -22.5 29t4.5 35t29.5 22.5t36.5 -4.5q5 -3 26.5 -36.5t59.5 -58.5q-2 45 -19.5 80t-17.5 42q0 20 13.5 34.5t32.5 14.5
t34 -14.5t15 -34.5q0 -7 -18 -42.5t-21 -80.5q38 25 59 57.5t28 36.5q17 10 35.5 5.5t29.5 -21.5q10 -17 5 -36t-22 -29q-7 -4 -46.5 -6t-79.5 -22q41 -20 80.5 -22t45.5 -5q17 -11 22 -30t-5 -36q-11 -17 -29.5 -21.5t-35.5 5.5q-6 3 -28 36t-60 58q3 -45 21.5 -80.5
t18.5 -42.5q0 -20 -15 -34.5t-34 -14.5t-32.5 14.5t-13.5 34.5q0 7 17.5 42t19.5 80z" />
    <glyph glyph-name="plus" unicode="+" 
d="M251 243h157v-44h-157v-157h-44v157h-157v44h157v157h44v-157z" />
    <glyph glyph-name="comma" unicode="," horiz-adv-x="313" 
d="M154 -2q-2 -1 -8 -1q-19 0 -33 14.5t-14 34.5t14 34t33 14q22 0 38 -16t16 -47q0 -37 -24.5 -80.5t-67.5 -70.5l-11 12q49 51 57 106z" />
    <glyph glyph-name="hyphen" unicode="-" 
d="M375 183h-292v44h292v-44z" />
    <glyph glyph-name="period" unicode="." horiz-adv-x="313" 
d="M211 44q0 -21 -17 -36.5t-40 -15.5t-39 15.5t-16 36.5q0 22 16 37.5t39 15.5t40 -15.5t17 -37.5z" />
    <glyph glyph-name="slash" unicode="/" horiz-adv-x="348" 
d="M338 604l-288 -622l-40 14l288 622z" />
    <glyph glyph-name="zero" unicode="0" horiz-adv-x="592" 
d="M296 450q96 0 164.5 -68.5t68.5 -164.5q0 -97 -68.5 -165.5t-164.5 -68.5t-164.5 68.5t-68.5 165.5q0 96 68.5 164.5t164.5 68.5zM296 393q-70 0 -119.5 -52t-49.5 -124q0 -73 49.5 -124.5t119.5 -51.5q69 0 119 51.5t50 124.5q0 72 -50 124t-119 52z" />
    <glyph glyph-name="one" unicode="1" horiz-adv-x="363" 
d="M313 0h-263v21q62 0 79 21t17 96v158q0 75 -17 96t-79 21v20h263v-20q-63 0 -79.5 -20.5t-16.5 -96.5v-158q0 -76 16.5 -96.5t79.5 -20.5v-21z" />
    <glyph glyph-name="two" unicode="2" horiz-adv-x="520" 
d="M338 176l-154 -118h259l-25 -137h-21q0 50 -21 64.5t-96 14.5h-206v24l177 139q96 76 96 152q0 43 -29.5 68t-78.5 25q-57 0 -88 -44t2 -106l-30 -31q-58 35 -62.5 88.5t45.5 94t133 40.5q77 0 134 -37t57 -97q0 -22 -9.5 -45t-23 -39t-27 -29.5t-22.5 -20.5z" />
    <glyph glyph-name="three" unicode="3" horiz-adv-x="508" 
d="M258 115q-7 -6 -17.5 -18.5t-19.5 -20t-18 -7.5q-8 0 -14.5 6.5t-6.5 16.5q0 18 26 37l74 59q29 22 47.5 56.5t18.5 71.5q0 42 -30 67t-79 25q-52 0 -87 -44t1 -106l-30 -31q-58 35 -62.5 88.5t45.5 94t133 40.5q77 0 134 -37t57 -97q0 -22 -9.5 -45t-23 -39t-27 -29.5
t-22.5 -20.5l-10 -6l-46 -35q72 -15 114 -59t42 -102q0 -69 -57.5 -118t-141.5 -49q-81 0 -133 39t-52 74q0 23 26 23q10 0 17.5 -9t17 -25t18.5 -25q37 -39 98 -39q59 0 88.5 35.5t29.5 93.5q0 48 -24.5 86t-76.5 49z" />
    <glyph glyph-name="four" unicode="4" horiz-adv-x="540" 
d="M333 492v-414h11q64 0 84.5 16t31.5 60l5 20h21l-8 -132h-145v-75q0 -75 17 -95.5t79 -20.5v-21h-262v21q62 0 79 20.5t17 95.5v75h-227v19l279 431h18zM263 78v267l-173 -267h173z" />
    <glyph glyph-name="five" unicode="5" horiz-adv-x="493" 
d="M125 186q16 20 48 32t64 12q84 0 138.5 -60t54.5 -148q0 -86 -59.5 -147.5t-142.5 -61.5q-72 0 -117.5 37t-45.5 72q0 27 28 27q13 0 23 -15.5t18 -33.5t32.5 -33.5t61.5 -15.5q59 0 89 47.5t30 123.5t-29.5 121t-89.5 45q-97 0 -112 -98h-37l31 343h169q65 0 85 15.5
t31 60.5h23l-25 -146h-253z" />
    <glyph glyph-name="six" unicode="6" horiz-adv-x="525" 
d="M145 244q2 -69 15.5 -116.5t33.5 -68t37 -28.5t34 -8q61 0 90 43t29 106q0 61 -29 103.5t-90 42.5q-44 0 -77.5 -21t-42.5 -53zM146 299q43 59 119 59q83 0 142.5 -55t59.5 -132t-59.5 -132.5t-142.5 -55.5q-25 0 -50 6.5t-53.5 26t-49.5 50t-35 82t-14 118.5
q0 89 24.5 167.5t78 132.5t127.5 54q59 0 103 -25t44 -51q0 -12 -9 -19t-18 -7q-12 0 -26.5 17.5t-38 35t-55.5 17.5q-135 0 -147 -289z" />
    <glyph glyph-name="seven" unicode="7" horiz-adv-x="471" 
d="M418 442v-28l-220 -552q-11 -29 -22.5 -41t-31.5 -6q-14 4 -20.5 18t4.5 42l238 496h-163q-65 0 -85 -15.5t-31 -60.5l-5 -20h-21l42 246h20q0 -50 21 -64.5t96 -14.5h178z" />
    <glyph glyph-name="eight" unicode="8" horiz-adv-x="528" 
d="M273 358q37 20 57.5 55t20.5 76q0 34 -21.5 61.5t-65.5 27.5t-65 -27t-21 -62q0 -45 24 -75t71 -56zM241 310q-98 -56 -98 -160q0 -51 31.5 -89.5t89.5 -38.5t89.5 37.5t31.5 82.5q0 55 -36.5 91.5t-107.5 76.5zM304 342q41 -21 60.5 -32.5t48 -34.5t41 -51.5t12.5 -65.5
q0 -74 -59 -124.5t-143 -50.5q-83 0 -142 48.5t-59 118.5t39.5 109.5t106.5 68.5q-54 33 -83 66t-29 79q0 61 49 102.5t118 41.5t118.5 -40t49.5 -96q0 -48 -34 -79.5t-94 -59.5z" />
    <glyph glyph-name="nine" unicode="9" horiz-adv-x="525" 
d="M463 168q0 -89 -24.5 -168t-78.5 -133t-127 -54q-59 0 -103.5 25t-44.5 51q0 12 9 19.5t19 7.5t21 -11t21.5 -24t31 -24t45.5 -11q135 0 147 288q-44 -59 -119 -59q-83 0 -142.5 55t-59.5 133q0 77 59.5 132t142.5 55q25 0 50.5 -6.5t53.5 -26t49.5 -49.5t35.5 -82
t14 -118zM380 189q-2 69 -15.5 116.5t-33.5 68t-37 28.5t-34 8q-61 0 -90 -43t-29 -105t29 -104.5t90 -42.5q43 0 77 21.5t43 52.5z" />
    <glyph glyph-name="colon" unicode=":" horiz-adv-x="335" 
d="M215 40q0 -20 -14.5 -34t-33.5 -14t-33 14t-14 34t14 34t33 14t33.5 -14t14.5 -34zM215 230q0 -20 -14.5 -34t-33.5 -14t-33 14t-14 34t14 34t33 14t33.5 -14t14.5 -34z" />
    <glyph glyph-name="semicolon" unicode=";" horiz-adv-x="335" 
d="M215 230q0 -20 -14.5 -34t-33.5 -14t-33 14t-14 34t14 34t33 14t33.5 -14t14.5 -34zM175 -8h-8q-19 0 -33 14t-14 34t14 34t33 14q22 0 38 -16t16 -47q0 -37 -24.5 -80.5t-67.5 -70.5l-11 12q49 51 57 106z" />
    <glyph glyph-name="less" unicode="&#x3c;" horiz-adv-x="483" 
d="M422 28l-18 -23l-329 218l329 217l18 -22l-231 -195z" />
    <glyph glyph-name="equal" unicode="=" 
d="M375 258h-292v45h292v-45zM375 133h-292v45h292v-45z" />
    <glyph glyph-name="greater" unicode="&#x3e;" horiz-adv-x="483" 
d="M62 28l231 195l-231 195l17 22l329 -217l-329 -218z" />
    <glyph glyph-name="question" unicode="?" horiz-adv-x="504" 
d="M273 40q0 -20 -14.5 -34t-33.5 -14t-33 14t-14 34t14 34t33 14t33.5 -14t14.5 -34zM388 459q0 58 -45.5 92t-109.5 34q-53 0 -85 -21t-32 -46q0 -26 43 -26q16 0 28 -11.5t12 -27.5q0 -22 -16.5 -33.5t-34.5 -11.5q-28 0 -51.5 26t-23.5 67q0 47 48 81.5t120 34.5
q86 0 149.5 -46.5t63.5 -122.5q0 -49 -21.5 -87.5t-52 -57.5t-60.5 -31t-52 -15l-21 -3v-94h-44v164q74 0 129.5 33t55.5 102z" />
    <glyph glyph-name="at" unicode="@" horiz-adv-x="708" 
d="M426 116l31 177q-23 25 -62 25q-42 0 -73.5 -44t-42.5 -107q-10 -64 3.5 -104t54.5 -40q29 0 55.5 27t33.5 66zM508 23q41 0 85 64.5t45 143.5q0 104 -68 165t-164 61q-125 0 -213 -92.5t-88 -216.5q0 -125 74 -200t191 -75q108 0 212 64l11 -18q-112 -80 -231 -80
q-135 0 -229 88t-94 218q0 145 103.5 248t248.5 103q120 0 199.5 -73t79.5 -190q0 -95 -60 -170.5t-126 -75.5q-27 0 -44.5 15t-21.5 36q-16 -22 -46 -38.5t-53 -16.5q-61 0 -89 53t-15 131q13 76 67.5 129.5t117.5 53.5q34 0 64 -17h56l-44 -250q-11 -60 32 -60z" />
    <glyph glyph-name="A" unicode="A" horiz-adv-x="617" 
d="M166 208l-48 -111q-19 -41 -1.5 -58.5t79.5 -17.5v-21h-234v21q32 0 49.5 2.5t31 16t19 24.5t20.5 44l220 509h13l221 -509q15 -33 20.5 -44t19 -24.5t30.5 -16t49 -2.5v-21h-277v21q62 0 79 17.5t-1 58.5l-48 111h-242zM391 245l-105 241l-104 -241h209z" />
    <glyph glyph-name="B" unicode="B" horiz-adv-x="608" 
d="M334 37q62 0 95 37t33 94q0 58 -33 95.5t-95 37.5h-121v-148q0 -75 16.5 -95.5t78.5 -20.5h26zM213 563v-225h89q54 0 82 31.5t28 80.5t-28 81t-82 32h-89zM422 326q58 -18 93 -61t35 -97q0 -73 -57 -120.5t-158 -47.5h-297v21q62 0 78.5 21t16.5 96v325q0 75 -16.5 95.5
t-78.5 20.5v21h269q92 0 142.5 -42.5t50.5 -107.5q0 -78 -78 -124z" />
    <glyph glyph-name="C" unicode="C" horiz-adv-x="692" 
d="M618 11h-20q-8 39 -34 57q-82 -85 -186 -85q-127 0 -217 93t-90 224t90 224t217 93q106 0 186 -85q27 21 34 57h20v-220h-20q-21 99 -77.5 154t-138.5 55q-57 0 -101 -25.5t-68.5 -67.5t-36.5 -89t-12 -96t12 -96t36.5 -88.5t68.5 -67t101 -25.5q82 0 138.5 55.5
t77.5 152.5h20v-220z" />
    <glyph glyph-name="D" unicode="D" horiz-adv-x="713" 
d="M38 0v21q62 0 78.5 21t16.5 96v325q0 75 -16.5 95.5t-78.5 20.5v21h271q166 0 250 -84t84 -216t-84 -216t-250 -84h-271zM213 563v-410q0 -76 16 -96t77 -20h4q69 0 118.5 24t74 64.5t34.5 83t10 91.5t-10 91.5t-34.5 83t-74 64.5t-118.5 24h-97z" />
    <glyph glyph-name="E" unicode="E" horiz-adv-x="583" 
d="M38 0v21q62 0 78.5 21t16.5 96v325q0 75 -16.5 95.5t-78.5 20.5v21h456l9 -132h-21l-5 20q-12 44 -32 59.5t-84 15.5h-148v-227h50q75 0 95.5 16.5t20.5 79.5h21v-229h-21q0 63 -20.5 79.5t-95.5 16.5h-50v-146q0 -75 16.5 -95.5t78.5 -20.5h86q45 0 68.5 9t32 23
t15.5 44l5 20h21l-8 -133h-490z" />
    <glyph glyph-name="F" unicode="F" horiz-adv-x="550" 
d="M213 563v-227h50q75 0 95.5 16.5t20.5 79.5h21v-229h-21q0 63 -20.5 79.5t-95.5 16.5h-50v-161q0 -75 16.5 -96t78.5 -21v-21h-270v21q62 0 78.5 21t16.5 96v325q0 75 -16.5 95.5t-78.5 20.5v21h473l8 -132h-21l-5 20q-11 43 -31 59t-84 16h-165z" />
    <glyph glyph-name="G" unicode="G" horiz-adv-x="725" 
d="M565 163q0 33 -22 49t-72 16v20h262v-20q-62 0 -78.5 -21t-16.5 -96v-76q-56 0 -132.5 -26t-127.5 -26q-127 0 -217 93t-90 224t90 224t217 93q106 0 186 -85q27 21 34 57h20v-220h-20q-20 98 -77 153.5t-140 55.5q-57 0 -101 -25.5t-68.5 -67.5t-36.5 -89t-12 -96
q0 -40 6.5 -76.5t23.5 -73.5t43 -63.5t68.5 -43.5t95.5 -17q69 0 117 36.5t48 100.5z" />
    <glyph glyph-name="H" unicode="H" horiz-adv-x="765" 
d="M213 300v-162q0 -75 16.5 -96t78.5 -21v-21h-270v21q62 0 78.5 21t16.5 96v325q0 75 -16.5 95.5t-78.5 20.5v21h270v-21q-62 0 -78.5 -20.5t-16.5 -95.5v-126h340v126q0 75 -17 95.5t-79 20.5v21h271v-21q-63 0 -79.5 -20.5t-16.5 -95.5v-325q0 -76 16.5 -96.5
t79.5 -20.5v-21h-271v21q62 0 79 21t17 96v162h-340z" />
    <glyph glyph-name="I" unicode="I" horiz-adv-x="346" 
d="M308 0h-270v21q62 0 78.5 21t16.5 96v325q0 75 -16.5 95.5t-78.5 20.5v21h270v-21q-62 0 -78.5 -20.5t-16.5 -95.5v-325q0 -75 16.5 -96t78.5 -21v-21z" />
    <glyph glyph-name="J" unicode="J" horiz-adv-x="346" 
d="M38 -193q95 0 95 138v518q0 75 -16.5 95.5t-78.5 20.5v21h270v-21q-62 0 -78.5 -20.5t-16.5 -95.5v-507q0 -51 -16 -88t-43 -55.5t-55.5 -27t-60.5 -8.5q-51 0 -99 26t-48 69q0 14 10 24t25 10q14 0 24 -10t10 -24q0 -25 21 -45t57 -20z" />
    <glyph glyph-name="K" unicode="K" horiz-adv-x="730" 
d="M296 348l310 -269q27 -23 67.5 -40.5t61.5 -17.5v-21h-281v21q49 0 59 16.5t-21 41.5l-253 219l-26 -21v-139q0 -75 16.5 -96t78.5 -21v-21h-270v21q62 0 78.5 21t16.5 96v325q0 75 -16.5 95.5t-78.5 20.5v21h270v-21q-62 0 -78.5 -20.5t-16.5 -95.5v-140l205 175
q84 78 4 81v21h232v-21q-55 0 -91.5 -17t-91.5 -64z" />
    <glyph glyph-name="L" unicode="L" horiz-adv-x="575" 
d="M38 0v21q62 0 78.5 21t16.5 96v325q0 75 -16.5 95.5t-78.5 20.5v21h270v-21q-62 0 -78.5 -20.5t-16.5 -95.5v-310q0 -75 16.5 -95.5t78.5 -20.5h120q64 0 84 16t31 60l5 20h21l-8 -133h-523z" />
    <glyph glyph-name="M" unicode="M" horiz-adv-x="825" 
d="M170 494v-356q0 -75 17 -96t79 -21v-21h-228v21q62 0 78.5 21t16.5 96v325q0 75 -16.5 95.5t-78.5 20.5v21h170l212 -487l211 487h157v-21q-63 0 -79.5 -20.5t-16.5 -95.5v-325q0 -76 16.5 -96.5t79.5 -20.5v-21h-270v21q62 0 78.5 21t16.5 96v326l-208 -481h-13z" />
    <glyph glyph-name="N" unicode="N" horiz-adv-x="725" 
d="M563 124v339q0 75 -16.5 95.5t-78.5 20.5v21h228v-21q-62 0 -79 -20.5t-17 -95.5v-480h-23l-407 503v-348q0 -75 17 -96t79 -21v-21h-228v21q62 0 78.5 21t16.5 96v325q0 75 -16.5 95.5t-78.5 20.5v21h141z" />
    <glyph glyph-name="O" unicode="O" horiz-adv-x="775" 
d="M721 300q0 -131 -98 -224t-235 -93q-138 0 -236 93t-98 224t98 224t236 93q137 0 235 -93t98 -224zM388 578q-62 0 -110 -25.5t-75 -67.5t-40.5 -89t-13.5 -96t13.5 -96t40.5 -88.5t75 -67t110 -25.5t109.5 25.5t74.5 67t40.5 88.5t13.5 96t-13.5 96t-40.5 89t-74.5 67.5
t-109.5 25.5z" />
    <glyph glyph-name="P" unicode="P" horiz-adv-x="550" 
d="M302 600q101 0 158 -48t57 -121t-57 -120.5t-158 -47.5h-89v-125q0 -75 16.5 -96t78.5 -21v-21h-270v21q62 0 78.5 21t16.5 96v325q0 75 -16.5 95.5t-78.5 20.5v21h264zM301 299q62 0 94.5 37t32.5 95t-32.5 95t-94.5 37h-88v-264h88z" />
    <glyph glyph-name="Q" unicode="Q" horiz-adv-x="808" 
d="M350 -13q-122 21 -200.5 109t-78.5 204q0 131 98 224t235 93q138 0 236 -93t98 -224q0 -124 -87 -212.5t-213 -102.5q-80 -8 -133 -57q66 15 124 0.5t93 -38t81.5 -45t89.5 -21.5q67 0 107.5 23.5t65.5 73.5l16 -8q-22 -65 -75 -115.5t-133 -50.5q-42 0 -90 24.5t-84 54
t-78 54t-74 24.5q-33 0 -54.5 -10t-29 -22t-16.5 -22.5t-20 -12.5q-14 -2 -24 7t-10 25q0 24 46 61.5t110 56.5zM404 578q-62 0 -110 -25.5t-75.5 -67.5t-41.5 -89t-14 -96t14 -96t41.5 -88.5t75.5 -67t110 -25.5t110.5 25.5t76 67t41.5 88.5t14 96t-14 96t-41.5 89
t-76 67.5t-110.5 25.5z" />
    <glyph glyph-name="R" unicode="R" horiz-adv-x="620" 
d="M301 299q62 0 94.5 37t32.5 95t-32.5 95t-94.5 37h-88v-264h88zM339 263l98 -115q98 -117 186 -127v-21h-165l-198 263h-47v-125q0 -75 16.5 -96t78.5 -21v-21h-270v21q62 0 78.5 21t16.5 96v325q0 75 -16.5 95.5t-78.5 20.5v21h264q101 0 158 -48t57 -121
q0 -67 -47.5 -113t-130.5 -55z" />
    <glyph glyph-name="S" unicode="S" horiz-adv-x="507" 
d="M111 30q-23 -19 -29 -47h-20v220h21q0 -4 0.5 -10.5t4 -25t10 -35.5t20.5 -38t32.5 -36t49 -25t67.5 -10q54 0 89.5 31t35.5 79q0 61 -115 121l-96 49q-47 25 -79 68t-32 97q0 63 47 106t119 43q66 0 122 -41q23 19 29 46h20v-220h-21q-15 175 -153 175
q-42 0 -69.5 -25.5t-27.5 -63.5q0 -37 26.5 -62.5t95.5 -61.5l95 -49q105 -53 105 -152q0 -80 -55.5 -130t-135.5 -50q-34 0 -65 10t-56 22.5t-35 14.5z" />
    <glyph glyph-name="T" unicode="T" horiz-adv-x="641" 
d="M624 600l9 -135h-21l-5 20q-12 45 -32 60.5t-84 15.5h-131v-423q0 -75 17 -96t79 -21v-21h-271v21q62 0 79 21t17 96v423h-131q-64 0 -84 -15.5t-32 -60.5l-5 -20h-21l9 135h607z" />
    <glyph glyph-name="U" unicode="U" horiz-adv-x="716" 
d="M557 463q0 75 -17 95.5t-79 20.5v21h234v-21q-62 0 -79 -20.5t-17 -95.5v-240q0 -114 -68.5 -177t-172.5 -63t-172 63.5t-68 176.5v240q0 75 -16.5 95.5t-78.5 20.5v21h270v-21q-62 0 -78.5 -20.5t-16.5 -95.5v-245q0 -94 48 -142t127 -48q83 0 133.5 48t50.5 142v245z
" />
    <glyph glyph-name="V" unicode="V" horiz-adv-x="617" 
d="M654 579q-59 0 -76.5 -14.5t-42.5 -72.5l-220 -509h-13l-221 509q-25 58 -42.5 72.5t-76.5 14.5v21h277v-21q-62 0 -79.5 -17.5t1.5 -58.5l170 -389l168 389q19 41 1.5 58.5t-79.5 17.5v21h233v-21z" />
    <glyph glyph-name="W" unicode="W" horiz-adv-x="793" 
d="M397 426l-141 -443h-13l-162 509q-18 57 -38 72t-81 15v21h280v-21q-61 0 -76.5 -16.5t-2.5 -59.5l110 -345l140 442h14l140 -441l109 344q13 42 -2 59t-68 17v21h225v-21q-60 0 -81 -17t-38 -70l-162 -509h-13z" />
    <glyph glyph-name="X" unicode="X" horiz-adv-x="623" 
d="M298 263l-130 -166q-16 -21 -18.5 -37.5t15 -27.5t56.5 -11v-21h-238v21q48 0 80 23t65 64l146 190l-131 194q-29 43 -62 65t-82 22v21h284v-21q-58 0 -68.5 -21t15.5 -55l95 -140l109 140q59 76 -53 76v21h237v-21q-14 0 -25.5 -1t-22 -4.5t-17.5 -5t-16.5 -9t-13 -9.5
t-13 -13t-11 -12.5t-13 -16t-12.5 -16.5l-126 -164l149 -220q31 -45 62.5 -66t81.5 -21v-21h-285v21q59 0 69.5 20.5t-16.5 55.5z" />
    <glyph glyph-name="Y" unicode="Y" horiz-adv-x="625" 
d="M353 242v-104q0 -75 16.5 -96t78.5 -21v-21h-270v21q62 0 78.5 21t16.5 96v97l-166 257q-33 50 -63 68.5t-82 18.5v21h285v-21q-59 0 -69.5 -20.5t15.5 -55.5l144 -220l146 220q28 41 17.5 58.5t-71.5 17.5v21h234v-21q-58 0 -84.5 -18t-60.5 -69z" />
    <glyph glyph-name="Z" unicode="Z" horiz-adv-x="575" 
d="M380 563h-184q-45 0 -68.5 -9t-32 -22.5t-15.5 -43.5l-5 -20h-21l9 132h426v-12l-345 -551h225q45 0 68.5 9t32 23t15.5 44l5 20h21l-8 -133h-460v23z" />
    <glyph glyph-name="bracketleft" unicode="[" horiz-adv-x="358" 
d="M319 -88h-202v766h202v-32h-137v-702h137v-32z" />
    <glyph glyph-name="backslash" unicode="\" horiz-adv-x="348" 
d="M9 604l40 14l288 -622l-40 -14z" />
    <glyph glyph-name="bracketright" unicode="]" horiz-adv-x="358" 
d="M242 -88h-203v32h138v702h-138v32h203v-766z" />
    <glyph glyph-name="asciicircum" unicode="^" horiz-adv-x="485" 
d="M243 617l200 -279l-18 -15l-182 182l-184 -182l-17 15z" />
    <glyph glyph-name="underscore" unicode="_" horiz-adv-x="358" 
d="M359 -44h-360v44h360v-44z" />
    <glyph glyph-name="grave" unicode="`" horiz-adv-x="404" 
d="M186 489l-5 -6l-138 58q-23 11 -23 30q0 10 7.5 19.5t20.5 9.5q19 0 45 -23z" />
    <glyph glyph-name="a" unicode="a" horiz-adv-x="403" 
d="M387 20q-29 -31 -66 -31q-60 0 -68 58q-67 -60 -125 -60q-38 0 -64 22.5t-26 61.5q0 105 213 142q0 59 -13 82t-54 23q-20 0 -38.5 -13t-18.5 -35q0 -15 -10 -25t-24 -10q-15 0 -25 10t-10 25q0 35 38.5 57.5t88.5 22.5q73 0 105 -32t32 -104v-151q0 -39 23 -39
q13 0 28 15zM251 80v102q-138 -32 -138 -99q0 -23 13.5 -37t33.5 -14q37 0 91 48z" />
    <glyph glyph-name="b" unicode="b" horiz-adv-x="497" 
d="M153 231v-128q14 -37 40.5 -58.5t60.5 -21.5q56 0 85 40t29 104q0 63 -29 103t-85 40q-34 0 -60.5 -21.5t-40.5 -57.5zM147 50l-44 -67h-21v471q0 75 -14.5 96t-64.5 21v21l150 25v-326q48 59 122 59q71 0 122 -53.5t51 -129.5t-51 -130t-122 -54q-81 0 -128 67z" />
    <glyph glyph-name="c" unicode="c" horiz-adv-x="393" 
d="M225 318q-40 0 -68 -46t-28 -114q0 -62 30.5 -97.5t90.5 -35.5q58 0 107 46l17 -22q-61 -66 -149 -66q-82 0 -129.5 49t-47.5 126q0 83 56 137.5t121 54.5q59 0 89 -21t30 -51q0 -16 -10.5 -29.5t-33.5 -13.5q-16 0 -27.5 11.5t-11.5 28.5q0 43 -36 43z" />
    <glyph glyph-name="d" unicode="d" horiz-adv-x="513" 
d="M344 102v129q-14 36 -41 57.5t-60 21.5q-56 0 -85 -40t-29 -103q0 -64 29 -104t85 -40q33 0 60 21.5t41 57.5zM344 291v163q0 75 -14.5 96t-64.5 21v21l150 25v-471q0 -75 14.5 -96t64.5 -21v-21l-133 -25q-7 15 -16 61q-49 -61 -123 -61q-71 0 -122.5 54t-51.5 130
t51.5 129.5t122.5 53.5q74 0 122 -59z" />
    <glyph glyph-name="e" unicode="e" horiz-adv-x="422" 
d="M134 229h166q10 28 -8.5 54.5t-63.5 26.5q-32 0 -57.5 -22t-36.5 -59zM128 192q-9 -74 23.5 -120.5t106.5 -46.5q25 0 57 13t53 33l18 -22q-27 -29 -69 -47.5t-84 -18.5q-81 0 -133 53.5t-52 130.5t56.5 130t128.5 53q68 0 111 -47.5t25 -110.5h-241z" />
    <glyph glyph-name="f" unicode="f" horiz-adv-x="313" 
d="M188 298v-160q0 -75 14.5 -96t64.5 -21v-21h-229v21q50 0 64.5 21t14.5 96v160h-82v35h82v96q0 95 47.5 141.5t116.5 46.5q46 0 73 -23.5t27 -50.5q0 -16 -8.5 -26t-24.5 -10t-25 12t-12 26.5t-15 26.5t-33 12q-39 0 -57 -35.5t-18 -119.5v-96h100v-35h-100z" />
    <glyph glyph-name="g" unicode="g" horiz-adv-x="423" 
d="M263 214q0 46 -18.5 75t-53.5 29t-54 -29t-19 -75t19 -74.5t54 -28.5t53.5 28.5t18.5 74.5zM98 36q0 -30 91 -38q96 -8 139 -44t43 -87q0 -61 -50.5 -97.5t-126.5 -36.5q-81 0 -130.5 33.5t-45.5 78.5t64 76l18 -11q-29 -33 -31 -60.5t17.5 -43.5t48 -25t59.5 -9
q49 0 86.5 21.5t37.5 55.5q0 33 -32.5 48t-101.5 22q-142 14 -142 93q0 54 84 80q-39 18 -61.5 50t-22.5 72q0 56 43.5 96t105.5 40q60 0 103 -38q13 16 35.5 27t39.5 11q44 0 56 -37q9 -28 -9 -42q-6 -5 -14 -5q-15 -1 -22.5 6t-9 15.5t-8 16t-20.5 7.5q-15 0 -31 -16
q29 -35 29 -81q0 -53 -39 -91t-91 -45q-112 -13 -112 -42z" />
    <glyph glyph-name="h" unicode="h" horiz-adv-x="522" 
d="M503 0h-221v21q47 0 59 20t12 97v58q0 107 -76 107q-40 0 -74 -29.5t-34 -70.5v-65q0 -78 11 -97.5t52 -19.5v-21h-213v21q50 0 64.5 21t14.5 96v316q0 75 -14.5 96t-64.5 21v21l150 25v-339q59 72 131 72q123 0 123 -149v-63q0 -75 14.5 -96t65.5 -21v-21z" />
    <glyph glyph-name="i" unicode="i" horiz-adv-x="286" 
d="M267 0h-229v21q50 0 64.5 21t14.5 96v50q0 74 -14.5 95t-64.5 21v21l150 25v-212q0 -75 14.5 -96t64.5 -21v-21zM196 493q0 -19 -13 -32t-31 -13t-31 13t-13 32q0 18 13 31t31 13t31 -13t13 -31z" />
    <glyph glyph-name="j" unicode="j" horiz-adv-x="273" 
d="M188 -78q0 -94 -42.5 -141.5t-104.5 -47.5q-52 0 -84.5 26.5t-32.5 55.5q0 13 7.5 21t21.5 8q17 0 26.5 -12t13 -27t16.5 -27t37 -12q71 0 71 156v266q0 74 -14.5 95t-64.5 21v21l150 25v-428zM196 493q0 -19 -13 -32t-31 -13t-31 13t-13 32q0 18 13 31t31 13t31 -13
t13 -31z" />
    <glyph glyph-name="k" unicode="k" horiz-adv-x="440" 
d="M233 207l161 -162q24 -24 59 -24v-21h-111l-164 163l-9 -7v-18q0 -75 14.5 -96t64.5 -21v-21h-229v21q50 0 64.5 21t14.5 96v316q0 75 -14.5 96t-64.5 21v21l150 25v-425l84 68q25 20 16 36.5t-46 16.5v20h200v-20q-66 -5 -105 -36z" />
    <glyph glyph-name="l" unicode="l" horiz-adv-x="268" 
d="M248 0h-229v21q50 0 64.5 21t14.5 96v316q0 75 -14.5 96t-64.5 21v21l150 25v-479q0 -75 14.5 -96t64.5 -21v-21z" />
    <glyph glyph-name="m" unicode="m" horiz-adv-x="778" 
d="M433 203v-65q0 -79 10.5 -98t52.5 -19v-21h-196v21q42 0 52.5 19t10.5 98v58q0 107 -72 107q-31 0 -67 -29t-36 -71v-65q0 -78 10.5 -97.5t51.5 -19.5v-21h-212v21q50 0 64.5 21t14.5 96v50q0 74 -14.5 95t-64.5 21v21l133 25q9 -19 17 -72q57 72 130 72q83 0 106 -75
q20 28 59.5 51.5t80.5 23.5q115 0 115 -149v-63q0 -75 14.5 -96t64.5 -21v-21h-212v21q42 0 52 19t10 98v58q0 107 -71 107q-31 0 -67.5 -29t-36.5 -71z" />
    <glyph glyph-name="n" unicode="n" horiz-adv-x="555" 
d="M188 278q57 72 139 72q65 0 97.5 -41t32.5 -108v-63q0 -75 14.5 -96t64.5 -21v-21h-229v21q49 0 64 21.5t15 95.5v58q0 107 -83 107q-43 0 -79 -30t-36 -70v-65q0 -77 12 -97t58 -20v-21h-220v21q50 0 64.5 21t14.5 96v50q0 74 -14.5 95t-64.5 21v21l133 25q9 -19 17 -72
z" />
    <glyph glyph-name="o" unicode="o" horiz-adv-x="500" 
d="M452 167q0 -76 -59.5 -130t-142.5 -54t-142.5 54t-59.5 130t59.5 129.5t142.5 53.5t142.5 -53.5t59.5 -129.5zM371 167q0 64 -31 104.5t-90 40.5t-90 -41t-31 -104t31 -104t90 -41t90 40.5t31 104.5z" />
    <glyph glyph-name="p" unicode="p" horiz-adv-x="513" 
d="M384 167q0 63 -29 103t-84 40q-34 0 -60.5 -21t-41.5 -57v-129q15 -37 41.5 -58.5t60.5 -21.5q55 0 84 40.5t29 103.5zM169 -113q0 -74 14.5 -95t64.5 -21v-21h-229v21q50 0 64.5 20.5t14.5 95.5v301q0 75 -14.5 95.5t-64.5 20.5v21l134 25q6 -11 15 -61q51 61 124 61
q71 0 122 -53.5t51 -129.5t-51 -130t-122 -54q-74 0 -123 60v-156z" />
    <glyph glyph-name="q" unicode="q" horiz-adv-x="497" 
d="M344 103v128q-14 36 -41 57.5t-60 21.5q-56 0 -85 -40t-29 -103q0 -64 29 -104t85 -40q33 0 60 22t41 58zM415 -113q0 -74 14.5 -95t64.5 -21v-21h-229v21q50 0 64.5 20.5t14.5 95.5v156q-49 -60 -122 -60q-71 0 -122.5 54t-51.5 130t51.5 129.5t122.5 53.5q81 0 128 -67
l44 67h21v-463z" />
    <glyph glyph-name="r" unicode="r" horiz-adv-x="393" 
d="M372 288q0 -47 -40 -47q-14 0 -24.5 11t-10.5 25q0 33 -32 33q-23 0 -50 -32t-27 -85v-55q0 -75 14.5 -96t64.5 -21v-21h-229v21q50 0 64.5 21t14.5 96v50q0 74 -14.5 95t-64.5 21v21l133 25q9 -19 17 -72q15 30 45 51t60 21q38 0 58.5 -20t20.5 -42z" />
    <glyph glyph-name="s" unicode="s" horiz-adv-x="340" 
d="M295 92q0 -48 -34.5 -78.5t-84.5 -30.5q-18 0 -37 7t-30.5 13.5t-21.5 10t-14 -3.5t-4 -27h-21v146h21q0 -39 30 -75.5t79 -36.5q24 0 40.5 15t16.5 36q0 31 -56 61l-56 30q-66 36 -66 100q0 39 30.5 65t70.5 26q34 0 70 -18q12 -7 16.5 -4.5t4.5 22.5h21v-116h-21
q0 33 -22.5 58.5t-58.5 25.5q-25 0 -38 -12t-13 -31q0 -17 13 -29.5t48 -31.5l48 -26q69 -39 69 -96z" />
    <glyph glyph-name="t" unicode="t" horiz-adv-x="295" 
d="M80 298h-52v24q43 9 63 39t26 82h34v-110h87v-35h-87v-200q0 -72 45 -72q29 0 65 34l17 -17q-21 -25 -50.5 -41t-54.5 -16q-43 0 -68 28t-25 84v200z" />
    <glyph glyph-name="u" unicode="u" horiz-adv-x="522" 
d="M503 8l-134 -25q-8 16 -16 64q-62 -64 -131 -64q-124 0 -124 150v63q0 75 -14.5 96t-64.5 21v20h150v-195q0 -107 76 -107q34 0 71 28.5t37 70.5v66q0 75 -14.5 96t-65.5 21v20h150v-187q0 -75 14.5 -96t65.5 -21v-21z" />
    <glyph glyph-name="v" unicode="v" horiz-adv-x="373" 
d="M385 313q-26 0 -41.5 -13t-29.5 -46l-113 -272h-20l-122 272q-15 33 -29.5 46t-38.5 13v20h177v-20q-34 0 -40 -11.5t9 -47.5l71 -160l66 160q15 32 9 45.5t-38 13.5v20h140v-20z" />
    <glyph glyph-name="w" unicode="w" horiz-adv-x="558" 
d="M282 213l-86 -231h-20l-118 272q-14 33 -29.5 46t-38.5 13v20h181v-20q-62 0 -36 -59l68 -156l81 235h22l102 -235l54 156q21 59 -29 59v20h140v-20q-27 0 -43 -13t-28 -46l-101 -272h-20z" />
    <glyph glyph-name="x" unicode="x" horiz-adv-x="403" 
d="M185 132l-50 -53q-58 -58 21 -58v-21h-154v21q29 0 87 58l76 80l-69 95q-27 35 -45 47t-43 12v20h202v-20q-43 0 -49 -12.5t20 -46.5l32 -44l42 44q27 30 19 44.5t-40 14.5v20h163v-20q-40 0 -96 -59l-68 -71l75 -104q23 -33 43.5 -45.5t51.5 -12.5v-21h-210v21
q39 0 45.5 14.5t-15.5 43.5z" />
    <glyph glyph-name="y" unicode="y" horiz-adv-x="373" 
d="M48 -237q0 16 12 28.5l31.5 34t32.5 54.5l50 125l-115 249q-16 34 -30 46.5t-37 12.5v20h177v-20q-34 0 -41 -11t9 -48l73 -160l64 160q14 34 8 46.5t-37 12.5v20h140v-20q-47 0 -71 -59l-195 -487q-15 -37 -37 -37q-13 0 -23.5 8t-10.5 25z" />
    <glyph glyph-name="z" unicode="z" horiz-adv-x="372" 
d="M324 333v-16l-191 -285h61q65 0 86 12.5t29 46.5l5 20h21l-7 -111h-290v17l190 285h-47q-65 0 -86 -12.5t-29 -46.5l-5 -20h-21l8 110h276z" />
    <glyph glyph-name="braceleft" unicode="{" horiz-adv-x="358" 
d="M42 304q23 8 33 12t25.5 16.5t21.5 28.5t11 45.5t5 71.5q0 26 4.5 48.5t10 38.5t19.5 33l21.5 26t28 23t28.5 19t33.5 19t31.5 18l17 -21q-37 -25 -53.5 -38.5t-37.5 -37.5t-29 -54t-8 -72q0 -71 -11 -108.5t-30.5 -52t-58.5 -23.5q39 -9 58.5 -23.5t30.5 -52t11 -108.5
q0 -42 8 -72t29 -54t37.5 -37.5t53.5 -38.5l-17 -21q-8 4 -32 18l-33 19t-29 18.5t-28 23l-21.5 26t-19 33t-10 39t-4.5 48.5q0 42 -5 71.5t-11 45.5t-21.5 28.5t-25.5 16.5t-33 12v16z" />
    <glyph glyph-name="bar" unicode="|" horiz-adv-x="274" 
d="M115 686h44v-782h-44v782z" />
    <glyph glyph-name="braceright" unicode="}" horiz-adv-x="358" 
d="M317 288q-23 -8 -33 -12.5t-25.5 -16t-21.5 -28t-11 -46t-5 -71.5q0 -23 -3 -43t-10 -37t-13.5 -30t-19.5 -26l-21.5 -21t-26 -19l-26.5 -16.5t-29.5 -16.5t-28.5 -16l-16 21q36 25 53 38.5t37.5 37.5t28.5 54t8 72q0 71 11 108.5t30.5 52t58.5 23.5q-39 9 -58.5 23.5
t-30.5 52t-11 108.5q0 42 -8 72t-28.5 54t-37.5 37.5t-53 38.5l16 21q6 -3 32.5 -18l33.5 -19t28.5 -18.5t28.5 -23.5l21 -26t19 -33t10 -38.5t5 -48.5q0 -42 5 -71.5t11 -46t21.5 -28t25.5 -16t33 -12.5v-16z" />
    <glyph glyph-name="asciitilde" unicode="~" horiz-adv-x="423" 
d="M298 203q42 0 58 62h21q0 -62 -25 -97t-67 -35q-25 0 -85 37t-79 37q-18 0 -34 -18.5t-22 -43.5h-21q0 57 25 93t61 36q27 0 86 -35.5t82 -35.5z" />
    <glyph glyph-name="exclamdown" unicode="&#xa1;" horiz-adv-x="313" 
d="M194 390q0 -20 -14 -34t-34 -14q-19 0 -33 14t-14 34t14 34t33 14q20 0 34 -14t14 -34zM194 -138q0 -20 -14.5 -34.5t-33.5 -14.5t-33 14.5t-14 34.5q0 21 5.5 64t13.5 132t11 212h34q3 -123 11 -212t14 -132t6 -64z" />
    <glyph glyph-name="cent" unicode="&#xa2;" horiz-adv-x="447" 
d="M250 83v-166h-36v168q-73 9 -114.5 56.5t-41.5 116.5q0 74 47 125.5t109 63.5v170h36v-167q60 -1 90.5 -22t30.5 -50q0 -16 -10.5 -29.5t-33.5 -13.5q-16 0 -27.5 11.5t-11.5 28.5q0 22 -11 32.5t-27 10.5v-293q16 -2 26 -2q52 0 108 48l18 -22q-61 -63 -152 -66z
M214 133v278q-35 -16 -58 -57.5t-23 -95.5q0 -97 81 -125z" />
    <glyph glyph-name="sterling" unicode="&#xa3;" horiz-adv-x="513" 
d="M133 298h-81v35h81v96q0 94 51.5 141t121.5 47q65 0 91 -46q19 -33 1 -54q-8 -10 -25 -10q-16 0 -25 12t-12 26.5t-15 26.5t-33 12q-39 0 -57 -35.5t-18 -119.5v-96h150v-35h-150v-145q0 -75 16.5 -95.5t78.5 -20.5h57q45 0 68.5 9t32 23t15.5 44l5 20h21l-9 -133h-460
v21q62 0 78.5 21t16.5 96v160z" />
    <glyph glyph-name="currency" unicode="&#xa4;" horiz-adv-x="554" 
d="M302 -17q-84 0 -144 64.5t-79 167.5h-61v45h55q-2 26 -2 40q0 6 1 20t1 20h-55v44h61q19 103 79 168t144 65q85 0 138 -72q23 19 28 52h20v-207h-21q-36 188 -155 188q-66 0 -102 -54t-47 -140h194v-44h-198q-1 -13 -1 -40t1 -40h198v-45h-194q11 -86 47 -139t102 -53
q119 0 155 187h21v-208h-20q-6 35 -28 53q-51 -72 -138 -72z" />
    <glyph glyph-name="yen" unicode="&#xa5;" horiz-adv-x="625" 
d="M353 267v-74h145v-44h-145v-11q0 -75 16.5 -96t78.5 -21v-21h-266v21q62 0 79 21t17 96v11h-145v44h145v74h-145v44h117l-117 181q-33 50 -62.5 68.5t-81.5 18.5v21h284v-21q-58 0 -68.5 -20.5t15.5 -55.5l117 -187l123 187q28 41 17.5 58.5t-70.5 17.5v21h233v-21
q-58 0 -84.5 -18.5t-59.5 -68.5l-120 -181h122v-44h-145z" />
    <glyph glyph-name="brokenbar" unicode="&#xa6;" horiz-adv-x="274" 
d="M115 686h44v-337h-44v337zM115 241h44v-337h-44v337z" />
    <glyph glyph-name="section" unicode="&#xa7;" horiz-adv-x="498" 
d="M148 336q-30 -28 -30 -68q0 -57 104 -110l86 -44q31 -19 33 -20q29 29 29 69q0 56 -103 109l-86 44q-25 14 -33 20zM376 66q47 -45 47 -104q0 -63 -47.5 -106t-118.5 -43q-67 0 -123 41q-22 -20 -28 -46h-20v220h21q13 -175 152 -175q42 0 70 25.5t28 63.5q0 37 -27 62.5
t-91 58.5l-86 45q-94 47 -94 136q0 74 54 120q-47 45 -47 104q0 63 47 106t119 43q73 0 110 -41q22 20 28 46h20v-208h-21q-6 80 -38 121.5t-102 41.5q-42 0 -69.5 -25.5t-27.5 -63.5q0 -37 27 -62.5t90 -58.5l87 -44q93 -47 93 -137q0 -74 -53 -120z" />
    <glyph glyph-name="dieresis" unicode="&#xa8;" horiz-adv-x="310" 
d="M71 662q16 0 27.5 -11.5t11.5 -27.5q0 -17 -11.5 -28.5t-27.5 -11.5t-27.5 11.5t-11.5 28.5q0 16 11.5 27.5t27.5 11.5zM237 662q16 0 27.5 -11.5t11.5 -27.5t-11.5 -28t-27.5 -12t-27.5 11.5t-11.5 28.5q0 16 11.5 27.5t27.5 11.5z" />
    <glyph glyph-name="copyright" unicode="&#xa9;" horiz-adv-x="683" 
d="M342 617q131 0 223.5 -93t92.5 -224t-92.5 -224t-223.5 -93t-224 93t-93 224t93 224t224 93zM342 585q-118 0 -201.5 -83.5t-83.5 -201.5t83.5 -201.5t201.5 -83.5t201.5 83.5t83.5 201.5t-83.5 201.5t-201.5 83.5zM506 105h-17q-6 34 -16 44q-21 -25 -54 -42t-65 -17
q-83 0 -143 61.5t-60 148.5q0 86 60 148t143 62q32 0 65 -17t54 -42q9 11 16 44h17v-156h-18q-13 64 -48 100.5t-86 36.5q-69 0 -102.5 -54t-33.5 -122t33.5 -122t102.5 -54q51 0 86 37t48 101h18v-157z" />
    <glyph glyph-name="ordfeminine" unicode="&#xaa;" horiz-adv-x="407" 
d="M368 303q-24 -29 -58 -29q-52 0 -60 54q-58 -55 -109 -55q-34 0 -57 21.5t-23 57.5q0 56 50.5 87t137.5 48v1q0 55 -11.5 76.5t-47.5 21.5q-18 0 -34.5 -12t-16.5 -33q0 -14 -8.5 -23.5t-21.5 -9.5q-12 0 -21 9.5t-9 23.5q0 33 34 54.5t78 21.5q64 0 92 -30.5t28 -98.5
v-145q0 -35 21 -35q14 0 24 14zM249 360v97q-65 -16 -92.5 -38t-27.5 -61q0 -20 11.5 -32t28.5 -12q30 0 80 46z" />
    <glyph glyph-name="guillemotleft" unicode="&#xab;" horiz-adv-x="520" 
d="M449 50l-224 154l224 153l14 -18l-142 -136l142 -135zM324 5l-267 199l267 198l14 -19l-185 -180l185 -179z" />
    <glyph glyph-name="logicalnot" unicode="&#xac;" horiz-adv-x="570" 
d="M459 295v-172h-44v128h-332v44h376z" />
    <glyph glyph-name="registered" unicode="&#xae;" horiz-adv-x="512" 
d="M255 617q96 0 164 -67.5t68 -163.5t-68 -163.5t-164 -67.5q-95 0 -163 67.5t-68 163.5t68 163.5t163 67.5zM311 442q0 22 -12.5 36.5t-36.5 14.5h-32v-101h32q24 0 36.5 14t12.5 36zM414 263q43 56 43 123q0 83 -59 142t-143 59q-83 0 -142 -59t-59 -142t59 -142t142 -59
q95 0 157 75h-84l-85 108h-13v-29q0 -40 8 -52t34 -12v-15h-144v15q32 0 41 12t9 52v99q0 41 -9 52.5t-41 11.5v14h135q49 0 76.5 -20.5t27.5 -53.5q0 -26 -19.5 -46t-54.5 -27l35 -38q27 -28 45.5 -40.5t40.5 -15.5v-12z" />
    <glyph glyph-name="macron" unicode="&#xaf;" horiz-adv-x="310" 
d="M259 603h-210v35h210v-35z" />
    <glyph glyph-name="degree" unicode="&#xb0;" horiz-adv-x="400" 
d="M199 601q62 0 106 -44t44 -106t-44 -106t-106 -44t-106 44t-44 106q0 61 44.5 105.5t105.5 44.5zM199 553q-42 0 -71.5 -30t-29.5 -72t29.5 -72t71.5 -30t72 30t30 72t-30 72t-72 30z" />
    <glyph glyph-name="plusminus" unicode="&#xb1;" 
d="M408 39v-39h-358v39h358zM251 268h157v-44h-157v-141h-44v141h-157v44h157v140h44v-140z" />
    <glyph glyph-name="twosuperior" unicode="&#xb2;" horiz-adv-x="375" 
d="M322 471l-11 -54h-257v23l147 123q27 23 36.5 42.5t9.5 48.5q0 30 -20 48.5t-54 18.5q-40 0 -58.5 -31t8.5 -78l-30 -26q-43 28 -46.5 69.5t32 73t95.5 31.5q56 0 96 -28.5t40 -74.5q0 -60 -66 -108l-105 -78h183z" />
    <glyph glyph-name="threesuperior" unicode="&#xb3;" horiz-adv-x="375" 
d="M253 696h-105q-57 0 -65 -39l-5 -19h-20l19 112h238v-27l-89 -98q42 -11 69.5 -42t27.5 -66q0 -46 -40.5 -79.5t-99.5 -33.5q-55 0 -88 24t-33 47q0 21 22 21q9 0 17 -9.5t14.5 -20.5t24 -20.5t43.5 -9.5q37 0 55.5 23.5t18.5 57.5q0 28 -16.5 49.5t-44.5 26.5
q-2 -2 -7.5 -9.5l-10.5 -14.5q-11 -17 -25 -17t-18.5 12t8.5 25z" />
    <glyph glyph-name="acute" unicode="&#xb4;" horiz-adv-x="227" 
d="M173 643q0 -19 -23 -30l-137 -59l-5 7l93 87q27 24 44 24q13 0 20.5 -9.5t7.5 -19.5z" />
    <glyph glyph-name="mu" unicode="&#xb5;" horiz-adv-x="522" 
d="M169 -8v-41q0 -75 14.5 -96t64.5 -21v-21h-229v21q50 0 64.5 21t14.5 96v245q0 75 -14.5 96t-64.5 21v20h150v-195q0 -107 84 -107q28 0 64 28.5t36 70.5v66q0 75 -14.5 96t-65.5 21v20h150v-187q0 -75 14.5 -96t65.5 -21v-21l-134 -25q-8 16 -16 64q-62 -64 -131 -64
q-26 0 -53 9z" />
    <glyph glyph-name="paragraph" unicode="&#xb6;" horiz-adv-x="513" 
d="M479 600v-21q-62 0 -79 -20.5t-17 -95.5v-496q0 -75 17 -95.5t79 -20.5v-21h-149v726h-87v-726h-150v21q63 0 79.5 20.5t16.5 95.5v295q-64 7 -107.5 55t-43.5 113q0 70 50 120t120 50h271z" />
    <glyph glyph-name="periodcentered" unicode="&#xb7;" horiz-adv-x="292" 
d="M173 204q0 -20 -14.5 -34t-33.5 -14t-33 14t-14 34t14 34.5t33 14.5t33.5 -14.5t14.5 -34.5z" />
    <glyph glyph-name="cedilla" unicode="&#xb8;" horiz-adv-x="218" 
d="M199 -126q0 -25 -17.5 -45.5t-44.5 -32t-47.5 -17t-36.5 -7.5v27q85 27 85 75q0 24 -32 34.5t-69 -1.5v14l108 107h45l-75 -76q31 -1 57.5 -21t26.5 -57z" />
    <glyph glyph-name="onesuperior" unicode="&#xb9;" horiz-adv-x="325" 
d="M129 638q0 52 -14 65.5t-58 12.5v22l141 26v-245q0 -53 11.5 -68t53.5 -15v-19h-199v19q42 0 53.5 15t11.5 68v119z" />
    <glyph glyph-name="ordmasculine" unicode="&#xba;" horiz-adv-x="513" 
d="M429 443q0 -72 -52 -123.5t-125 -51.5t-125.5 51.5t-52.5 123.5q0 71 52.5 122.5t125.5 51.5t125 -51.5t52 -122.5zM358 443q0 60 -27 98.5t-79 38.5t-79.5 -38.5t-27.5 -98.5t27.5 -99t79.5 -39t79 39t27 99z" />
    <glyph glyph-name="guillemotright" unicode="&#xbb;" horiz-adv-x="520" 
d="M196 5l-14 19l186 179l-186 180l14 19l267 -198zM71 50l-13 18l141 135l-141 136l13 18l224 -153z" />
    <glyph glyph-name="onequarter" unicode="&#xbc;" horiz-adv-x="853" 
d="M636 600l-383 -618l-36 18l383 618zM779 194l-6 -101h-71q0 -45 10.5 -59.5t45.5 -14.5v-19h-167v19q36 0 46.5 14.5t10.5 59.5h-143v17l173 229h24v-213q22 1 35 12t20 40l4 16h18zM648 126v124l-93 -124h93zM270 287h-172v19q37 0 47.5 14.5t10.5 66.5v115
q0 49 -14 62.5t-55 12.5v18l126 26v-234q0 -52 10.5 -66.5t46.5 -14.5v-19z" />
    <glyph glyph-name="onehalf" unicode="&#xbd;" horiz-adv-x="853" 
d="M636 600l-383 -618l-36 18l383 618zM781 48l-9 -48h-234v23l133 118q25 22 34 41t9 46q0 29 -18.5 47t-49.5 18q-36 0 -54 -30t8 -75l-27 -25q-39 27 -42.5 67t29.5 70t88 30q50 0 86.5 -27t36.5 -72q0 -50 -60 -103l-89 -80h159zM270 287h-172v19q37 0 47.5 14.5
t10.5 66.5v115q0 49 -14 62.5t-55 12.5v18l126 26v-234q0 -52 10.5 -66.5t46.5 -14.5v-19z" />
    <glyph glyph-name="threequarters" unicode="&#xbe;" horiz-adv-x="853" 
d="M636 600l-383 -618l-36 18l383 618zM771 194l-6 -101h-72q0 -45 11 -59.5t46 -14.5v-19h-167v19q36 0 46.5 14.5t10.5 59.5h-143v17l172 229h24v-213q22 1 35 12t20 40l5 16h18zM640 126v124l-93 -124h93zM306 378q0 -44 -36.5 -76t-91.5 -32q-49 0 -79 23t-30 45
q0 19 20 19q8 0 15 -9t13 -19.5t22 -19.5t39 -9q34 0 52 23t18 55q0 27 -15.5 47.5t-41.5 25.5q-5 -5 -16 -23q-9 -16 -24 -16q-12 0 -16.5 11t7.5 25l99 104h-89q-54 0 -63 -38l-5 -17h-20l19 103h215v-23l-79 -94q38 -13 62.5 -42t24.5 -63z" />
    <glyph glyph-name="questiondown" unicode="&#xbf;" horiz-adv-x="504" 
d="M352 390q0 -20 -14 -34t-33 -14t-33.5 14t-14.5 34t14.5 34t33.5 14t33 -14t14 -34zM457 -71q0 -47 -48 -81.5t-120 -34.5q-86 0 -149.5 46.5t-63.5 122.5q0 49 21.5 87.5t52 57.5t60.5 31t52 15l21 3v94h45v-164q-75 0 -130 -33t-55 -102q0 -58 45 -92t110 -34
q52 0 84 21t32 46q0 26 -43 26q-16 0 -28 11.5t-12 27.5q0 22 16.5 33.5t34.5 11.5q28 0 51.5 -26t23.5 -67z" />
    <glyph glyph-name="Agrave" unicode="&#xc0;" horiz-adv-x="617" 
d="M166 208l-48 -111q-19 -41 -1.5 -58.5t79.5 -17.5v-21h-234v21q32 0 49.5 2.5t31 16t19 24.5t20.5 44l220 509h13l221 -509q15 -33 20.5 -44t19 -24.5t30.5 -16t49 -2.5v-21h-277v21q62 0 79 17.5t-1 58.5l-48 111h-242zM391 245l-105 241l-104 -241h209zM338 681l-5 -7
l-138 59q-23 11 -23 30q0 10 7.5 19.5t20.5 9.5q18 0 44 -24z" />
    <glyph glyph-name="Aacute" unicode="&#xc1;" horiz-adv-x="617" 
d="M166 208l-48 -111q-19 -41 -1.5 -58.5t79.5 -17.5v-21h-234v21q32 0 49.5 2.5t31 16t19 24.5t20.5 44l220 509h13l221 -509q15 -33 20.5 -44t19 -24.5t30.5 -16t49 -2.5v-21h-277v21q62 0 79 17.5t-1 58.5l-48 111h-242zM391 245l-105 241l-104 -241h209zM434 763
q0 -19 -23 -30l-138 -59l-5 7l94 87q26 24 44 24q13 0 20.5 -9.5t7.5 -19.5z" />
    <glyph glyph-name="Acircumflex" unicode="&#xc2;" horiz-adv-x="617" 
d="M166 208l-48 -111q-19 -41 -1.5 -58.5t79.5 -17.5v-21h-234v21q32 0 49.5 2.5t31 16t19 24.5t20.5 44l220 509h13l221 -509q15 -33 20.5 -44t19 -24.5t30.5 -16t49 -2.5v-21h-277v21q62 0 79 17.5t-1 58.5l-48 111h-242zM391 245l-105 241l-104 -241h209zM425 687
l-12 -12l-107 76l-107 -76l-12 12l119 129z" />
    <glyph glyph-name="Atilde" unicode="&#xc3;" horiz-adv-x="617" 
d="M166 208l-48 -111q-19 -41 -1.5 -58.5t79.5 -17.5v-21h-234v21q32 0 49.5 2.5t31 16t19 24.5t20.5 44l220 509h13l221 -509q15 -33 20.5 -44t19 -24.5t30.5 -16t49 -2.5v-21h-277v21q62 0 79 17.5t-1 58.5l-48 111h-242zM391 245l-105 241l-104 -241h209zM366 726
q32 0 43 47h16q0 -46 -18.5 -72.5t-50.5 -26.5q-18 0 -63.5 27.5t-59.5 27.5q-13 0 -25 -13.5t-17 -32.5h-15q0 43 18.5 70.5t45.5 27.5q20 0 64 -27.5t62 -27.5z" />
    <glyph glyph-name="Adieresis" unicode="&#xc4;" horiz-adv-x="617" 
d="M166 208l-48 -111q-19 -41 -1.5 -58.5t79.5 -17.5v-21h-234v21q32 0 49.5 2.5t31 16t19 24.5t20.5 44l220 509h13l221 -509q15 -33 20.5 -44t19 -24.5t30.5 -16t49 -2.5v-21h-277v21q62 0 79 17.5t-1 58.5l-48 111h-242zM391 245l-105 241l-104 -241h209zM223 753
q17 0 28.5 -11.5t11.5 -28.5q0 -16 -12 -27.5t-28 -11.5t-27.5 11.5t-11.5 27.5t11.5 28t27.5 12zM389 753q16 0 27.5 -11.5t11.5 -28.5q0 -16 -11.5 -27.5t-27.5 -11.5t-27.5 11.5t-11.5 27.5t11.5 28t27.5 12z" />
    <glyph glyph-name="Aring" unicode="&#xc5;" horiz-adv-x="617" 
d="M305 840q34 0 58.5 -24t24.5 -58t-24 -58.5t-59 -24.5q-34 0 -58 24t-24 59q0 34 24 58t58 24zM305 803q-19 0 -32.5 -13t-13.5 -32t13.5 -32.5t32.5 -13.5t32.5 13.5t13.5 32.5t-13.5 32t-32.5 13zM166 208l-48 -111q-19 -41 -1.5 -58.5t79.5 -17.5v-21h-234v21
q32 0 49.5 2.5t31 16t19 24.5t20.5 44l220 509h13l221 -509q15 -33 20.5 -44t19 -24.5t30.5 -16t49 -2.5v-21h-277v21q62 0 79 17.5t-1 58.5l-48 111h-242zM391 245l-105 241l-104 -241h209z" />
    <glyph glyph-name="AE" unicode="&#xc6;" horiz-adv-x="758" 
d="M358 547l-135 -261h135v261zM204 249l-78 -152q-22 -42 -9 -59t71 -17v-21h-234v21q55 0 81.5 17t54.5 70l254 492h325l9 -132h-21l-5 20q-12 44 -32 59.5t-84 15.5h-98v-277h12q73 0 88.5 15.5t15.5 80.5h21v-229h-21q0 65 -15.5 80.5t-88.5 15.5h-12v-96
q0 -75 16.5 -95.5t78.5 -20.5h36q45 0 68.5 9t32 23t15.5 44l5 20h21l-8 -133h-440v21q62 0 78.5 21t16.5 96v111h-154z" />
    <glyph glyph-name="Ccedilla" unicode="&#xc7;" horiz-adv-x="692" 
d="M333 -13q-111 17 -186.5 106t-75.5 207q0 131 90 224t217 93q106 0 186 -85q27 21 34 57h20v-220h-20q-21 99 -77.5 154t-138.5 55q-57 0 -101 -25.5t-68.5 -67.5t-36.5 -89t-12 -96t12 -96t36.5 -88.5t68.5 -67t101 -25.5q82 0 138.5 55.5t77.5 152.5h20v-220h-20
q-8 39 -34 57q-82 -85 -186 -85h-3l-43 -44q32 -2 58 -21.5t26 -56.5q0 -34 -32 -58.5t-61 -33t-54 -11.5v28q86 24 86 75q0 25 -32.5 34.5t-69.5 -2.5v14z" />
    <glyph glyph-name="Egrave" unicode="&#xc8;" horiz-adv-x="583" 
d="M38 0v21q62 0 78.5 21t16.5 96v325q0 75 -16.5 95.5t-78.5 20.5v21h456l9 -132h-21l-5 20q-12 44 -32 59.5t-84 15.5h-148v-227h50q75 0 95.5 16.5t20.5 79.5h21v-229h-21q0 63 -20.5 79.5t-95.5 16.5h-50v-146q0 -75 16.5 -95.5t78.5 -20.5h86q45 0 68.5 9t32 23
t15.5 44l5 20h21l-8 -133h-490zM326 681l-5 -7l-138 59q-23 11 -23 30q0 10 7.5 19.5t20.5 9.5q18 0 45 -24z" />
    <glyph glyph-name="Eacute" unicode="&#xc9;" horiz-adv-x="583" 
d="M38 0v21q62 0 78.5 21t16.5 96v325q0 75 -16.5 95.5t-78.5 20.5v21h456l9 -132h-21l-5 20q-12 44 -32 59.5t-84 15.5h-148v-227h50q75 0 95.5 16.5t20.5 79.5h21v-229h-21q0 63 -20.5 79.5t-95.5 16.5h-50v-146q0 -75 16.5 -95.5t78.5 -20.5h86q45 0 68.5 9t32 23
t15.5 44l5 20h21l-8 -133h-490zM392 763q0 -17 -24 -30l-137 -58l-5 7l93 87q27 24 44 24q14 0 21.5 -9.5t7.5 -20.5z" />
    <glyph glyph-name="Ecircumflex" unicode="&#xca;" horiz-adv-x="583" 
d="M38 0v21q62 0 78.5 21t16.5 96v325q0 75 -16.5 95.5t-78.5 20.5v21h456l9 -132h-21l-5 20q-12 44 -32 59.5t-84 15.5h-148v-227h50q75 0 95.5 16.5t20.5 79.5h21v-229h-21q0 63 -20.5 79.5t-95.5 16.5h-50v-146q0 -75 16.5 -95.5t78.5 -20.5h86q45 0 68.5 9t32 23
t15.5 44l5 20h21l-8 -133h-490zM410 687l-12 -12l-107 76l-107 -76l-12 12l119 129z" />
    <glyph glyph-name="Edieresis" unicode="&#xcb;" horiz-adv-x="583" 
d="M38 0v21q62 0 78.5 21t16.5 96v325q0 75 -16.5 95.5t-78.5 20.5v21h456l9 -132h-21l-5 20q-12 44 -32 59.5t-84 15.5h-148v-227h50q75 0 95.5 16.5t20.5 79.5h21v-229h-21q0 63 -20.5 79.5t-95.5 16.5h-50v-146q0 -75 16.5 -95.5t78.5 -20.5h86q45 0 68.5 9t32 23
t15.5 44l5 20h21l-8 -133h-490zM208 753q16 0 27.5 -12t11.5 -28t-11.5 -27.5t-27.5 -11.5t-28 11.5t-12 27.5q0 17 12 28.5t28 11.5zM373 753q17 0 28.5 -11.5t11.5 -28.5q0 -16 -12 -27.5t-28 -11.5t-27.5 11.5t-11.5 27.5t11.5 28t27.5 12z" />
    <glyph glyph-name="Igrave" unicode="&#xcc;" horiz-adv-x="346" 
d="M308 0h-270v21q62 0 78.5 21t16.5 96v325q0 75 -16.5 95.5t-78.5 20.5v21h270v-21q-62 0 -78.5 -20.5t-16.5 -95.5v-325q0 -75 16.5 -96t78.5 -21v-21zM219 681l-5 -7l-137 59q-24 11 -24 30q0 10 8 19.5t21 9.5q17 0 44 -24z" />
    <glyph glyph-name="Iacute" unicode="&#xcd;" horiz-adv-x="346" 
d="M308 0h-270v21q62 0 78.5 21t16.5 96v325q0 75 -16.5 95.5t-78.5 20.5v21h270v-21q-62 0 -78.5 -20.5t-16.5 -95.5v-325q0 -75 16.5 -96t78.5 -21v-21zM283 763q0 -19 -24 -30l-137 -59l-5 7l93 87q27 24 44 24q13 0 21 -9.5t8 -19.5z" />
    <glyph glyph-name="Icircumflex" unicode="&#xce;" horiz-adv-x="346" 
d="M308 0h-270v21q62 0 78.5 21t16.5 96v325q0 75 -16.5 95.5t-78.5 20.5v21h270v-21q-62 0 -78.5 -20.5t-16.5 -95.5v-325q0 -75 16.5 -96t78.5 -21v-21zM292 687l-13 -12l-106 76l-107 -76l-13 12l120 129z" />
    <glyph glyph-name="Idieresis" unicode="&#xcf;" horiz-adv-x="346" 
d="M308 0h-270v21q62 0 78.5 21t16.5 96v325q0 75 -16.5 95.5t-78.5 20.5v21h270v-21q-62 0 -78.5 -20.5t-16.5 -95.5v-325q0 -75 16.5 -96t78.5 -21v-21zM88 753q16 0 28 -11.5t12 -28.5q0 -16 -12 -27.5t-28 -11.5t-27.5 11.5t-11.5 27.5t11.5 28t27.5 12zM254 753
q16 0 27.5 -11.5t11.5 -28.5q0 -16 -11.5 -27.5t-27.5 -11.5t-27.5 11.5t-11.5 27.5t11.5 28t27.5 12z" />
    <glyph glyph-name="Eth" unicode="&#xd0;" horiz-adv-x="713" 
d="M208 324h100v-45h-100v-126q0 -75 17 -95.5t79 -20.5h5q71 0 121 24t75 64.5t35.5 83t10.5 91.5t-10.5 91.5t-35.5 83t-75 64.5t-121 24h-101v-239zM133 279h-116v45h116v139q0 75 -16.5 95.5t-78.5 20.5v21h271q166 0 250 -84t84 -216t-84 -216t-250 -84h-271v21
q62 0 78.5 21t16.5 96v141z" />
    <glyph glyph-name="Ntilde" unicode="&#xd1;" horiz-adv-x="725" 
d="M563 124v339q0 75 -16.5 95.5t-78.5 20.5v21h228v-21q-62 0 -79 -20.5t-17 -95.5v-480h-23l-407 503v-348q0 -75 17 -96t79 -21v-21h-228v21q62 0 78.5 21t16.5 96v325q0 75 -16.5 95.5t-78.5 20.5v21h141zM420 726q32 0 43 47h16q0 -46 -18.5 -72.5t-50.5 -26.5
q-18 0 -63 27.5t-59 27.5t-26 -13.5t-17 -32.5h-15q0 43 18.5 70.5t45.5 27.5q20 0 64 -27.5t62 -27.5z" />
    <glyph glyph-name="Ograve" unicode="&#xd2;" horiz-adv-x="775" 
d="M721 300q0 -131 -98 -224t-235 -93q-138 0 -236 93t-98 224t98 224t236 93q137 0 235 -93t98 -224zM388 578q-62 0 -110 -25.5t-75 -67.5t-40.5 -89t-13.5 -96t13.5 -96t40.5 -88.5t75 -67t110 -25.5t109.5 25.5t74.5 67t40.5 88.5t13.5 96t-13.5 96t-40.5 89t-74.5 67.5
t-109.5 25.5zM436 681l-5 -7l-138 59q-8 3 -15.5 11.5t-7.5 18.5t7.5 19.5t20.5 9.5q18 0 45 -24z" />
    <glyph glyph-name="Oacute" unicode="&#xd3;" horiz-adv-x="775" 
d="M721 300q0 -131 -98 -224t-235 -93q-138 0 -236 93t-98 224t98 224t236 93q137 0 235 -93t98 -224zM388 578q-62 0 -110 -25.5t-75 -67.5t-40.5 -89t-13.5 -96t13.5 -96t40.5 -88.5t75 -67t110 -25.5t109.5 25.5t74.5 67t40.5 88.5t13.5 96t-13.5 96t-40.5 89t-74.5 67.5
t-109.5 25.5zM483 763q0 -10 -7.5 -18.5t-15.5 -11.5l-137 -59l-5 7l93 87q27 24 44 24q13 0 20.5 -9.5t7.5 -19.5z" />
    <glyph glyph-name="Ocircumflex" unicode="&#xd4;" horiz-adv-x="775" 
d="M721 300q0 -131 -98 -224t-235 -93q-138 0 -236 93t-98 224t98 224t236 93q137 0 235 -93t98 -224zM388 578q-62 0 -110 -25.5t-75 -67.5t-40.5 -89t-13.5 -96t13.5 -96t40.5 -88.5t75 -67t110 -25.5t109.5 25.5t74.5 67t40.5 88.5t13.5 96t-13.5 96t-40.5 89t-74.5 67.5
t-109.5 25.5zM507 686l-13 -12l-106 76l-107 -76l-13 12l120 129z" />
    <glyph glyph-name="Otilde" unicode="&#xd5;" horiz-adv-x="775" 
d="M721 300q0 -131 -98 -224t-235 -93q-138 0 -236 93t-98 224t98 224t236 93q137 0 235 -93t98 -224zM388 578q-62 0 -110 -25.5t-75 -67.5t-40.5 -89t-13.5 -96t13.5 -96t40.5 -88.5t75 -67t110 -25.5t109.5 25.5t74.5 67t40.5 88.5t13.5 96t-13.5 96t-40.5 89t-74.5 67.5
t-109.5 25.5zM452 726q32 0 43 47h16q0 -46 -19 -72.5t-50 -26.5q-18 0 -63.5 27.5t-59.5 27.5q-13 0 -25 -13.5t-17 -32.5h-15q0 43 18.5 70.5t45.5 27.5q20 0 64 -27.5t62 -27.5z" />
    <glyph glyph-name="Odieresis" unicode="&#xd6;" horiz-adv-x="775" 
d="M721 300q0 -131 -98 -224t-235 -93q-138 0 -236 93t-98 224t98 224t236 93q137 0 235 -93t98 -224zM388 578q-62 0 -110 -25.5t-75 -67.5t-40.5 -89t-13.5 -96t13.5 -96t40.5 -88.5t75 -67t110 -25.5t109.5 25.5t74.5 67t40.5 88.5t13.5 96t-13.5 96t-40.5 89t-74.5 67.5
t-109.5 25.5zM303 753q16 0 27.5 -12t11.5 -28t-11.5 -27.5t-27.5 -11.5t-28 11.5t-12 27.5q0 17 11.5 28.5t28.5 11.5zM468 753q16 0 28 -11.5t12 -28.5q0 -16 -12 -27.5t-28 -11.5t-27.5 11.5t-11.5 27.5t11.5 28t27.5 12z" />
    <glyph glyph-name="multiply" unicode="&#xd7;" 
d="M260 221l120 -120l-32 -31l-119 120l-120 -120l-31 31l120 120l-120 119l32 31l119 -119l119 119l31 -31z" />
    <glyph glyph-name="Oslash" unicode="&#xd8;" horiz-adv-x="808" 
d="M563 516l-285 -458q54 -35 126 -35q62 0 110 25.5t75.5 67t41.5 88.5t14 96q0 59 -20.5 117t-61.5 99zM247 83l286 458q-56 37 -129 37q-62 0 -110 -25.5t-75.5 -67.5t-41.5 -89t-14 -96q0 -60 21 -118.5t63 -98.5zM218 38q-68 43 -107.5 112t-39.5 150q0 131 98 224
t235 93q82 0 154 -36l38 62l36 -18l-40 -63q67 -44 106.5 -113t39.5 -149q0 -131 -98 -224t-236 -93q-79 0 -151 35l-38 -61l-36 18z" />
    <glyph glyph-name="Ugrave" unicode="&#xd9;" horiz-adv-x="716" 
d="M557 463q0 75 -17 95.5t-79 20.5v21h234v-21q-62 0 -79 -20.5t-17 -95.5v-240q0 -114 -68.5 -177t-172.5 -63t-172 63.5t-68 176.5v240q0 75 -16.5 95.5t-78.5 20.5v21h270v-21q-62 0 -78.5 -20.5t-16.5 -95.5v-245q0 -94 48 -142t127 -48q83 0 133.5 48t50.5 142v245z
M398 681l-5 -7l-138 59q-23 11 -23 30q0 10 7.5 19.5t20.5 9.5q18 0 44 -24z" />
    <glyph glyph-name="Uacute" unicode="&#xda;" horiz-adv-x="716" 
d="M557 463q0 75 -17 95.5t-79 20.5v21h234v-21q-62 0 -79 -20.5t-17 -95.5v-240q0 -114 -68.5 -177t-172.5 -63t-172 63.5t-68 176.5v240q0 75 -16.5 95.5t-78.5 20.5v21h270v-21q-62 0 -78.5 -20.5t-16.5 -95.5v-245q0 -94 48 -142t127 -48q83 0 133.5 48t50.5 142v245z
M494 763q0 -19 -23 -30l-138 -59l-5 7l94 87q26 24 44 24q13 0 20.5 -9.5t7.5 -19.5z" />
    <glyph glyph-name="Ucircumflex" unicode="&#xdb;" horiz-adv-x="716" 
d="M557 463q0 75 -17 95.5t-79 20.5v21h234v-21q-62 0 -79 -20.5t-17 -95.5v-240q0 -114 -68.5 -177t-172.5 -63t-172 63.5t-68 176.5v240q0 75 -16.5 95.5t-78.5 20.5v21h270v-21q-62 0 -78.5 -20.5t-16.5 -95.5v-245q0 -94 48 -142t127 -48q83 0 133.5 48t50.5 142v245z
M499 687l-12 -12l-107 76l-107 -76l-12 12l119 129z" />
    <glyph glyph-name="Udieresis" unicode="&#xdc;" horiz-adv-x="716" 
d="M557 463q0 75 -17 95.5t-79 20.5v21h234v-21q-62 0 -79 -20.5t-17 -95.5v-240q0 -114 -68.5 -177t-172.5 -63t-172 63.5t-68 176.5v240q0 75 -16.5 95.5t-78.5 20.5v21h270v-21q-62 0 -78.5 -20.5t-16.5 -95.5v-245q0 -94 48 -142t127 -48q83 0 133.5 48t50.5 142v245z
M285 753q17 0 28 -11.5t11 -27.5t-11.5 -27.5t-27.5 -11.5t-27.5 11.5t-11.5 27.5t11 27.5t28 11.5zM451 753q17 0 28 -11.5t11 -27.5t-11.5 -27.5t-27.5 -11.5t-27.5 11.5t-11.5 27.5t11 27.5t28 11.5z" />
    <glyph glyph-name="Yacute" unicode="&#xdd;" horiz-adv-x="625" 
d="M353 242v-104q0 -75 16.5 -96t78.5 -21v-21h-270v21q62 0 78.5 21t16.5 96v97l-166 257q-33 50 -63 68.5t-82 18.5v21h285v-21q-59 0 -69.5 -20.5t15.5 -55.5l144 -220l146 220q28 41 17.5 58.5t-71.5 17.5v21h234v-21q-58 0 -84.5 -18t-60.5 -69zM463 763q0 -16 -23 -30
l-137 -58l-5 7l93 87q27 24 44 24q13 0 20.5 -9.5t7.5 -20.5z" />
    <glyph glyph-name="Thorn" unicode="&#xde;" horiz-adv-x="550" 
d="M301 174q62 0 94.5 37t32.5 95t-32.5 95t-94.5 37h-88v-264h88zM133 475q0 66 -17.5 85t-77.5 19v21h270v-21q-60 0 -77.5 -19t-17.5 -85h89q99 0 157 -48.5t58 -120.5t-58 -120t-157 -48h-89q0 -75 16.5 -96t78.5 -21v-21h-270v21q62 0 78.5 21t16.5 96v337z" />
    <glyph glyph-name="germandbls" unicode="&#xdf;" horiz-adv-x="525" 
d="M117 429q0 95 46.5 141.5t114.5 46.5q57 0 94 -36.5t37 -86.5q0 -34 -14.5 -62.5t-32.5 -45t-32.5 -42.5t-14.5 -56q0 -36 61 -70l48 -26q69 -38 69 -100q0 -48 -34.5 -78.5t-84.5 -30.5q-18 0 -37 7t-30.5 13.5t-21 10t-13.5 -3.5t-4 -27h-21v146h21q0 -39 29.5 -75.5
t79.5 -36.5q25 0 40.5 15t15.5 41q0 18 -16 35.5t-39 29.5l-56 30q-34 17 -50.5 47t-16.5 61t14.5 61t32 50.5t32 51t14.5 63.5q0 35 -19 58.5t-52 23.5q-89 0 -89 -155v-429h-150v21q50 0 64.5 21t14.5 96v175h-79v20q45 0 62 17t17 79z" />
    <glyph glyph-name="agrave" unicode="&#xe0;" horiz-adv-x="403" 
d="M387 20q-29 -31 -66 -31q-60 0 -68 58q-67 -60 -125 -60q-38 0 -64 22.5t-26 61.5q0 105 213 142q0 59 -13 82t-54 23q-20 0 -38.5 -13t-18.5 -35q0 -15 -10 -25t-24 -10q-15 0 -25 10t-10 25q0 35 38.5 57.5t88.5 22.5q73 0 105 -32t32 -104v-151q0 -39 23 -39
q13 0 28 15zM251 80v102q-138 -32 -138 -99q0 -23 13.5 -37t33.5 -14q37 0 91 48zM239 415l-5 -7l-137 59q-24 11 -24 30q0 10 8 19.5t21 9.5q18 0 44 -23z" />
    <glyph glyph-name="aacute" unicode="&#xe1;" horiz-adv-x="403" 
d="M387 20q-29 -31 -66 -31q-60 0 -68 58q-67 -60 -125 -60q-38 0 -64 22.5t-26 61.5q0 105 213 142q0 59 -13 82t-54 23q-20 0 -38.5 -13t-18.5 -35q0 -15 -10 -25t-24 -10q-15 0 -25 10t-10 25q0 35 38.5 57.5t88.5 22.5q73 0 105 -32t32 -104v-151q0 -39 23 -39
q13 0 28 15zM251 80v102q-138 -32 -138 -99q0 -23 13.5 -37t33.5 -14q37 0 91 48zM306 497q0 -19 -23 -30l-138 -59l-5 7l93 88q26 23 45 23q13 0 20.5 -9.5t7.5 -19.5z" />
    <glyph glyph-name="acircumflex" unicode="&#xe2;" horiz-adv-x="403" 
d="M387 20q-29 -31 -66 -31q-60 0 -68 58q-67 -60 -125 -60q-38 0 -64 22.5t-26 61.5q0 105 213 142q0 59 -13 82t-54 23q-20 0 -38.5 -13t-18.5 -35q0 -15 -10 -25t-24 -10q-15 0 -25 10t-10 25q0 35 38.5 57.5t88.5 22.5q73 0 105 -32t32 -104v-151q0 -39 23 -39
q13 0 28 15zM251 80v102q-138 -32 -138 -99q0 -23 13.5 -37t33.5 -14q37 0 91 48zM305 420l-12 -12l-107 76l-107 -76l-12 12l119 129z" />
    <glyph glyph-name="atilde" unicode="&#xe3;" horiz-adv-x="403" 
d="M387 20q-29 -31 -66 -31q-60 0 -68 58q-67 -60 -125 -60q-38 0 -64 22.5t-26 61.5q0 105 213 142q0 59 -13 82t-54 23q-20 0 -38.5 -13t-18.5 -35q0 -15 -10 -25t-24 -10q-15 0 -25 10t-10 25q0 35 38.5 57.5t88.5 22.5q73 0 105 -32t32 -104v-151q0 -39 23 -39
q13 0 28 15zM251 80v102q-138 -32 -138 -99q0 -23 13.5 -37t33.5 -14q37 0 91 48zM253 460q30 0 43 48h16q0 -47 -19 -73.5t-50 -26.5q-18 0 -63.5 27.5t-59.5 27.5q-13 0 -25 -13t-17 -32h-15q0 42 18.5 69.5t45.5 27.5q21 0 65 -27.5t61 -27.5z" />
    <glyph glyph-name="adieresis" unicode="&#xe4;" horiz-adv-x="403" 
d="M387 20q-29 -31 -66 -31q-60 0 -68 58q-67 -60 -125 -60q-38 0 -64 22.5t-26 61.5q0 105 213 142q0 59 -13 82t-54 23q-20 0 -38.5 -13t-18.5 -35q0 -15 -10 -25t-24 -10q-15 0 -25 10t-10 25q0 35 38.5 57.5t88.5 22.5q73 0 105 -32t32 -104v-151q0 -39 23 -39
q13 0 28 15zM251 80v102q-138 -32 -138 -99q0 -23 13.5 -37t33.5 -14q37 0 91 48zM106 487q16 0 27.5 -11.5t11.5 -27.5q0 -17 -11.5 -28.5t-27.5 -11.5t-27.5 11.5t-11.5 28.5q0 16 11.5 27.5t27.5 11.5zM272 487q16 0 27.5 -11.5t11.5 -27.5t-11.5 -28t-27.5 -12
t-27.5 11.5t-11.5 28.5q0 16 11.5 27.5t27.5 11.5z" />
    <glyph glyph-name="aring" unicode="&#xe5;" horiz-adv-x="403" 
d="M387 20q-29 -31 -66 -31q-60 0 -68 58q-67 -60 -125 -60q-38 0 -64 22.5t-26 61.5q0 105 213 142q0 59 -13 82t-54 23q-20 0 -38.5 -13t-18.5 -35q0 -15 -10 -25t-24 -10q-15 0 -25 10t-10 25q0 35 38.5 57.5t88.5 22.5q73 0 105 -32t32 -104v-151q0 -39 23 -39
q13 0 28 15zM251 80v102q-138 -32 -138 -99q0 -23 13.5 -37t33.5 -14q37 0 91 48zM188 573q34 0 58.5 -24.5t24.5 -58.5t-24 -58t-59 -24q-34 0 -58 24t-24 58t24 58.5t58 24.5zM188 536q-19 0 -32 -13.5t-13 -32.5t13 -32.5t32 -13.5t32.5 13.5t13.5 32.5t-13.5 32.5
t-32.5 13.5z" />
    <glyph glyph-name="ae" unicode="&#xe6;" horiz-adv-x="624" 
d="M337 229h166q9 28 -8 54.5t-59 26.5q-76 0 -99 -81zM275 73q-27 -47 -61.5 -66.5t-85.5 -19.5q-38 0 -64 22.5t-26 61.5q0 105 213 142v1q0 59 -13 81.5t-54 22.5q-20 0 -38.5 -13t-18.5 -35q0 -15 -10 -25t-24 -10q-15 0 -25 10t-10 25q0 35 38.5 57.5t88.5 22.5
q92 0 121 -54q56 54 130 54q68 0 110.5 -47.5t25.5 -110.5h-242q-9 -74 24 -120.5t107 -46.5q25 0 57 13t53 33l17 -22q-27 -29 -68.5 -47.5t-83.5 -18.5q-109 0 -161 90zM251 104v78q-73 -17 -104.5 -40.5t-31.5 -63.5q0 -21 13 -33.5t32 -12.5q22 0 51 18t40 54z" />
    <glyph glyph-name="ccedilla" unicode="&#xe7;" horiz-adv-x="393" 
d="M191 -14q-67 10 -105 57t-38 115q0 83 56 137.5t121 54.5q59 0 89 -21t30 -51q0 -16 -10.5 -29.5t-33.5 -13.5q-16 0 -27.5 11.5t-11.5 28.5q0 43 -36 43q-40 0 -68 -46t-28 -114q0 -62 30.5 -97.5t90.5 -35.5q58 0 107 46l17 -22q-57 -61 -140 -66l-44 -44
q32 -2 58 -21.5t26 -56.5q0 -26 -17.5 -46.5t-44.5 -31.5t-47.5 -17t-36.5 -8v28q85 24 85 75q0 25 -32 34.5t-69 -2.5v14z" />
    <glyph glyph-name="egrave" unicode="&#xe8;" horiz-adv-x="422" 
d="M134 229h166q10 28 -8.5 54.5t-63.5 26.5q-32 0 -57.5 -22t-36.5 -59zM128 192q-9 -74 23.5 -120.5t106.5 -46.5q25 0 57 13t53 33l18 -22q-27 -29 -69 -47.5t-84 -18.5q-81 0 -133 53.5t-52 130.5t56.5 130t128.5 53q68 0 111 -47.5t25 -110.5h-241zM272 415l-5 -7
l-138 59q-23 11 -23 30q0 10 7.5 19.5t20.5 9.5q19 0 44 -23z" />
    <glyph glyph-name="eacute" unicode="&#xe9;" horiz-adv-x="422" 
d="M134 229h166q10 28 -8.5 54.5t-63.5 26.5q-32 0 -57.5 -22t-36.5 -59zM128 192q-9 -74 23.5 -120.5t106.5 -46.5q25 0 57 13t53 33l18 -22q-27 -29 -69 -47.5t-84 -18.5q-81 0 -133 53.5t-52 130.5t56.5 130t128.5 53q68 0 111 -47.5t25 -110.5h-241zM343 497
q0 -19 -24 -30l-137 -59l-5 7l93 88q26 23 44 23q13 0 21 -9.5t8 -19.5z" />
    <glyph glyph-name="ecircumflex" unicode="&#xea;" horiz-adv-x="422" 
d="M134 229h166q10 28 -8.5 54.5t-63.5 26.5q-32 0 -57.5 -22t-36.5 -59zM128 192q-9 -74 23.5 -120.5t106.5 -46.5q25 0 57 13t53 33l18 -22q-27 -29 -69 -47.5t-84 -18.5q-81 0 -133 53.5t-52 130.5t56.5 130t128.5 53q68 0 111 -47.5t25 -110.5h-241zM341 420l-13 -12
l-106 76l-107 -76l-12 12l119 129z" />
    <glyph glyph-name="edieresis" unicode="&#xeb;" horiz-adv-x="422" 
d="M134 229h166q10 28 -8.5 54.5t-63.5 26.5q-32 0 -57.5 -22t-36.5 -59zM128 192q-9 -74 23.5 -120.5t106.5 -46.5q25 0 57 13t53 33l18 -22q-27 -29 -69 -47.5t-84 -18.5q-81 0 -133 53.5t-52 130.5t56.5 130t128.5 53q68 0 111 -47.5t25 -110.5h-241zM141 487
q16 0 27.5 -11.5t11.5 -27.5q0 -17 -11.5 -28.5t-27.5 -11.5t-27.5 11.5t-11.5 28.5q0 16 11.5 27.5t27.5 11.5zM307 487q16 0 27.5 -11.5t11.5 -27.5t-11.5 -28t-27.5 -12t-27.5 11.5t-11.5 28.5q0 16 11.5 27.5t27.5 11.5z" />
    <glyph glyph-name="igrave" unicode="&#xec;" horiz-adv-x="286" 
d="M267 0h-229v21q50 0 64.5 21t14.5 96v50q0 74 -14.5 95t-64.5 21v21l150 25v-212q0 -75 14.5 -96t64.5 -21v-21zM178 415l-5 -7l-138 59q-23 11 -23 30q0 10 7.5 19.5t20.5 9.5q19 0 44 -23z" />
    <glyph glyph-name="iacute" unicode="&#xed;" horiz-adv-x="286" 
d="M267 0h-229v21q50 0 64.5 21t14.5 96v50q0 74 -14.5 95t-64.5 21v21l150 25v-212q0 -75 14.5 -96t64.5 -21v-21zM253 497q0 -19 -24 -30l-137 -59l-5 7l93 88q26 23 44 23q13 0 21 -9.5t8 -19.5z" />
    <glyph glyph-name="icircumflex" unicode="&#xee;" horiz-adv-x="286" 
d="M267 0h-229v21q50 0 64.5 21t14.5 96v50q0 74 -14.5 95t-64.5 21v21l150 25v-212q0 -75 14.5 -96t64.5 -21v-21zM257 419l-13 -11l-106 75l-107 -75l-13 11l120 129z" />
    <glyph glyph-name="idieresis" unicode="&#xef;" horiz-adv-x="286" 
d="M267 0h-229v21q50 0 64.5 21t14.5 96v50q0 74 -14.5 95t-64.5 21v21l150 25v-212q0 -75 14.5 -96t64.5 -21v-21zM53 487q16 0 28 -11.5t12 -27.5t-11.5 -28t-28.5 -12q-16 0 -27.5 12t-11.5 28t11.5 27.5t27.5 11.5zM219 487q16 0 27.5 -11.5t11.5 -27.5
q0 -17 -11.5 -28.5t-27.5 -11.5t-27.5 12t-11.5 28t11.5 27.5t27.5 11.5z" />
    <glyph glyph-name="eth" unicode="&#xf0;" horiz-adv-x="525" 
d="M390 244q-9 31 -47 52.5t-83 21.5q-62 0 -95.5 -43.5t-33.5 -102.5q0 -61 33.5 -105t95.5 -44q17 0 35.5 8t40.5 28.5t37 68t17 116.5zM326 586l81 60l28 -28q-77 -58 -78 -58q50 -50 78 -129.5t28 -164.5q0 -67 -14 -118.5t-35.5 -82t-49.5 -50t-53.5 -26t-50.5 -6.5
q-83 0 -142.5 55.5t-59.5 132.5t59.5 132t142.5 55q41 0 75.5 -16.5t53.5 -42.5q-5 150 -68 234l-136 -101l-27 28l135 101q-33 27 -75 27q-27 0 -51 -8t-38 -18t-26 -17.5t-21 -7t-17 13.5q-9 15 5 31t53.5 27t95.5 11q59 0 107 -34z" />
    <glyph glyph-name="ntilde" unicode="&#xf1;" horiz-adv-x="555" 
d="M188 278q57 72 139 72q65 0 97.5 -41t32.5 -108v-63q0 -75 14.5 -96t64.5 -21v-21h-229v21q49 0 64 21.5t15 95.5v58q0 107 -83 107q-43 0 -79 -30t-36 -70v-65q0 -77 12 -97t58 -20v-21h-220v21q50 0 64.5 21t14.5 96v50q0 74 -14.5 95t-64.5 21v21l133 25q9 -19 17 -72
zM340 460q32 0 43 48h16q0 -47 -18.5 -73.5t-50.5 -26.5q-18 0 -63 27.5t-59 27.5t-26 -13t-17 -32h-15q0 42 18.5 69.5t45.5 27.5q20 0 64 -27.5t62 -27.5z" />
    <glyph glyph-name="ograve" unicode="&#xf2;" horiz-adv-x="500" 
d="M452 167q0 -76 -59.5 -130t-142.5 -54t-142.5 54t-59.5 130t59.5 129.5t142.5 53.5t142.5 -53.5t59.5 -129.5zM371 167q0 64 -31 104.5t-90 40.5t-90 -41t-31 -104t31 -104t90 -41t90 40.5t31 104.5zM278 415l-5 -7l-137 59q-23 11 -23 30q0 10 7.5 19.5t20.5 9.5
q18 0 44 -23z" />
    <glyph glyph-name="oacute" unicode="&#xf3;" horiz-adv-x="500" 
d="M452 167q0 -76 -59.5 -130t-142.5 -54t-142.5 54t-59.5 130t59.5 129.5t142.5 53.5t142.5 -53.5t59.5 -129.5zM371 167q0 64 -31 104.5t-90 40.5t-90 -41t-31 -104t31 -104t90 -41t90 40.5t31 104.5zM356 497q0 -19 -23 -30l-138 -59l-5 7l93 88q26 23 45 23
q13 0 20.5 -9.5t7.5 -19.5z" />
    <glyph glyph-name="ocircumflex" unicode="&#xf4;" horiz-adv-x="500" 
d="M452 167q0 -76 -59.5 -130t-142.5 -54t-142.5 54t-59.5 130t59.5 129.5t142.5 53.5t142.5 -53.5t59.5 -129.5zM371 167q0 64 -31 104.5t-90 40.5t-90 -41t-31 -104t31 -104t90 -41t90 40.5t31 104.5zM368 420l-12 -12l-107 76l-106 -76l-13 12l119 129z" />
    <glyph glyph-name="otilde" unicode="&#xf5;" horiz-adv-x="500" 
d="M452 167q0 -76 -59.5 -130t-142.5 -54t-142.5 54t-59.5 130t59.5 129.5t142.5 53.5t142.5 -53.5t59.5 -129.5zM371 167q0 64 -31 104.5t-90 40.5t-90 -41t-31 -104t31 -104t90 -41t90 40.5t31 104.5zM311 460q32 0 43 48h16q0 -47 -18.5 -73.5t-50.5 -26.5
q-18 0 -63.5 27.5t-59.5 27.5q-13 0 -25 -13t-17 -32h-15q0 42 18.5 69.5t45.5 27.5q21 0 65 -27.5t61 -27.5z" />
    <glyph glyph-name="odieresis" unicode="&#xf6;" horiz-adv-x="500" 
d="M452 167q0 -76 -59.5 -130t-142.5 -54t-142.5 54t-59.5 130t59.5 129.5t142.5 53.5t142.5 -53.5t59.5 -129.5zM371 167q0 64 -31 104.5t-90 40.5t-90 -41t-31 -104t31 -104t90 -41t90 40.5t31 104.5zM167 487q16 0 27.5 -11.5t11.5 -27.5t-11.5 -28t-27.5 -12t-27.5 11.5
t-11.5 28.5q0 16 11.5 27.5t27.5 11.5zM333 487q16 0 27.5 -11.5t11.5 -27.5t-11.5 -28t-27.5 -12q-17 0 -28.5 12t-11.5 28t12 27.5t28 11.5z" />
    <glyph glyph-name="divide" unicode="&#xf7;" 
d="M408 199h-358v44h358v-44zM277 84q0 -19 -14.5 -33.5t-34.5 -14.5q-19 0 -32.5 14t-13.5 34t13.5 34.5t32.5 14.5q20 0 34.5 -14.5t14.5 -34.5zM277 358q0 -19 -15 -33.5t-34 -14.5t-32.5 14.5t-13.5 33.5q0 20 13.5 34.5t32.5 14.5q20 0 34.5 -14.5t14.5 -34.5z" />
    <glyph glyph-name="oslash" unicode="&#xf8;" horiz-adv-x="513" 
d="M343 276l-150 -242q24 -12 59 -12q63 0 96 40.5t33 104.5q0 68 -38 109zM160 58l151 241q-25 13 -59 13q-64 0 -96.5 -40.5t-32.5 -104.5q0 -72 37 -109zM135 18q-85 55 -85 149q0 76 59.5 129.5t142.5 53.5q41 0 81 -16l25 42l36 -18l-26 -42q39 -25 62 -64.5t23 -84.5
q0 -76 -59 -130t-142 -54q-42 0 -82 16l-26 -42l-36 18z" />
    <glyph glyph-name="ugrave" unicode="&#xf9;" horiz-adv-x="522" 
d="M503 8l-134 -25q-8 16 -16 64q-62 -64 -131 -64q-124 0 -124 150v63q0 75 -14.5 96t-64.5 21v20h150v-195q0 -107 76 -107q34 0 71 28.5t37 70.5v66q0 75 -14.5 96t-65.5 21v20h150v-187q0 -75 14.5 -96t65.5 -21v-21zM277 414l-5 -6l-138 58q-23 12 -23 30
q0 10 7.5 19.5t20.5 9.5q19 0 44 -23z" />
    <glyph glyph-name="uacute" unicode="&#xfa;" horiz-adv-x="522" 
d="M503 8l-134 -25q-8 16 -16 64q-62 -64 -131 -64q-124 0 -124 150v63q0 75 -14.5 96t-64.5 21v20h150v-195q0 -107 76 -107q34 0 71 28.5t37 70.5v66q0 75 -14.5 96t-65.5 21v20h150v-187q0 -75 14.5 -96t65.5 -21v-21zM354 496q0 -18 -23 -30l-138 -58l-5 6l94 88
q25 23 44 23q13 0 20.5 -9.5t7.5 -19.5z" />
    <glyph glyph-name="ucircumflex" unicode="&#xfb;" horiz-adv-x="522" 
d="M503 8l-134 -25q-8 16 -16 64q-62 -64 -131 -64q-124 0 -124 150v63q0 75 -14.5 96t-64.5 21v20h150v-195q0 -107 76 -107q34 0 71 28.5t37 70.5v66q0 75 -14.5 96t-65.5 21v20h150v-187q0 -75 14.5 -96t65.5 -21v-21zM350 420l-12 -12l-107 76l-107 -76l-12 12l119 129z
" />
    <glyph glyph-name="udieresis" unicode="&#xfc;" horiz-adv-x="522" 
d="M503 8l-134 -25q-8 16 -16 64q-62 -64 -131 -64q-124 0 -124 150v63q0 75 -14.5 96t-64.5 21v20h150v-195q0 -107 76 -107q34 0 71 28.5t37 70.5v66q0 75 -14.5 96t-65.5 21v20h150v-187q0 -75 14.5 -96t65.5 -21v-21zM162 487q16 0 27.5 -11.5t11.5 -27.5t-11.5 -28
t-27.5 -12t-27.5 11.5t-11.5 28.5q0 16 11.5 27.5t27.5 11.5zM328 487q16 0 27.5 -11.5t11.5 -27.5t-11.5 -28t-27.5 -12t-28 12t-12 28t12 27.5t28 11.5z" />
    <glyph glyph-name="yacute" unicode="&#xfd;" horiz-adv-x="373" 
d="M329 497q0 -19 -23 -30l-138 -59l-5 7l94 88q25 23 44 23q13 0 20.5 -9.5t7.5 -19.5zM48 -237q0 16 12 28.5l31.5 34t32.5 54.5l50 125l-115 249q-16 34 -30 46.5t-37 12.5v20h177v-20q-34 0 -41 -11t9 -48l73 -160l64 160q14 34 8 46.5t-37 12.5v20h140v-20
q-47 0 -71 -59l-195 -487q-15 -37 -37 -37q-13 0 -23.5 8t-10.5 25z" />
    <glyph glyph-name="thorn" unicode="&#xfe;" horiz-adv-x="513" 
d="M384 167q0 63 -29 103t-84 40q-34 0 -60.5 -21t-41.5 -57v-129q15 -37 41.5 -58.5t60.5 -21.5q55 0 84 40.5t29 103.5zM98 454q0 75 -14.5 96t-64.5 21v21l150 25v-327q50 60 123 60q71 0 122 -53.5t51 -129.5t-51 -130t-122 -54q-74 0 -123 60v-156q0 -74 14.5 -95
t64.5 -21v-21h-229v21q50 0 64.5 20.5t14.5 95.5v567z" />
    <glyph glyph-name="ydieresis" unicode="&#xff;" horiz-adv-x="373" 
d="M48 -237q0 16 12 28.5l31.5 34t32.5 54.5l50 125l-115 249q-16 34 -30 46.5t-37 12.5v20h177v-20q-34 0 -41 -11t9 -48l73 -160l64 160q14 34 8 46.5t-37 12.5v20h140v-20q-47 0 -71 -59l-195 -487q-15 -37 -37 -37q-13 0 -23.5 8t-10.5 25zM108 487q16 0 27.5 -11.5
t11.5 -27.5t-11.5 -28t-27.5 -12t-28 12t-12 28t12 27.5t28 11.5zM273 487q16 0 28 -11.5t12 -27.5t-11.5 -28t-28.5 -12q-16 0 -27.5 12t-11.5 28t11.5 27.5t27.5 11.5z" />
    <glyph glyph-name="dotlessi" unicode="&#x131;" horiz-adv-x="286" 
d="M267 0h-229v21q50 0 64.5 21t14.5 96v50q0 74 -14.5 95t-64.5 21v21l150 25v-212q0 -75 14.5 -96t64.5 -21v-21z" />
    <glyph glyph-name="Lslash" unicode="&#x141;" horiz-adv-x="575" 
d="M133 266l-70 -53l-25 29l95 71v150q0 75 -16.5 95.5t-78.5 20.5v21h270v-21q-62 0 -78.5 -20.5t-16.5 -95.5v-90l74 55l26 -29l-100 -74v-172q0 -75 16.5 -95.5t78.5 -20.5h120q64 0 84 16t31 60l5 20h21l-8 -133h-523v21q62 0 78.5 21t16.5 96v128z" />
    <glyph glyph-name="lslash" unicode="&#x142;" horiz-adv-x="263" 
d="M163 338v-200q0 -75 14.5 -96t64.5 -21v-21h-221v21q50 0 64.5 21t14.5 96v154l-85 -64l-25 29l110 82v115q0 75 -14.5 96t-64.5 21v21l142 25v-232l76 58l26 -29z" />
    <glyph glyph-name="OE" unicode="&#x152;" horiz-adv-x="918" 
d="M495 600h334l9 -132h-21l-5 20q-11 43 -31.5 59t-84.5 16h-148v-227h50q75 0 95.5 16.5t20.5 79.5h21v-229h-21q0 63 -20.5 79.5t-95.5 16.5h-50v-146q0 -75 16.5 -95.5t78.5 -20.5h86q64 0 85 16.5t31 59.5l5 20h21l-8 -133h-369q-51 -17 -106 -17q-138 0 -236 93
t-98 224t98 224t236 93q56 0 107 -17zM388 578q-62 0 -110 -25.5t-75 -67.5t-40.5 -89t-13.5 -96t13.5 -96t40.5 -88.5t75 -67t110 -25.5q41 0 80 13v528q-37 14 -80 14z" />
    <glyph glyph-name="oe" unicode="&#x153;" horiz-adv-x="744" 
d="M457 229h166q9 28 -8 54.5t-59 26.5q-76 0 -99 -81zM408 53q-62 -70 -158 -70q-83 0 -142.5 54t-59.5 130t59.5 129.5t142.5 53.5q99 0 160 -72q56 72 146 72q68 0 110.5 -47.5t25.5 -110.5h-242q-9 -74 24 -120.5t107 -46.5q25 0 57 13t53 33l17 -22
q-27 -29 -68.5 -47.5t-83.5 -18.5q-95 0 -148 70zM371 167q0 64 -31 104.5t-90 40.5t-90 -41t-31 -104t31 -104t90 -41t90 40.5t31 104.5z" />
    <glyph glyph-name="Scaron" unicode="&#x160;" horiz-adv-x="507" 
d="M111 30q-23 -19 -29 -47h-20v220h21q0 -4 0.5 -10.5t4 -25t10 -35.5t20.5 -38t32.5 -36t49 -25t67.5 -10q54 0 89.5 31t35.5 79q0 61 -115 121l-96 49q-47 25 -79 68t-32 97q0 63 47 106t119 43q66 0 122 -41q23 19 29 46h20v-220h-21q-15 175 -153 175
q-42 0 -69.5 -25.5t-27.5 -63.5q0 -37 26.5 -62.5t95.5 -61.5l95 -49q105 -53 105 -152q0 -80 -55.5 -130t-135.5 -50q-34 0 -65 10t-56 22.5t-35 14.5zM368 803l-119 -129l-119 129l13 12l106 -76l107 76z" />
    <glyph glyph-name="scaron" unicode="&#x161;" horiz-adv-x="340" 
d="M295 92q0 -48 -34.5 -78.5t-84.5 -30.5q-18 0 -37 7t-30.5 13.5t-21.5 10t-14 -3.5t-4 -27h-21v146h21q0 -39 30 -75.5t79 -36.5q24 0 40.5 15t16.5 36q0 31 -56 61l-56 30q-66 36 -66 100q0 39 30.5 65t70.5 26q34 0 70 -18q12 -7 16.5 -4.5t4.5 22.5h21v-116h-21
q0 33 -22.5 58.5t-58.5 25.5q-25 0 -38 -12t-13 -31q0 -17 13 -29.5t48 -31.5l48 -26q69 -39 69 -96zM287 537l-119 -129l-120 129l13 11l107 -75l106 75z" />
    <glyph glyph-name="Ydieresis" unicode="&#x178;" horiz-adv-x="625" 
d="M353 242v-104q0 -75 16.5 -96t78.5 -21v-21h-270v21q62 0 78.5 21t16.5 96v97l-166 257q-33 50 -63 68.5t-82 18.5v21h285v-21q-59 0 -69.5 -20.5t15.5 -55.5l144 -220l146 220q28 41 17.5 58.5t-71.5 17.5v21h234v-21q-58 0 -84.5 -18t-60.5 -69zM238 753q16 0 28 -11.5
t12 -28.5q0 -16 -12 -27.5t-28 -11.5t-27.5 11.5t-11.5 27.5t11.5 28t27.5 12zM404 753q16 0 27.5 -11.5t11.5 -28.5q0 -16 -11.5 -27.5t-27.5 -11.5t-27.5 11.5t-11.5 27.5t11.5 28t27.5 12z" />
    <glyph glyph-name="Zcaron" unicode="&#x17d;" horiz-adv-x="575" 
d="M380 563h-184q-45 0 -68.5 -9t-32 -22.5t-15.5 -43.5l-5 -20h-21l9 132h426v-12l-345 -551h225q45 0 68.5 9t32 23t15.5 44l5 20h21l-8 -133h-460v23zM390 803l-119 -129l-119 129l12 12l107 -76l107 76z" />
    <glyph glyph-name="zcaron" unicode="&#x17e;" horiz-adv-x="372" 
d="M324 333v-16l-191 -285h61q65 0 86 12.5t29 46.5l5 20h21l-7 -111h-290v17l190 285h-47q-65 0 -86 -12.5t-29 -46.5l-5 -20h-21l8 110h276zM303 537l-119 -129l-119 129l13 11l106 -75l107 75z" />
    <glyph glyph-name="florin" unicode="&#x192;" horiz-adv-x="316" 
d="M189 -78q0 -94 -42 -141.5t-104 -47.5q-71 0 -104 47q-24 33 -8 54q7 9 21 10q19 1 29 -10.5t13.5 -27t16.5 -28t37 -12.5q33 0 51.5 34t18.5 122v376h-81v35h81v96q0 95 48 141.5t117 46.5q65 0 91 -46q18 -33 0 -54q-8 -10 -25 -10q-16 0 -24.5 12t-12 26.5t-15 26.5
t-33.5 12q-39 0 -57 -35.5t-18 -119.5v-96h101v-35h-101v-376z" />
    <glyph glyph-name="circumflex" unicode="&#x2c6;" horiz-adv-x="342" 
d="M273 533l-13 -11l-107 76l-106 -76l-13 11l119 130z" />
    <glyph glyph-name="caron" unicode="&#x2c7;" horiz-adv-x="340" 
d="M260 665l-119 -129l-119 129l12 12l107 -76l107 76z" />
    <glyph glyph-name="breve" unicode="&#x2d8;" horiz-adv-x="308" 
d="M224 662q0 -41 -24.5 -65.5t-61.5 -24.5q-38 0 -62.5 25t-24.5 65h16q8 -21 27 -34.5t44 -13.5t44 13.5t26 34.5h16z" />
    <glyph glyph-name="dotaccent" unicode="&#x2d9;" horiz-adv-x="310" 
d="M121 662q16 0 27.5 -11.5t11.5 -27.5q0 -17 -11.5 -28.5t-27.5 -11.5t-27.5 11.5t-11.5 28.5q0 16 11.5 27.5t27.5 11.5z" />
    <glyph glyph-name="ring" unicode="&#x2da;" horiz-adv-x="223" 
d="M94 669q35 0 59 -24t24 -58q0 -35 -24.5 -59t-58.5 -24t-58 24t-24 59t24 58.5t58 23.5zM94 633q-19 0 -32.5 -13.5t-13.5 -32.5t13.5 -32.5t32.5 -13.5t32.5 13.5t13.5 32.5t-13.5 32.5t-32.5 13.5z" />
    <glyph glyph-name="ogonek" unicode="&#x2db;" horiz-adv-x="222" 
d="M192 -71q-4 -26 -25 -42t-50 -16q-30 0 -50 20.5t-20 49.5q0 36 33.5 60t69.5 13l8 -1l-5 -13h-7q-19 0 -35.5 -12.5t-16.5 -29.5q0 -19 11 -32t31 -13q30 0 41 23l7 15l7 -19z" />
    <glyph glyph-name="tilde" unicode="&#x2dc;" horiz-adv-x="300" 
d="M212 603q32 0 43 48h16q0 -47 -19 -73t-50 -26q-18 0 -63.5 27.5t-59.5 27.5q-13 0 -25 -13.5t-17 -32.5h-15q0 42 18.5 69.5t45.5 27.5q20 0 64 -27.5t62 -27.5z" />
    <glyph glyph-name="hungarumlaut" unicode="&#x2dd;" horiz-adv-x="328" 
d="M201 648q0 -18 -23 -30l-138 -59l-5 7l93 87q27 24 45 24q13 0 20.5 -9.5t7.5 -19.5zM318 648q0 -19 -24 -30l-137 -59l-5 7l93 87q27 24 44 24q13 0 21 -9.5t8 -19.5z" />
    <glyph glyph-name="pi" unicode="&#x3c0;" horiz-adv-x="488" 
d="M333 278v-218q0 -42 19 -42q8 0 19.5 8t16.5 15l4 -23q-27 -35 -59 -35q-26 0 -40.5 19.5t-14.5 50.5v225h-84l-19 -225q-7 -70 -49 -70q-27 0 -47 35l6 23q23 -30 33 -30q18 0 23 42l19 225h-49q-30 0 -38.5 -16.5t-2.5 -38.5l-17 -4q-22 48 -3.5 81t64.5 33h274
q55 0 40 55l18 4q21 -48 2.5 -81t-64.5 -33h-51z" />
    <glyph glyph-name="endash" unicode="&#x2013;" horiz-adv-x="525" 
d="M525 183h-526v44h526v-44z" />
    <glyph glyph-name="emdash" unicode="&#x2014;" horiz-adv-x="667" 
d="M667 183h-668v44h668v-44z" />
    <glyph glyph-name="quoteleft" unicode="&#x2018;" horiz-adv-x="251" 
d="M178 613q-49 -53 -57 -107q2 1 8 1q19 0 33 -14.5t14 -34.5q0 -19 -14 -33.5t-33 -14.5q-22 0 -38 16t-16 47q0 37 24 80.5t68 70.5z" />
    <glyph glyph-name="quoteright" unicode="&#x2019;" horiz-adv-x="251" 
d="M73 414q48 51 57 107q-2 -1 -8 -1q-19 0 -33 14.5t-14 33.5q0 20 14 34.5t33 14.5q22 0 38 -16.5t16 -47.5q0 -36 -24 -79.5t-68 -70.5z" />
    <glyph glyph-name="quotesinglbase" unicode="&#x201a;" horiz-adv-x="251" 
d="M73 -106q48 51 57 107q-2 -1 -8 -1q-19 0 -33 14.5t-14 33.5q0 20 14 34.5t33 14.5q22 0 38 -16.5t16 -47.5q0 -36 -24 -79.5t-68 -71.5z" />
    <glyph glyph-name="quotedblleft" unicode="&#x201c;" horiz-adv-x="418" 
d="M345 613q-50 -54 -57 -107q2 1 8 1q19 0 33 -14.5t14 -34.5q0 -19 -14 -33.5t-33 -14.5q-22 0 -38 16t-16 47q0 37 24 80.5t67 70.5zM178 613q-49 -53 -57 -107q2 1 8 1q19 0 33 -14.5t14 -34.5q0 -19 -14 -33.5t-33 -14.5q-22 0 -38 16t-16 47q0 37 24 80.5t68 70.5z
" />
    <glyph glyph-name="quotedblright" unicode="&#x201d;" horiz-adv-x="418" 
d="M130 521q-2 -1 -8 -1q-19 0 -33 14.5t-14 33.5q0 20 14 34.5t33 14.5q22 0 38 -16.5t16 -47.5q0 -36 -24 -79.5t-68 -70.5l-11 11q48 51 57 107zM297 521q-3 -1 -9 -1q-19 0 -32.5 14.5t-13.5 33.5q0 20 13.5 34.5t32.5 14.5q22 0 38.5 -16.5t16.5 -47.5q0 -36 -24 -79.5
t-68 -70.5l-12 11q49 51 58 107z" />
    <glyph glyph-name="quotedblbase" unicode="&#x201e;" horiz-adv-x="418" 
d="M130 1q-2 -1 -8 -1q-19 0 -33 14.5t-14 33.5q0 20 14 34.5t33 14.5q22 0 38 -16.5t16 -47.5q0 -36 -24 -79.5t-68 -71.5l-11 12q48 51 57 107zM297 1q-3 -1 -9 -1q-19 0 -32.5 14.5t-13.5 33.5q0 20 13.5 34.5t32.5 14.5q22 0 38.5 -16.5t16.5 -47.5q0 -36 -24 -79.5
t-68 -71.5l-12 12q49 51 58 107z" />
    <glyph glyph-name="dagger" unicode="&#x2020;" horiz-adv-x="448" 
d="M238 426l27 -203l-37 -410h-8l-37 410l28 204l-92 -30q-20 -7 -38.5 8t-18.5 38q0 22 18.5 37t38.5 8l94 -30l-35 101q-6 21 9 39.5t37 18.5t37 -18.5t9 -39.5l-34 -101l92 30q21 7 39.5 -8t18.5 -37q0 -23 -18.5 -38t-39.5 -8z" />
    <glyph glyph-name="daggerdbl" unicode="&#x2021;" horiz-adv-x="448" 
d="M386 -12q0 -21 -18.5 -36.5t-39.5 -9.5l-92 31l34 -101q6 -21 -9 -39.5t-37 -18.5t-37 18.5t-9 39.5l35 101l-94 -31q-20 -6 -38.5 9.5t-18.5 36.5q0 23 18.5 38t38.5 8l92 -30l-26 211l26 212l-92 -31q-20 -6 -38.5 9t-18.5 38q0 21 18.5 36.5t38.5 8.5l94 -31l-35 102
q-6 21 9 39.5t37 18.5t37 -18.5t9 -39.5l-34 -102l92 31q21 7 39.5 -8.5t18.5 -36.5q0 -23 -18.5 -38t-39.5 -9l-90 30l25 -210l-25 -211l90 29q21 7 39.5 -8t18.5 -38z" />
    <glyph glyph-name="bullet" unicode="&#x2022;" horiz-adv-x="270" 
d="M135 336q32 0 54.5 -22.5t22.5 -54.5t-22.5 -54t-54.5 -22t-54.5 22.5t-22.5 53.5q0 32 22.5 54.5t54.5 22.5z" />
    <glyph glyph-name="ellipsis" unicode="&#x2026;" horiz-adv-x="896" 
d="M194 40q0 -20 -14 -34t-34 -14q-19 0 -33 14t-14 34t14 34t33 14q20 0 34 -14t14 -34zM486 40q0 -19 -14.5 -33.5t-33.5 -14.5t-33 14t-14 34t14 34t33 14t33.5 -14.5t14.5 -33.5zM778 40q0 -19 -14.5 -33.5t-34.5 -14.5q-19 0 -32.5 14t-13.5 34t13.5 34t32.5 14
q20 0 34.5 -14.5t14.5 -33.5z" />
    <glyph glyph-name="perthousand" unicode="&#x2030;" horiz-adv-x="1133" 
d="M704 128q0 -59 -44 -101.5t-105 -42.5t-105 42.5t-44 101.5t44 101t105 42t105 -42t44 -101zM591 600l-383 -618l-36 18l383 618zM357 473q0 -58 -44 -100.5t-105 -42.5t-105.5 42t-44.5 101t44 101.5t106 42.5q61 0 105 -42.5t44 -101.5zM638 128q0 48 -21 79t-62 31
t-61.5 -31t-20.5 -79q0 -49 20.5 -79.5t61.5 -30.5t62 30.5t21 79.5zM290 473q0 48 -21 79t-61 31q-41 0 -62 -30.5t-21 -79.5q0 -48 21 -79t62 -31q40 0 61 31t21 79zM1075 128q0 -59 -44 -101.5t-105 -42.5t-105 42.5t-44 101.5t44 101t105 42t105 -42t44 -101zM1008 128
q0 48 -20.5 79t-61.5 31t-62 -31t-21 -79q0 -49 21 -79.5t62 -30.5t61.5 30.5t20.5 79.5z" />
    <glyph glyph-name="guilsinglleft" unicode="&#x2039;" horiz-adv-x="393" 
d="M324 5l-267 199l267 198l14 -19l-179 -180l179 -179z" />
    <glyph glyph-name="guilsinglright" unicode="&#x203a;" horiz-adv-x="393" 
d="M69 5l-14 19l179 179l-179 180l14 19l268 -198z" />
    <glyph glyph-name="fraction" unicode="&#x2044;" horiz-adv-x="281" 
d="M304 604l-287 -622l-40 14l287 622z" />
    <glyph glyph-name="zerosuperior" unicode="&#x2070;" horiz-adv-x="392" 
d="M335 583q0 -74 -40.5 -127t-97.5 -53q-58 0 -98.5 53t-40.5 127t40.5 127t98.5 53q57 0 97.5 -53t40.5 -127zM267 583q0 64 -18 106.5t-52 42.5q-35 0 -52.5 -42t-17.5 -107q0 -64 17.5 -106t52.5 -42q34 0 52 42t18 106z" />
    <glyph glyph-name="foursuperior" unicode="&#x2074;" horiz-adv-x="375" 
d="M323 618l-5 -105h-75q0 -47 11 -62t48 -15v-19h-178v19q37 0 48.5 15t11.5 62h-152v18l186 238h25v-221q46 0 58 53l4 17h18zM184 548v128l-100 -128h100z" />
    <glyph glyph-name="fivesuperior" unicode="&#x2075;" horiz-adv-x="375" 
d="M322 523q0 -49 -43 -84t-103 -35q-53 0 -84.5 22.5t-31.5 46.5q0 23 23 23q9 0 16 -9.5t12.5 -21.5t22 -21.5t42.5 -9.5q38 0 59 26.5t21 62.5q0 37 -18 62t-55 25q-25 0 -46.5 -16t-28.5 -43h-37l22 199h213l-10 -55h-171l-7 -81q9 11 29.5 20t43.5 9q55 0 93 -35
t38 -85z" />
    <glyph glyph-name="sixsuperior" unicode="&#x2076;" horiz-adv-x="375" 
d="M322 513q0 -45 -37.5 -77t-89.5 -32q-21 0 -43.5 7.5t-45.5 24.5t-37.5 51t-14.5 81q0 77 40.5 136t108.5 59q42 0 71 -15.5t29 -33.5q0 -22 -23 -22q-6 0 -27.5 19t-48.5 19q-37 0 -58.5 -40.5t-26.5 -96.5q30 30 77 30q53 0 89.5 -32.5t36.5 -77.5zM258 513
q0 28 -19.5 53t-50.5 25q-23 0 -43 -11t-27 -27q1 -54 24 -86t53 -32t46.5 24.5t16.5 53.5z" />
    <glyph glyph-name="sevensuperior" unicode="&#x2077;" horiz-adv-x="358" 
d="M309 726l-114 -284q-18 -45 -52 -39q-12 3 -18 17.5t6 40.5l130 234h-118q-57 0 -65 -38l-4 -19h-21l20 112h236v-24z" />
    <glyph glyph-name="eightsuperior" unicode="&#x2078;" horiz-adv-x="375" 
d="M326 508q0 -43 -40.5 -73.5t-97.5 -30.5t-96.5 28t-39.5 71q0 61 81 93q-63 37 -63 77q0 37 35 63.5t83 26.5q49 0 84 -23t35 -59q0 -47 -73 -77q43 -18 67.5 -39.5t24.5 -56.5zM245 682q0 20 -16.5 35.5t-40.5 15.5t-40.5 -14.5t-16.5 -36.5q0 -13 11.5 -25.5t22.5 -19
t32 -16.5q48 23 48 61zM264 499q0 17 -14.5 32t-29 23t-42.5 20q-6 3 -9 4q-57 -29 -57 -79q0 -25 21.5 -45t54.5 -20q34 0 55 20t21 45z" />
    <glyph glyph-name="ninesuperior" unicode="&#x2079;" horiz-adv-x="375" 
d="M54 653q0 45 37.5 77t89.5 32q21 0 43.5 -7.5t45.5 -24.5t37.5 -51t14.5 -81q0 -77 -40.5 -136t-108.5 -59q-42 0 -71 15.5t-29 33.5q0 22 23 22q6 0 28 -19t48 -19q37 0 58.5 40.5t26.5 96.5q-30 -30 -77 -30q-53 0 -89.5 32.5t-36.5 77.5zM118 653q0 -28 19.5 -53
t50.5 -25q23 0 43 11t27 27q-1 54 -24 86t-53 32t-46.5 -24.5t-16.5 -53.5z" />
    <glyph glyph-name="nsuperior" unicode="&#x207f;" horiz-adv-x="403" 
d="M391 230h-172v22q36 0 46.5 14.5t10.5 66.5v41q0 36 -13.5 55t-48.5 19q-23 0 -48.5 -19.5t-25.5 -48.5v-47q0 -54 8.5 -67.5t42.5 -13.5v-22h-166v22q37 0 47.5 14.5t10.5 66.5v35q0 52 -10.5 66.5t-47.5 14.5v21l103 19q7 -17 11 -48q43 47 98 47q48 0 72.5 -30
t24.5 -80v-45q0 -52 10 -66.5t47 -14.5v-22z" />
    <glyph glyph-name="zeroinferior" unicode="&#x2080;" horiz-adv-x="392" 
d="M335 17q0 -74 -40.5 -127t-97.5 -53q-58 0 -98.5 53t-40.5 127t40.5 127t98.5 53q57 0 97.5 -53t40.5 -127zM267 17q0 64 -18 106t-52 42q-35 0 -52.5 -41.5t-17.5 -106.5q0 -64 17.5 -106.5t52.5 -42.5q34 0 52 42.5t18 106.5z" />
    <glyph glyph-name="oneinferior" unicode="&#x2081;" horiz-adv-x="325" 
d="M129 72q0 51 -14 64.5t-58 12.5v22l141 27v-245q0 -54 11.5 -69t53.5 -15v-19h-199v19q42 0 53.5 15t11.5 69v119z" />
    <glyph glyph-name="twoinferior" unicode="&#x2082;" horiz-adv-x="375" 
d="M322 -96l-11 -54h-257v23l147 124q27 23 36.5 42.5t9.5 48.5q0 30 -20 48t-54 18q-40 0 -58.5 -31t8.5 -78l-30 -26q-43 28 -46.5 70t32 73t95.5 31q56 0 96 -28.5t40 -74.5q0 -59 -66 -107l-105 -79h183z" />
    <glyph glyph-name="threeinferior" unicode="&#x2083;" horiz-adv-x="375" 
d="M253 129h-105q-57 0 -65 -39l-5 -18h-20l19 111h238v-26l-89 -99q42 -11 69.5 -41.5t27.5 -66.5q0 -46 -40.5 -79.5t-99.5 -33.5q-54 0 -87.5 24t-33.5 47q0 21 22 21q9 0 17 -9.5t14.5 -20.5t24 -20.5t43.5 -9.5q37 0 55.5 23.5t18.5 57.5q0 28 -16.5 49.5t-44.5 26.5
q-2 -2 -7.5 -9.5t-10.5 -13.5q-11 -18 -25 -18t-18.5 12.5t8.5 25.5z" />
    <glyph glyph-name="fourinferior" unicode="&#x2084;" horiz-adv-x="375" 
d="M323 52l-5 -106h-75q0 -47 11 -62t48 -15v-19h-178v19q37 0 48.5 14.5t11.5 62.5h-152v18l186 239h25v-222q23 1 37.5 12.5t20.5 40.5l4 18h18zM184 -19v128l-100 -128h100z" />
    <glyph glyph-name="fiveinferior" unicode="&#x2085;" horiz-adv-x="375" 
d="M322 -43q0 -49 -43 -84.5t-103 -35.5q-54 0 -85 22.5t-31 47.5q0 9 6 15.5t17 6.5q9 0 16 -9.5t12.5 -21t22 -21t42.5 -9.5q38 0 59 26.5t21 62.5q0 37 -18 61.5t-55 24.5q-25 0 -46.5 -16t-28.5 -43h-37l22 199h213l-10 -55h-171l-7 -80q9 11 30 20t43 9q55 0 93 -35
t38 -85z" />
    <glyph glyph-name="sixinferior" unicode="&#x2086;" horiz-adv-x="375" 
d="M322 -54q0 -44 -37.5 -76.5t-89.5 -32.5q-21 0 -43.5 7.5t-45.5 24.5t-37.5 51t-14.5 81q0 77 40.5 136.5t108.5 59.5q42 0 71 -16t29 -33q0 -23 -23 -23q-6 0 -27.5 19t-48.5 19q-37 0 -58.5 -40.5t-26.5 -95.5q31 29 77 29q53 0 89.5 -32t36.5 -78zM258 -54
q0 28 -19.5 53t-50.5 25q-23 0 -43 -11t-27 -27q1 -54 24 -86t53 -32t46.5 24.5t16.5 53.5z" />
    <glyph glyph-name="seveninferior" unicode="&#x2087;" horiz-adv-x="358" 
d="M309 159l-114 -284q-18 -46 -52 -38q-12 2 -18 16.5t6 40.5l130 234h-118q-57 0 -65 -38l-4 -18h-21l20 111h236v-24z" />
    <glyph glyph-name="eightinferior" unicode="&#x2088;" horiz-adv-x="375" 
d="M326 -59q0 -43 -40.5 -73.5t-97.5 -30.5t-96.5 28t-39.5 71q0 61 81 93q-63 37 -63 78q0 37 35 63t83 26q49 0 84 -23t35 -59q0 -48 -73 -76q43 -18 67.5 -40t24.5 -57zM245 115q0 20 -16.5 35.5t-40.5 15.5t-40.5 -14.5t-16.5 -36.5q0 -28 66 -61q48 23 48 61zM264 -67
q0 6 -1.5 12t-5.5 11.5t-7.5 9.5t-11 9t-11.5 8t-14 8t-14 6.5t-15.5 7t-14.5 6.5q-57 -29 -57 -78q0 -25 21 -45t55 -20t55 19.5t21 45.5z" />
    <glyph glyph-name="nineinferior" unicode="&#x2089;" horiz-adv-x="375" 
d="M54 87q0 44 37.5 76t89.5 32q21 0 43.5 -7.5t45.5 -24.5t37.5 -51t14.5 -80q0 -77 -40.5 -136.5t-108.5 -59.5q-42 0 -71 15.5t-29 33.5q0 23 23 23q7 0 16.5 -10t24.5 -19.5t35 -9.5q37 0 58.5 41t26.5 96q-29 -29 -77 -29q-53 0 -89.5 32.5t-36.5 77.5zM118 87
q0 -29 19.5 -54t50.5 -25q23 0 43 11t27 28q-1 54 -24 85.5t-53 31.5t-46.5 -24t-16.5 -53z" />
    <glyph glyph-name="Euro" unicode="&#x20ac;" horiz-adv-x="554" 
d="M302 -17q-84 0 -144 64.5t-79 167.5h-61v45h55q-2 26 -2 40q0 6 1 20t1 20h-55v44h61q19 103 79 168t144 65q85 0 138 -72q23 19 28 52h20v-207h-21q-36 188 -155 188q-66 0 -102 -54t-47 -140h194v-44h-198q-1 -13 -1 -40t1 -40h198v-45h-194q11 -86 47 -139t102 -53
q119 0 155 187h21v-208h-20q-6 35 -28 53q-51 -72 -138 -72z" />
    <glyph glyph-name="trademark" unicode="&#x2122;" horiz-adv-x="973" 
d="M191 568h-48q-56 0 -73.5 -11.5t-26.5 -43.5l-5 -19h-17l6 106h384l7 -106h-19l-4 19q-7 32 -25.5 43.5t-74.5 11.5h-47v-224q0 -64 12.5 -82.5t56.5 -18.5v-17h-194v17q43 0 55.5 18.5t12.5 82.5v224zM559 517v-173q0 -64 12.5 -82.5t56.5 -18.5v-17h-170v17
q44 0 56.5 18.5t12.5 82.5v138q0 64 -12.5 82.5t-56.5 18.5v17h129l125 -292l126 292h116v-17q-43 0 -55 -18.5t-12 -82.5v-138q0 -64 12 -82.5t55 -18.5v-17h-193v17q43 0 55.5 18.5t12.5 82.5v160l-126 -292h-12z" />
    <glyph glyph-name="Omega" unicode="&#x2126;" horiz-adv-x="575" 
d="M338 204q100 30 100 177q0 33 -6.5 62t-21.5 58t-46.5 46t-75.5 17q-45 0 -76.5 -17t-47 -46t-22 -58t-6.5 -62q0 -147 100 -177v-204h-163l-6 158h24l3 -20q8 -44 24 -60t64 -16h17v109q-64 26 -102.5 83t-38.5 124q0 90 65.5 157.5t164.5 67.5q98 0 163.5 -67.5
t65.5 -157.5q0 -66 -39 -123.5t-102 -82.5v-110h17q49 0 64.5 16t23.5 60l3 20h24l-6 -158h-164v204z" />
    <glyph glyph-name="onethird" unicode="&#x2153;" horiz-adv-x="853" 
d="M628 600l-384 -618l-36 18l384 618zM781 92q0 -45 -36.5 -77t-91.5 -32q-48 0 -78.5 23.5t-30.5 45.5q0 18 20 18q8 0 15 -9t13 -19.5t22 -19.5t39 -9q34 0 52 23.5t18 55.5q0 26 -15.5 47t-41.5 25q-4 -4 -16 -22q-9 -17 -24 -17q-12 0 -16.5 11.5t7.5 24.5l99 104h-89
q-54 0 -63 -37l-5 -18h-20l19 103h215v-23l-79 -94q38 -13 62.5 -41.5t24.5 -62.5zM270 287h-172v19q37 0 47.5 14.5t10.5 66.5v115q0 49 -14 62.5t-55 12.5v18l126 26v-234q0 -52 10.5 -66.5t46.5 -14.5v-19z" />
    <glyph glyph-name="twothirds" unicode="&#x2154;" horiz-adv-x="853" 
d="M636 600l-383 -618l-36 18l383 618zM789 92q0 -45 -36.5 -77t-90.5 -32q-49 0 -79 23t-30 46q0 18 20 18q9 0 17.5 -14t25 -28.5t46.5 -14.5q34 0 52 23.5t18 55.5q0 26 -16 47t-42 25q-4 -4 -16 -22q-9 -17 -24 -17q-12 0 -16.5 11.5t7.5 24.5l99 104h-89q-55 0 -62 -37
l-5 -18h-20l18 103h216v-23l-79 -94q38 -13 62 -42t24 -62zM314 335l-9 -48h-233v22l132 119q25 22 34.5 40.5t9.5 46.5q0 29 -18.5 46.5t-50.5 17.5q-36 0 -54 -30t8 -75l-26 -25q-39 27 -42.5 67t29 70.5t87.5 30.5q50 0 86.5 -27.5t36.5 -71.5q0 -53 -60 -104l-89 -79
h159z" />
    <glyph glyph-name="oneeighth" unicode="&#x215b;" horiz-adv-x="853" 
d="M628 600l-384 -618l-36 18l384 618zM799 83q0 -41 -38 -70.5t-93 -29.5q-54 0 -92 29.5t-38 70.5q0 34 20 53t58 33q-60 36 -60 75q0 36 33 61t79 25q47 0 80 -25t33 -61q0 -23 -17.5 -37.5t-50.5 -28.5q41 -18 63.5 -39.5t22.5 -55.5zM725 253q0 18 -16.5 33t-40.5 15
q-23 0 -39.5 -15t-16.5 -33q0 -13 11.5 -25t22.5 -18.5t32 -16.5q47 23 47 60zM743 75q0 16 -14.5 31t-28 22t-41.5 19q-6 3 -9 4q-57 -28 -57 -76q0 -25 21 -44t54 -19q34 0 54.5 19t20.5 44zM270 287h-172v19q37 0 47.5 14.5t10.5 66.5v115q0 49 -14 62.5t-55 12.5v18
l126 26v-234q0 -52 10.5 -66.5t46.5 -14.5v-19z" />
    <glyph glyph-name="threeeighths" unicode="&#x215c;" horiz-adv-x="853" 
d="M636 600l-383 -618l-36 18l383 618zM791 83q0 -41 -38 -70.5t-93 -29.5q-54 0 -92.5 29.5t-38.5 70.5q0 34 20.5 53t58.5 33q-60 36 -60 75q0 36 32.5 61t79.5 25t80 -25t33 -61q0 -23 -18 -37.5t-51 -28.5q41 -18 64 -39.5t23 -55.5zM717 253q0 18 -16.5 33t-40.5 15
q-23 0 -40 -15t-17 -33q0 -13 11.5 -25t22.5 -18.5t32 -16.5q48 24 48 60zM735 75q0 16 -14.5 31t-28 22t-41.5 19q-6 3 -9 4q-57 -28 -57 -76q0 -25 20.5 -44t54.5 -19t54.5 19t20.5 44zM306 378q0 -44 -36.5 -76t-91.5 -32q-49 0 -79 23t-30 45q0 19 20 19q8 0 15 -9
t13 -19.5t22 -19.5t39 -9q34 0 52 23t18 55q0 27 -15.5 47.5t-41.5 25.5q-5 -5 -16 -23q-9 -16 -24 -16q-12 0 -16.5 11t7.5 25l99 104h-89q-54 0 -63 -38l-5 -17h-20l19 103h215v-23l-79 -94q38 -13 62.5 -42t24.5 -63z" />
    <glyph glyph-name="fiveeighths" unicode="&#x215d;" horiz-adv-x="853" 
d="M313 385q0 -47 -39 -81t-94 -34q-67 0 -96 41q-19 27 -3 41q6 5 16 5q8 0 14 -9t11 -20t20 -20t38 -9q34 0 54.5 26t20.5 60q0 35 -18 59t-51 24q-22 0 -41.5 -15.5t-26.5 -40.5h-33l18 188h195l-10 -48h-154l-7 -78q22 26 59 26q56 0 91.5 -33.5t35.5 -81.5zM636 600
l-383 -618l-36 18l383 618zM791 83q0 -41 -38 -70.5t-93 -29.5q-54 0 -92.5 29.5t-38.5 70.5q0 34 20.5 53t58.5 33q-60 36 -60 75q0 36 32.5 61t79.5 25t80 -25t33 -61q0 -23 -18 -37.5t-51 -28.5q41 -18 64 -39.5t23 -55.5zM717 253q0 18 -16.5 33t-40.5 15q-23 0 -40 -15
t-17 -33q0 -13 11.5 -25t22.5 -18.5t32 -16.5q48 24 48 60zM735 75q0 16 -14.5 31t-28 22t-41.5 19q-6 3 -9 4q-57 -28 -57 -76q0 -25 20.5 -44t54.5 -19t54.5 19t20.5 44z" />
    <glyph glyph-name="seveneighths" unicode="&#x215e;" horiz-adv-x="853" 
d="M342 577l-139 -277q-10 -21 -19.5 -29t-25.5 -4q-12 4 -16.5 15.5t7.5 35.5l149 234h-129q-53 0 -62 -38l-4 -17h-24l19 103h244v-23zM628 600l-384 -618l-36 18l384 618zM791 83q0 -41 -38 -70.5t-93 -29.5q-54 0 -92.5 29.5t-38.5 70.5q0 34 20.5 53t58.5 33
q-60 36 -60 75q0 36 32.5 61t79.5 25t80 -25t33 -61q0 -23 -18 -37.5t-51 -28.5q41 -18 64 -39.5t23 -55.5zM717 253q0 18 -16.5 33t-40.5 15q-23 0 -40 -15t-17 -33q0 -13 11.5 -25t22.5 -18.5t32 -16.5q48 24 48 60zM735 75q0 16 -14.5 31t-28 22t-41.5 19q-6 3 -9 4
q-57 -28 -57 -76q0 -25 20.5 -44t54.5 -19t54.5 19t20.5 44z" />
    <glyph glyph-name="arrowleft" unicode="&#x2190;" horiz-adv-x="667" 
d="M608 220q0 -17 -14.5 -29t-30.5 -8l-82 28l25 -74q5 -16 -7 -31t-30 -15q-17 0 -29 15t-7 31l23 72l-163 -21l-106 21v23l106 21l164 -22l-24 73q-5 16 7 31t29 15q18 0 30 -15t7 -31l-25 -75l82 28q16 4 30.5 -8t14.5 -29zM263 46l-25 -17l-184 192l184 191l25 -17
l-110 -163v-23z" />
    <glyph glyph-name="arrowup" unicode="&#x2191;" horiz-adv-x="667" 
d="M345 503l21 -107l-22 -163l74 24q16 4 30.5 -8t14.5 -29t-14.5 -29t-30.5 -8l-75 25l27 -81q5 -17 -7 -31.5t-30 -14.5t-29.5 14.5t-6.5 31.5l27 81l-74 -25q-16 -4 -31 8t-15 29t15 29t31 8l73 -24l-22 163l22 107h22zM525 452l-17 -25l-163 109h-22l-164 -109l-16 25
l191 183z" />
    <glyph glyph-name="arrowright" unicode="&#x2192;" horiz-adv-x="667" 
d="M613 220l-184 -192l-25 17l109 163v23l-109 163l25 17zM480 208l-107 -21l-162 21l23 -72q5 -16 -7 -31t-29 -15q-18 0 -30 15t-7 31l25 74l-82 -27q-16 -5 -31 7t-15 29q0 18 15 30t31 7l82 -28l-25 75q-5 16 7 31t30 15q17 0 29 -15t7 -31l-24 -73l163 22l107 -21v-23z
" />
    <glyph glyph-name="arrowdown" unicode="&#x2193;" horiz-adv-x="667" 
d="M463 220q0 -17 -14.5 -29t-30.5 -8l-74 25l22 -164l-21 -107h-22l-22 107l22 163l-73 -24q-16 -4 -31 8t-15 29t15 29t31 8l74 -25l-27 81q-5 17 6.5 31.5t29.5 14.5t30 -14.5t7 -31.5l-27 -81l75 25q16 4 30.5 -8t14.5 -29zM525 -12l-191 -183l-191 183l16 25l164 -109
h22l163 109z" />
    <glyph glyph-name="partialdiff" unicode="&#x2202;" horiz-adv-x="525" 
d="M463 266q0 -67 -14 -118.5t-35.5 -82t-49.5 -50t-53.5 -26t-50.5 -6.5q-83 0 -142.5 55.5t-59.5 132.5t59.5 132t142.5 55q78 0 121 -59q-12 289 -149 289q-24 0 -43 -9.5t-29 -21.5t-21 -23t-18.5 -14.5t-22.5 3.5q-29 18 0 49q37 39 111 47q12 1 24 1q73 0 127 -54
t78.5 -132.5t24.5 -167.5zM382 244q-9 32 -43.5 53t-78.5 21q-61 0 -91 -42.5t-30 -103.5q0 -62 30 -105.5t91 -43.5q13 0 26 4t30.5 18t31 36.5t23.5 64.5t11 98z" />
    <glyph glyph-name="Delta" unicode="&#x2206;" horiz-adv-x="557" 
d="M107 43h317l-155 442zM45 0l228 617h21l218 -617h-467z" />
    <glyph glyph-name="product" unicode="&#x220f;" horiz-adv-x="692" 
d="M208 556v-418q0 -75 17 -96t79 -21v-21h-266v21q62 0 78.5 21t16.5 96v325q0 75 -16.5 95.5t-78.5 20.5v21h616v-21q-62 0 -79 -20.5t-17 -95.5v-325q0 -75 17 -96t79 -21v-21h-266v21q62 0 78.5 21t16.5 96v418h-275z" />
    <glyph glyph-name="summation" unicode="&#x2211;" horiz-adv-x="598" 
d="M49 -170v17l240 386l-238 350v17h482l9 -132h-21l-5 20q-7 30 -15.5 43.5t-32 22.5t-68.5 9h-258l234 -344l-219 -352h268q45 0 68.5 9t32 22.5t15.5 43.5l5 20h21l-9 -132h-509z" />
    <glyph glyph-name="minus" unicode="&#x2212;" 
d="M375 203h-292v53h292v-53z" />
    <glyph glyph-name="radical" unicode="&#x221a;" horiz-adv-x="549" 
d="M135 268l55 26l83 -205l242 652h41l-284 -763h-15z" />
    <glyph glyph-name="infinity" unicode="&#x221e;" horiz-adv-x="713" 
d="M668 223q0 -55 -37.5 -92.5t-97.5 -37.5q-38 0 -87.5 30.5t-87.5 69.5q-40 -39 -90 -69.5t-87 -30.5q-61 0 -98.5 37.5t-37.5 92.5q0 56 37.5 93.5t98.5 37.5q37 0 87 -31t90 -70q38 39 87.5 70t87.5 31q60 0 97.5 -37.5t37.5 -93.5zM618 223q0 36 -23 60.5t-59 24.5
q-20 0 -58 -21t-66 -43l-27 -21q105 -85 151 -85q35 0 58.5 25t23.5 60zM313 223q-10 10 -26 24t-52.5 37.5t-56.5 23.5q-36 0 -59.5 -24.5t-23.5 -60.5q0 -35 23.5 -60t59.5 -25q20 0 54 21t58 43z" />
    <glyph glyph-name="integral" unicode="&#x222b;" horiz-adv-x="251" 
d="M157 -78q0 -94 -42.5 -141.5t-104.5 -47.5q-71 0 -104 47q-23 33 -7 54q7 9 21 10q18 1 28 -10.5t13.5 -27t16.5 -28t37 -12.5q71 0 71 156v507q0 95 47.5 141.5t116.5 46.5q65 0 91 -46q19 -33 1 -54q-8 -10 -25 -10q-16 0 -25 12t-12 26.5t-15 26.5t-33 12
q-39 0 -57 -35.5t-18 -119.5v-507z" />
    <glyph glyph-name="approxequal" unicode="&#x2248;" 
d="M95 311q28 33 67 33q20 0 66 -16.5t67 -16.5q17 0 33.5 8.5t25.5 16.5l8 8v-50q-28 -33 -67 -33q-20 0 -66 16.5t-67 16.5q-17 0 -33.5 -8t-24.5 -16l-9 -9v50zM95 178q28 33 67 33q20 0 66 -16.5t67 -16.5q17 0 33.5 8t25.5 16l8 9v-50q-28 -33 -67 -33q-20 0 -66 16.5
t-67 16.5q-17 0 -33.5 -8.5t-24.5 -16.5l-9 -8v50z" />
    <glyph glyph-name="notequal" unicode="&#x2260;" 
d="M311 310h64v-44h-96l-56 -81h152v-44h-183l-77 -108l-32 18l64 90h-64v44h95l57 81h-152v44h183l77 109l32 -19z" />
    <glyph glyph-name="lessequal" unicode="&#x2264;" 
d="M408 38v-38h-358v38h358zM369 123l-11 -21l-308 166l308 165l11 -20l-204 -145z" />
    <glyph glyph-name="greaterequal" unicode="&#x2265;" 
d="M89 123l204 145l-204 145l12 20l307 -165l-307 -166zM50 38h358v-38h-358v38z" />
    <glyph glyph-name="lozenge" unicode="&#x25ca;" horiz-adv-x="494" 
d="M250 626l192 -331l-192 -341l-192 341zM250 34l143 262l-143 251l-144 -251z" />
    <glyph glyph-name="CR" unicode="&#xf002;" horiz-adv-x="233" 
 />
    <glyph glyph-name="nbspace" unicode="&#xf003;" horiz-adv-x="233" 
 />
    <glyph glyph-name="DLE" unicode="&#xf004;" horiz-adv-x="500" 
d="M133 298l-45 45l34 35l7.5 -7.5l14.5 -15t16 -17.5l7 -6q37 26 81 26q42 0 80 -25l45 45l35 -34l-46 -46q25 -36 25 -80t-25 -80l46 -46l-35 -34l-45 46q-36 -25 -80 -25q-46 0 -80 25l-46 -46l-34 35l45 45q-25 37 -25 80q0 42 25 80zM248 304q-36 0 -61 -25.5
t-25 -60.5t25 -60t61 -25q35 0 60 25t25 60t-25 60.5t-60 25.5z" />
    <glyph glyph-name="published" unicode="&#xf005;" horiz-adv-x="683" 
d="M444 383q0 34 -18.5 56.5t-52.5 22.5h-62v-157h62q34 0 52.5 22.5t18.5 55.5zM374 273h-63v-45q0 -67 13 -86t58 -19v-18h-202v18q45 0 58.5 19t13.5 86v144q0 67 -13.5 86t-58.5 19v18h194q62 0 99 -31.5t37 -80.5q0 -48 -37 -79t-99 -31zM342 617q131 0 223.5 -93
t92.5 -224t-92.5 -224t-223.5 -93t-224 93t-93 224t93 224t224 93zM342 585q-118 0 -201.5 -83.5t-83.5 -201.5t83.5 -201.5t201.5 -83.5t201.5 83.5t83.5 201.5t-83.5 201.5t-201.5 83.5z" />
    <glyph glyph-name="quotedblleft.alt" unicode="&#xf006;" horiz-adv-x="418" 
d="M345 414l-12 -11q-43 27 -67 70.5t-24 79.5q0 31 16 47.5t38 16.5q19 0 33 -14.5t14 -34.5q0 -19 -14 -33.5t-33 -14.5q-6 0 -8 1q7 -54 57 -107zM178 414l-11 -11q-44 27 -68 70.5t-24 79.5q0 31 16 47.5t38 16.5q19 0 33 -14.5t14 -34.5q0 -19 -14 -33.5t-33 -14.5
q-6 0 -8 1q9 -56 57 -107z" />
    <glyph glyph-name="quoteleft.alt" unicode="&#xf007;" horiz-adv-x="252" 
d="M178 414l-11 -11q-44 27 -68 70.5t-24 79.5q0 31 16 47.5t38 16.5q19 0 33 -14.5t14 -34.5q0 -19 -14 -33.5t-33 -14.5q-6 0 -8 1q9 -56 57 -107z" />
    <glyph glyph-name="s_s" unicode="&#xf008;" horiz-adv-x="553" 
d="M519 92q0 -48 -34.5 -78.5t-84.5 -30.5q-18 0 -37 7t-30.5 13.5t-21.5 10t-14 -3.5t-4 -27h-20v146h20q0 -39 30 -75.5t80 -36.5q24 0 40 15t16 36q0 32 -56 61l-55 30q-67 36 -67 100q0 39 30.5 65t71.5 26q35 0 70 -18q12 -7 16 -4.5t4 22.5h21v-116h-21
q0 33 -22.5 58.5t-58.5 25.5q-25 0 -38 -12t-13 -31q0 -17 13 -29.5t48 -31.5l48 -26q69 -39 69 -96zM153 -97q0 -82 -34 -121t-83 -39q-41 0 -66.5 23t-24.5 48q-2 28 27 28q15 0 22 -11t8.5 -24t10.5 -24t27 -11q23 0 32.5 29.5t9.5 101.5v526q0 95 47.5 141.5t116.5 46.5
q65 0 91 -46q19 -33 1 -54q-8 -10 -25 -10q-16 0 -25 12t-12 26.5t-15 26.5t-33 12q-39 0 -57 -35.5t-18 -119.5v-526z" />
    <glyph glyph-name="s.alt_s" unicode="&#xf009;" horiz-adv-x="598" 
d="M117 427v2q0 95 47.5 141.5t116.5 46.5q65 0 91 -46q19 -33 1 -54q-8 -10 -25 -10q-16 0 -25 12t-12 26.5t-15 26.5t-33 12q-39 0 -57 -35.5t-18 -119.5v-429h-150v21q50 0 64.5 21t14.5 96v160h-79v20q50 0 64.5 20t14.5 89zM564 92q0 -48 -34.5 -78.5t-84.5 -30.5
q-18 0 -37 7t-30.5 13.5t-21.5 10t-14 -3.5t-4 -27h-20v146h20q0 -39 30 -75.5t80 -36.5q24 0 40 15t16 36q0 32 -56 61l-55 30q-67 36 -67 100q0 39 30.5 65t71.5 26q35 0 70 -18q12 -7 16 -4.5t4 22.5h21v-116h-21q0 33 -22 58.5t-59 25.5q-25 0 -38 -12t-13 -31
q0 -17 13 -29.5t48 -31.5l48 -26q69 -39 69 -96z" />
    <glyph glyph-name="zero.nfra" unicode="&#xf00a;" horiz-adv-x="353" 
d="M303 440q0 -71 -37 -122t-89 -51t-89.5 51t-37.5 122t37.5 122t89.5 51t89 -51t37 -122zM244 440q0 62 -17 102.5t-50 40.5q-34 0 -51 -40.5t-17 -102.5t17 -102t51 -40q33 0 50 40.5t17 101.5z" />
    <glyph glyph-name="one.nfra" unicode="&#xf00b;" horiz-adv-x="286" 
d="M228 280h-171v19q37 0 47 14.5t10 66.5v118q0 50 -13.5 63t-55.5 12v19l127 26v-238q0 -52 10 -66.5t46 -14.5v-19z" />
    <glyph glyph-name="two.nfra" unicode="&#xf00c;" horiz-adv-x="344" 
d="M293 328l-9 -48h-233v23l132 121q25 23 34.5 41.5t9.5 46.5t-18.5 46t-50.5 18q-36 0 -54 -30t9 -75l-27 -25q-39 27 -42.5 67t29 70t87.5 30q50 0 86.5 -27t36.5 -72q0 -49 -60 -103l-90 -83h160z" />
    <glyph glyph-name="three.nfra" unicode="&#xf00d;" horiz-adv-x="344" 
d="M293 375q0 -44 -36.5 -76t-90.5 -32q-49 0 -79 23t-30 45q0 18 20 18q8 0 15 -8.5t13 -19.5t22 -19.5t39 -8.5q34 0 52 23t18 55q0 26 -16 47t-42 26q-8 -10 -15 -23q-11 -17 -25 -17q-12 0 -16 11.5t7 24.5l99 108h-89q-54 0 -62 -38l-5 -17h-20l18 103h216v-23l-79 -98
q38 -12 62 -41t24 -63z" />
    <glyph glyph-name="four.nfra" unicode="&#xf00e;" horiz-adv-x="344" 
d="M300 478l-6 -102h-71q0 -46 10.5 -61.5t45.5 -15.5v-19h-167v19q35 0 46 15.5t11 61.5h-143v17l172 230h25v-214q42 2 55 52l4 17h18zM169 409v124l-93 -124h93z" />
    <glyph glyph-name="five.nfra" unicode="&#xf00f;" horiz-adv-x="344" 
d="M292 382q0 -48 -39 -81.5t-94 -33.5q-48 0 -76.5 22t-28.5 44q0 20 21 20q8 0 14.5 -9t11.5 -19.5t20 -19.5t38 -9q35 0 55 25.5t20 60.5t-17.5 59t-51.5 24q-22 0 -41 -16t-26 -41h-34l19 192h195l-10 -48h-155l-7 -83q26 28 67 28q50 0 84.5 -33.5t34.5 -81.5z" />
    <glyph glyph-name="six.nfra" unicode="&#xf010;" horiz-adv-x="344" 
d="M298 371q0 -43 -35.5 -73.5t-83.5 -30.5q-19 0 -39.5 7t-42 23t-35 49t-13.5 77q0 74 38 132t101 58q37 0 63.5 -15.5t26.5 -32.5q0 -20 -21 -20q-6 0 -25.5 18.5t-43.5 18.5q-34 0 -54 -39t-26 -93q30 25 76 25q48 0 81 -30.5t33 -73.5zM238 371q0 27 -18 51t-47 24
q-22 0 -40.5 -10.5t-24.5 -26.5q0 -52 21 -82.5t50 -30.5q28 0 43.5 23.5t15.5 51.5z" />
    <glyph glyph-name="seven.nfra" unicode="&#xf011;" horiz-adv-x="328" 
d="M288 577l-120 -280q-9 -21 -19 -29.5t-26 -4.5q-12 4 -16 15.5t7 36.5l129 237h-114q-54 0 -62 -38l-4 -17h-21l19 103h227v-23z" />
    <glyph glyph-name="eight.nfra" unicode="&#xf012;" horiz-adv-x="344" 
d="M298 367q0 -42 -36.5 -71t-88.5 -29q-53 0 -89.5 27t-36.5 68q0 61 76 91q-59 35 -59 75q0 35 32.5 60t76.5 25q45 0 76.5 -22t31.5 -56q0 -45 -67 -74q40 -18 62 -39t22 -55zM226 536q0 18 -15.5 33t-37.5 15q-23 0 -39 -13.5t-16 -34.5q0 -28 63 -59q45 22 45 59z
M243 358q0 6 -1.5 11.5t-3.5 9.5t-6.5 9t-7.5 8t-10 7.5t-10.5 6.5l-11.5 6.5t-11.5 6t-13 6t-12.5 5.5q-54 -28 -54 -76q0 -24 20 -43.5t52 -19.5q31 0 50.5 19.5t19.5 43.5z" />
    <glyph glyph-name="nine.nfra" unicode="&#xf013;" horiz-adv-x="344" 
d="M47 509q0 43 35 73.5t83 30.5q19 0 39.5 -7t42 -23t35 -49t13.5 -77q0 -74 -37.5 -132t-100.5 -58q-38 0 -64.5 15.5t-26.5 32.5q0 20 22 20q6 0 14.5 -9.5t22 -18.5t31.5 -9q34 0 54 39t26 93q-28 -25 -76 -25t-80.5 30.5t-32.5 73.5zM107 509q0 -27 17.5 -51t46.5 -24
q22 0 40.5 10.5t25.5 26.5q-1 52 -22 82.5t-50 30.5q-28 0 -43 -23t-15 -52z" />
    <glyph glyph-name="zero.dfra" unicode="&#xf014;" horiz-adv-x="353" 
d="M303 160q0 -71 -37 -122t-89 -51t-89.5 51t-37.5 122t37.5 122t89.5 51t89 -51t37 -122zM244 160q0 62 -17 102.5t-50 40.5q-34 0 -51 -40.5t-17 -102.5t17 -102t51 -40q33 0 50 40.5t17 101.5z" />
    <glyph glyph-name="one.dfra" unicode="&#xf015;" horiz-adv-x="286" 
d="M228 0h-171v19q37 0 47 14.5t10 66.5v118q0 50 -13.5 63t-55.5 12v19l127 26v-238q0 -52 10 -66.5t46 -14.5v-19z" />
    <glyph glyph-name="two.dfra" unicode="&#xf016;" horiz-adv-x="344" 
d="M293 48l-9 -48h-233v23l132 121q25 23 34.5 41.5t9.5 46.5t-18.5 46t-50.5 18q-36 0 -54 -30t9 -75l-27 -25q-39 27 -42.5 67t29 70t87.5 30q50 0 86.5 -27t36.5 -72q0 -49 -60 -103l-90 -83h160z" />
    <glyph glyph-name="three.dfra" unicode="&#xf017;" horiz-adv-x="344" 
d="M293 95q0 -44 -36.5 -76t-90.5 -32q-49 0 -79 23t-30 45q0 18 20 18q8 0 15 -8.5t13 -19.5t22 -19.5t39 -8.5q34 0 52 23t18 55q0 26 -16 47t-42 26q-8 -10 -15 -23q-11 -17 -25 -17q-12 0 -16 11.5t7 24.5l99 108h-89q-54 0 -62 -38l-5 -17h-20l18 103h216v-23l-79 -98
q38 -12 62 -41t24 -63z" />
    <glyph glyph-name="four.dfra" unicode="&#xf018;" horiz-adv-x="344" 
d="M300 198l-6 -102h-71q0 -46 10.5 -61.5t45.5 -15.5v-19h-167v19q35 0 46 15.5t11 61.5h-143v17l172 230h25v-214q42 2 55 52l4 17h18zM169 129v124l-93 -124h93z" />
    <glyph glyph-name="five.dfra" unicode="&#xf019;" horiz-adv-x="344" 
d="M292 102q0 -48 -39 -81.5t-94 -33.5q-48 0 -76.5 22t-28.5 44q0 20 21 20q8 0 14.5 -9t11.5 -19.5t20 -19.5t38 -9q35 0 55 25.5t20 60.5t-17.5 59t-51.5 24q-22 0 -41 -16t-26 -41h-34l19 192h195l-10 -48h-155l-7 -83q26 28 67 28q50 0 84.5 -33.5t34.5 -81.5z" />
    <glyph glyph-name="six.dfra" unicode="&#xf01a;" horiz-adv-x="344" 
d="M298 91q0 -43 -35.5 -73.5t-83.5 -30.5q-19 0 -39.5 7t-42 23t-35 49t-13.5 77q0 74 38 132t101 58q37 0 63.5 -15.5t26.5 -32.5q0 -20 -21 -20q-6 0 -25.5 18.5t-43.5 18.5q-34 0 -54 -39t-26 -93q30 25 76 25q48 0 81 -30.5t33 -73.5zM238 91q0 27 -18 51t-47 24
q-22 0 -40.5 -10.5t-24.5 -26.5q0 -52 21 -82.5t50 -30.5q28 0 43.5 23.5t15.5 51.5z" />
    <glyph glyph-name="seven.dfra" unicode="&#xf01b;" horiz-adv-x="328" 
d="M288 297l-120 -280q-18 -41 -45 -34q-12 4 -16 15.5t7 36.5l129 237h-114q-54 0 -62 -38l-4 -17h-21l19 103h227v-23z" />
    <glyph glyph-name="eight.dfra" unicode="&#xf01c;" horiz-adv-x="344" 
d="M298 87q0 -42 -36.5 -71t-88.5 -29q-53 0 -89.5 27t-36.5 68q0 61 76 91q-59 35 -59 75q0 35 32.5 60t76.5 25q45 0 76.5 -22t31.5 -56q0 -45 -67 -74q40 -18 62 -39t22 -55zM226 256q0 18 -15.5 33t-37.5 15q-23 0 -39 -13.5t-16 -34.5q0 -28 63 -59q45 22 45 59z
M243 78q0 6 -1.5 11.5t-3.5 9.5t-6.5 9t-7.5 8t-10 7.5t-10.5 6.5l-11.5 6.5t-11.5 6t-13 6t-12.5 5.5q-54 -28 -54 -76q0 -24 20 -43.5t52 -19.5q31 0 50.5 19.5t19.5 43.5z" />
    <glyph glyph-name="nine.dfra" unicode="&#xf01d;" horiz-adv-x="344" 
d="M47 229q0 43 35 73.5t83 30.5q19 0 39.5 -7t42 -23t35 -49t13.5 -77q0 -74 -37.5 -132t-100.5 -58q-38 0 -64.5 15.5t-26.5 32.5q0 20 22 20q6 0 14.5 -9.5t22 -18.5t31.5 -9q34 0 54 39t26 93q-28 -25 -76 -25t-80.5 30.5t-32.5 73.5zM107 229q0 -27 17.5 -51t46.5 -24
q22 0 40.5 10.5t25.5 26.5q-1 52 -22 82.5t-50 30.5q-28 0 -43 -23t-15 -52z" />
    <glyph glyph-name="zero.numr" unicode="&#xf01e;" horiz-adv-x="392" 
d="M335 433q0 -74 -40.5 -127t-97.5 -53q-58 0 -98.5 53t-40.5 127t40.5 127t98.5 53q57 0 97.5 -53t40.5 -127zM267 433q0 64 -18 106.5t-52 42.5q-35 0 -52.5 -42t-17.5 -107q0 -64 17.5 -106t52.5 -42q34 0 52 42t18 106z" />
    <glyph glyph-name="one.numr" unicode="&#xf01f;" horiz-adv-x="325" 
d="M129 488q0 52 -14 65.5t-58 12.5v22l141 26v-245q0 -53 11.5 -68t53.5 -15v-19h-199v19q42 0 53.5 15t11.5 68v119z" />
    <glyph glyph-name="two.numr" unicode="&#xf020;" horiz-adv-x="375" 
d="M322 321l-11 -54h-257v23l147 123q27 23 36.5 42.5t9.5 48.5q0 30 -20 48.5t-54 18.5q-40 0 -58.5 -31t8.5 -78l-30 -26q-43 28 -46.5 69.5t32 73t95.5 31.5q56 0 96 -28.5t40 -74.5q0 -60 -66 -108l-105 -78h183z" />
    <glyph glyph-name="three.numr" unicode="&#xf021;" horiz-adv-x="375" 
d="M253 546h-105q-57 0 -65 -39l-5 -19h-20l19 112h238v-27l-89 -98q42 -11 69.5 -42t27.5 -66q0 -46 -40.5 -79.5t-99.5 -33.5q-55 0 -88 24t-33 47q0 21 22 21q9 0 17 -9.5t14.5 -20.5t24 -20.5t43.5 -9.5q37 0 55.5 23.5t18.5 57.5q0 28 -16.5 49.5t-44.5 26.5
q-2 -2 -7.5 -9.5l-10.5 -14.5q-11 -17 -25 -17t-18.5 12t8.5 25z" />
    <glyph glyph-name="four.numr" unicode="&#xf022;" horiz-adv-x="375" 
d="M323 468l-5 -105h-75q0 -47 11 -62t48 -15v-19h-178v19q37 0 48.5 15t11.5 62h-152v18l186 238h25v-221q46 0 58 53l4 17h18zM184 398v128l-100 -128h100z" />
    <glyph glyph-name="five.numr" unicode="&#xf023;" horiz-adv-x="375" 
d="M322 373q0 -49 -43 -84t-103 -35q-53 0 -84.5 22.5t-31.5 46.5q0 23 23 23q9 0 16 -9.5t12.5 -21.5t22 -21.5t42.5 -9.5q38 0 59 26.5t21 62.5q0 37 -18 62t-55 25q-25 0 -46.5 -16t-28.5 -43h-37l22 199h213l-10 -55h-171l-7 -81q9 11 29.5 20t43.5 9q55 0 93 -35
t38 -85z" />
    <glyph glyph-name="six.numr" unicode="&#xf024;" horiz-adv-x="375" 
d="M322 363q0 -45 -37.5 -77t-89.5 -32q-21 0 -43.5 7.5t-45.5 24.5t-37.5 51t-14.5 81q0 77 40.5 136t108.5 59q42 0 71 -15.5t29 -33.5q0 -22 -23 -22q-6 0 -27.5 19t-48.5 19q-37 0 -58.5 -40.5t-26.5 -96.5q30 30 77 30q53 0 89.5 -32.5t36.5 -77.5zM258 363
q0 28 -19.5 53t-50.5 25q-23 0 -43 -11t-27 -27q1 -54 24 -86t53 -32t46.5 24.5t16.5 53.5z" />
    <glyph glyph-name="seven.numr" unicode="&#xf025;" horiz-adv-x="358" 
d="M309 576l-114 -284q-18 -45 -52 -39q-12 3 -18 17.5t6 40.5l130 234h-118q-57 0 -65 -38l-4 -19h-21l20 112h236v-24z" />
    <glyph glyph-name="eight.numr" unicode="&#xf026;" horiz-adv-x="375" 
d="M326 358q0 -43 -40.5 -73.5t-97.5 -30.5t-96.5 28t-39.5 71q0 61 81 93q-63 37 -63 77q0 37 35 63.5t83 26.5q49 0 84 -23t35 -59q0 -47 -73 -77q43 -18 67.5 -39.5t24.5 -56.5zM245 532q0 20 -16.5 35.5t-40.5 15.5t-40.5 -14.5t-16.5 -36.5q0 -13 11.5 -25.5t22.5 -19
t32 -16.5q48 23 48 61zM264 349q0 17 -14.5 32t-29 23t-42.5 20q-6 3 -9 4q-57 -29 -57 -79q0 -25 21.5 -45t54.5 -20q34 0 55 20t21 45z" />
    <glyph glyph-name="nine.numr" unicode="&#xf027;" horiz-adv-x="375" 
d="M54 503q0 45 37.5 77t89.5 32q21 0 43.5 -7.5t45.5 -24.5t37.5 -51t14.5 -81q0 -77 -40.5 -136t-108.5 -59q-42 0 -71 15.5t-29 33.5q0 22 23 22q6 0 28 -19t48 -19q37 0 58.5 40.5t26.5 96.5q-30 -30 -77 -30q-53 0 -89.5 32.5t-36.5 77.5zM118 503q0 -28 19.5 -53
t50.5 -25q23 0 43 11t27 27q-1 54 -24 86t-53 32t-46.5 -24.5t-16.5 -53.5z" />
    <glyph glyph-name="parenleft.numr" unicode="&#xf028;" horiz-adv-x="258" 
d="M239 173l-16 -19q-162 134 -162 284t161 283l17 -18q-112 -123 -112 -265t112 -265z" />
    <glyph glyph-name="parenright.numr" unicode="&#xf029;" horiz-adv-x="258" 
d="M19 173q113 125 113 265t-113 265l18 18q161 -133 161 -283t-162 -284z" />
    <glyph glyph-name="cent.numr" unicode="&#xf02c;" horiz-adv-x="375" 
d="M219 256v-56h-29v55q-58 7 -97 58t-39 121q0 69 39 120t97 58v55h29v-56q45 -6 72 -45q3 6 10 34h16v-137h-19q-19 107 -79 117v-293q60 12 79 118h19v-138h-16q-6 28 -9 35q-32 -39 -73 -46zM190 288v292q-68 -14 -68 -146q0 -131 68 -146z" />
    <glyph glyph-name="dollar.numr" unicode="&#xf02d;" horiz-adv-x="375" 
d="M209 255v-88h-29v88q-44 7 -75 33q-11 -11 -16 -34h-20v138h20q5 -42 29.5 -68.5t61.5 -34.5v123l-38 18q-72 34 -72 93q0 37 31 63t78 26h1v88h29v-91q26 -5 50 -23q8 8 13 27h19v-118h-19q-10 67 -63 83v-109l45 -21q68 -32 68 -87q0 -44 -32.5 -73.5t-80.5 -32.5z
M209 399v-112q62 3 62 48q0 19 -13.5 33t-48.5 31zM180 482v99q-26 -1 -42 -12t-16 -29t12 -29.5t46 -28.5z" />
    <glyph glyph-name="hyphen.numr" unicode="&#xf02e;" horiz-adv-x="425" 
d="M342 425h-259v44h259v-44z" />
    <glyph glyph-name="A.numr" unicode="&#xf02f;" horiz-adv-x="443" 
d="M140 375l-15 -33q-17 -30 -9 -43t52 -13v-19h-159v19q36 0 50 12.5t34 55.5l122 259h18l121 -259q20 -43 34 -55.5t46 -12.5v-19h-193v19q41 0 50.5 13t-6.5 43l-15 33h-130zM255 405l-50 107l-50 -107h100z" />
    <glyph glyph-name="B.numr" unicode="&#xf030;" horiz-adv-x="423" 
d="M301 363q0 28 -16.5 46t-47.5 18h-60v-77q0 -34 8 -43t38 -9h14q31 0 47.5 18.5t16.5 46.5zM272 513q0 24 -14 40.5t-40 16.5h-41v-112h41q26 0 40 16t14 39zM43 267v19q42 0 53.5 15t11.5 69v128q0 53 -11.5 68t-53.5 15v19h179q58 0 89.5 -24.5t31.5 -62.5
q0 -36 -30 -63q60 -27 60 -87q0 -42 -35.5 -69t-99.5 -27h-195z" />
    <glyph glyph-name="C.numr" unicode="&#xf031;" horiz-adv-x="442" 
d="M382 267h-19q-8 28 -12 35q-46 -48 -108 -48q-79 0 -134.5 53t-55.5 127t55.5 126.5t134.5 52.5q65 0 107 -47q4 6 13 34h19v-137h-20q-12 56 -43 87.5t-76 31.5q-61 0 -87.5 -44.5t-26.5 -103.5t26.5 -103.5t87.5 -44.5q45 0 76 31.5t43 87.5h20v-138z" />
    <glyph glyph-name="D.numr" unicode="&#xf032;" horiz-adv-x="479" 
d="M348 435q0 135 -123 135h-48v-217q0 -35 7 -45t34 -10h7q123 0 123 137zM43 267v19q42 0 53.5 15t11.5 69v128q0 53 -11.5 68t-53.5 15v19h179q102 0 153.5 -46.5t51.5 -119.5t-51.5 -120t-153.5 -47h-179z" />
    <glyph glyph-name="E.numr" unicode="&#xf033;" horiz-adv-x="408" 
d="M337 600l7 -94h-16l-5 19q-7 26 -23.5 35.5t-67.5 9.5h-55v-112q58 0 71 9.5t13 49.5h19v-149h-19q0 40 -13 49.5t-71 9.5v-46q0 -53 11 -68t50 -15h14q51 0 67.5 9.5t23.5 35.5l5 18h15l-6 -94h-314v19q42 0 53.5 15t11.5 69v128q0 53 -11.5 68t-53.5 15v19h294z" />
    <glyph glyph-name="F.numr" unicode="&#xf034;" horiz-adv-x="392" 
d="M177 370q0 -54 11.5 -69t53.5 -15v-19h-199v19q42 0 53.5 15t11.5 69v128q0 53 -11.5 68t-53.5 15v19h305l8 -94h-17l-5 19q-6 26 -23 35.5t-68 9.5h-66v-112q58 0 71 9.5t13 49.5h19v-149h-19q0 40 -13 49.5t-71 9.5v-57z" />
    <glyph glyph-name="G.numr" unicode="&#xf035;" horiz-adv-x="479" 
d="M243 254q-79 0 -134.5 53t-55.5 127t55.5 126.5t134.5 52.5q65 0 107 -47q4 6 13 34h19v-137h-20q-12 56 -43 87.5t-76 31.5q-61 0 -87.5 -44.5t-26.5 -103.5t26.5 -103.5t87.5 -44.5q41 0 67 15.5t26 48.5q0 26 -13.5 36.5t-49.5 10.5v19h189v-19q-42 0 -53.5 -15
t-11.5 -68v-30q-22 0 -77.5 -15t-76.5 -15z" />
    <glyph glyph-name="H.numr" unicode="&#xf036;" horiz-adv-x="530" 
d="M177 428v-58q0 -54 11.5 -69t53.5 -15v-19h-199v19q42 0 53.5 15t11.5 69v128q0 53 -11.5 68t-53.5 15v19h199v-19q-42 0 -53.5 -15t-11.5 -68v-39h176v39q0 53 -12 68t-53 15v19h198v-19q-42 0 -53.5 -15t-11.5 -68v-128q0 -54 11.5 -69t53.5 -15v-19h-198v19
q41 0 53 15.5t12 68.5v58h-176z" />
    <glyph glyph-name="I.numr" unicode="&#xf037;" horiz-adv-x="286" 
d="M242 267h-199v19q42 0 53.5 15t11.5 69v128q0 53 -11.5 68t-53.5 15v19h199v-19q-42 0 -53.5 -15t-11.5 -68v-128q0 -54 11.5 -69t53.5 -15v-19z" />
    <glyph glyph-name="J.numr" unicode="&#xf038;" horiz-adv-x="286" 
d="M108 498q0 53 -11.5 68t-53.5 15v19h199v-19q-42 0 -53.5 -15t-11.5 -68v-208q0 -72 -36.5 -108.5t-89.5 -36.5q-62 0 -89 41q-19 29 -2 44q6 6 17 6q15 1 23.5 -8t11 -20t13.5 -20.5t30 -9.5q26 0 39.5 24.5t13.5 87.5v208z" />
    <glyph glyph-name="K.numr" unicode="&#xf039;" horiz-adv-x="490" 
d="M242 600v-19q-42 0 -53.5 -15t-11.5 -68v-44l92 73q57 43 35 51q-8 3 -26 3v19h163v-19q-32 0 -56.5 -13.5t-79.5 -55.5l-60 -47l123 -109q51 -45 73 -57.5t47 -12.5v-19h-197v19q22 -1 30.5 4t2.5 17.5t-29 32.5l-96 89l-22 -18v-41q0 -54 11.5 -69t53.5 -15v-19h-199
v19q42 0 53.5 15t11.5 69v128q0 53 -11.5 68t-53.5 15v19h199z" />
    <glyph glyph-name="L.numr" unicode="&#xf03a;" horiz-adv-x="384" 
d="M177 381q0 -53 11 -68t50 -15h35q51 0 68 9.5t23 35.5l5 18h16l-7 -94h-335v19q42 0 53.5 15t11.5 69v128q0 53 -11.5 68t-53.5 15v19h199v-19q-42 0 -53.5 -15t-11.5 -68v-117z" />
    <glyph glyph-name="M.numr" unicode="&#xf03b;" horiz-adv-x="570" 
d="M526 267h-191v19q42 0 53.5 15t11.5 69v146l-122 -262h-17l-121 260v-144q0 -54 11.5 -69t53.5 -15v-19h-161v19q42 0 53.5 15t11.5 69v128q0 53 -11.5 68t-53.5 15v19h123l119 -255l119 255h121v-19q-42 0 -53.5 -15t-11.5 -68v-128q0 -54 11.5 -69t53.5 -15v-19z" />
    <glyph glyph-name="N.numr" unicode="&#xf03c;" horiz-adv-x="495" 
d="M459 581q-42 0 -53.5 -15t-11.5 -68v-243h-21l-233 253v-138q0 -54 11.5 -69t53.5 -15v-19h-161v19q42 0 53.5 15t11.5 69v128q0 53 -11.5 68t-53.5 15v19h99l220 -238v136q0 53 -11.5 68t-53.5 15v19h161v-19z" />
    <glyph glyph-name="O.numr" unicode="&#xf03d;" horiz-adv-x="498" 
d="M449 434q0 -74 -59 -127t-141 -53t-141 53t-59 127t59 126.5t141 52.5t141 -52.5t59 -126.5zM374 434q0 58 -30.5 103t-94.5 45q-63 0 -93.5 -45t-30.5 -103t30.5 -103t93.5 -45q64 0 94.5 45t30.5 103z" />
    <glyph glyph-name="P.numr" unicode="&#xf03e;" horiz-adv-x="383" 
d="M282 503q0 29 -16.5 48t-47.5 19h-41v-133h41q31 0 47.5 19t16.5 47zM177 370q0 -54 11.5 -69t53.5 -15v-19h-199v19q42 0 53.5 15t11.5 69v128q0 53 -11.5 68t-53.5 15v19h175q64 0 99.5 -27t35.5 -70q0 -42 -35.5 -69.5t-99.5 -27.5h-41v-36z" />
    <glyph glyph-name="Q.numr" unicode="&#xf03f;" horiz-adv-x="515" 
d="M378 434q0 58 -30.5 103t-94.5 45q-63 0 -93.5 -45t-30.5 -103t30.5 -103t93.5 -45q64 0 94.5 45t30.5 103zM278 255q-33 -4 -60 -17q42 -1 103.5 -31.5t92.5 -30.5q73 0 105 54l19 -10q-16 -41 -50 -70.5t-85 -29.5q-38 0 -100 44.5t-89 44.5q-24 0 -36.5 -10
t-18.5 -20.5t-13 -11.5q-13 -1 -22 6.5t-9 20.5q0 12 26 33.5t60 33.5q-64 16 -106 64t-42 109q0 74 59 126.5t141 52.5t141 -52.5t59 -126.5q0 -68 -49.5 -118t-125.5 -61z" />
    <glyph glyph-name="R.numr" unicode="&#xf040;" horiz-adv-x="419" 
d="M283 503q0 29 -16.5 48t-48.5 19h-41v-133h41q32 0 48.5 19t16.5 47zM194 406h-17v-36q0 -54 11.5 -69t53.5 -15v-19h-199v19q42 0 53.5 15t11.5 69v128q0 53 -11.5 68t-53.5 15v19h176q64 0 99.5 -27t35.5 -70q0 -34 -25 -60t-70 -34l46 -50q32 -35 56.5 -52t55.5 -21
v-19h-112z" />
    <glyph glyph-name="S.numr" unicode="&#xf041;" horiz-adv-x="356" 
d="M309 361q0 -46 -35.5 -76.5t-85.5 -30.5q-52 0 -91 34q-13 -13 -16 -34h-19v138h21q5 -49 36 -77t76 -28q25 0 41.5 13t16.5 35q0 35 -64 65l-56 27q-70 32 -70 96q0 37 30.5 63t75.5 26q46 0 79 -26q9 9 12 27h19v-118h-21q-6 38 -27 62t-58 24q-23 0 -39 -11.5
t-16 -29.5q0 -19 15.5 -31.5t53.5 -30.5l56 -27q66 -32 66 -90z" />
    <glyph glyph-name="T.numr" unicode="&#xf042;" horiz-adv-x="403" 
d="M168 570h-45q-51 0 -68 -9.5t-23 -35.5l-5 -19h-17l8 94h368l7 -94h-16l-5 19q-7 27 -23.5 36t-67.5 9h-45v-200q0 -54 11.5 -69t53.5 -15v-19h-198v19q41 0 53 15.5t12 68.5v200z" />
    <glyph glyph-name="U.numr" unicode="&#xf043;" horiz-adv-x="488" 
d="M458 581q-42 0 -53.5 -15t-11.5 -68v-98q0 -69 -40.5 -107t-104.5 -38q-65 0 -108.5 38t-43.5 107v98q0 53 -11.5 68t-53.5 15v19h197v-19q-41 0 -53 -15t-12 -68v-103q0 -48 26 -73t69 -25t70 25t27 73v103q0 54 -11 68.5t-53 14.5v19h167v-19z" />
    <glyph glyph-name="V.numr" unicode="&#xf044;" horiz-adv-x="418" 
d="M424 581q-36 0 -49.5 -12t-34.5 -55l-122 -260h-17l-122 260q-21 43 -34.5 55t-45.5 12v19h194v-19q-42 0 -51.5 -13t6.5 -43l80 -170l80 170q17 31 9.5 43.5t-52.5 12.5v19h159v-19z" />
    <glyph glyph-name="W.numr" unicode="&#xf045;" horiz-adv-x="546" 
d="M550 581q-38 0 -53.5 -13.5t-30.5 -53.5l-94 -260h-18l-81 231l-85 -231h-18l-92 260q-14 41 -29 54t-51 13v19h190v-19q-36 0 -45.5 -12.5t1.5 -43.5l53 -147l82 222h23l79 -224l54 149q12 31 3 43.5t-46 12.5v19h158v-19z" />
    <glyph glyph-name="X.numr" unicode="&#xf046;" horiz-adv-x="442" 
d="M210 401l-54 -60q-24 -25 -18 -40t40 -15v-19h-158v19q27 0 47 14.5t56 54.5l66 74l-64 84q-31 41 -49.5 54.5t-50.5 13.5v19h193v-19q-36 0 -40.5 -13.5t17.5 -41.5l38 -49l43 49q26 30 20.5 42.5t-42.5 12.5v19h159v-19q-22 0 -39.5 -9t-26.5 -18.5l-38 -40.5l-56 -63
l74 -95q32 -41 51 -55t49 -14v-19h-193v19q36 0 41 12t-19 43z" />
    <glyph glyph-name="Y.numr" unicode="&#xf047;" horiz-adv-x="406" 
d="M417 581q-34 0 -52.5 -13.5t-48.5 -54.5l-80 -109v-34q0 -54 11.5 -69t53.5 -15v-19h-198v19q41 0 53 15.5t12 68.5v33l-80 110q-30 41 -48 54.5t-50 13.5v19h193v-19q-37 0 -42.5 -12.5t17.5 -42.5l62 -85l63 85q23 31 18 43t-43 12v19h159v-19z" />
    <glyph glyph-name="Z.numr" unicode="&#xf048;" horiz-adv-x="387" 
d="M346 361l-7 -94h-289v23l192 280h-75q-51 0 -67.5 -9t-23.5 -36l-5 -19h-16l7 94h269v-20l-193 -282h96q51 0 67.5 9t23.5 36l5 18h16z" />
    <glyph glyph-name="at.numr" unicode="&#xf049;" 
d="M268 595q-73 0 -124 -51.5t-51 -121.5t42.5 -112.5t109.5 -42.5q63 0 131 42l7 -14q-75 -52 -147 -52q-83 0 -140 51t-57 127q0 84 63 144t151 60q75 0 123 -42.5t48 -112.5q0 -56 -37.5 -100.5t-78.5 -44.5q-27 0 -42 23q-26 -24 -55 -24q-40 0 -58.5 31.5t-9.5 79.5
q7 45 41.5 76.5t73.5 31.5q22 0 38 -9h42l-29 -155q-4 -24 12 -24q23 0 50.5 36t27.5 79q0 57 -39 91t-92 34zM256 515q-44 0 -63 -84q-6 -33 1 -54.5t28 -21.5q14 0 27.5 15t17.5 35l16 100q-8 10 -27 10z" />
    <glyph glyph-name="Aacute.numr" unicode="&#xf04a;" horiz-adv-x="443" 
d="M140 375l-15 -33q-17 -30 -9 -43t52 -13v-19h-159v19q36 0 50 12.5t34 55.5l122 259h18l121 -259q20 -43 34 -55.5t46 -12.5v-19h-193v19q41 0 50.5 13t-6.5 43l-15 33h-130zM255 405l-50 107l-50 -107h100zM352 764q0 -18 -23 -30l-137 -59l-5 7l93 87q27 24 44 24
q13 0 20.5 -9.5t7.5 -19.5z" />
    <glyph glyph-name="Agrave.numr" unicode="&#xf04b;" horiz-adv-x="443" 
d="M140 375l-15 -33q-17 -30 -9 -43t52 -13v-19h-159v19q36 0 50 12.5t34 55.5l122 259h18l121 -259q20 -43 34 -55.5t46 -12.5v-19h-193v19q41 0 50.5 13t-6.5 43l-15 33h-130zM255 405l-50 107l-50 -107h100zM259 682l-5 -6l-138 58q-23 12 -23 30q0 10 7.5 19.5t20.5 9.5
q19 0 45 -23z" />
    <glyph glyph-name="Acircumflex.numr" unicode="&#xf04c;" horiz-adv-x="443" 
d="M338 690l-12 -11l-107 76l-106 -76l-13 11l119 130zM140 375l-15 -33q-17 -30 -9 -43t52 -13v-19h-159v19q36 0 50 12.5t34 55.5l122 259h18l121 -259q20 -43 34 -55.5t46 -12.5v-19h-193v19q41 0 50.5 13t-6.5 43l-15 33h-130zM255 405l-50 107l-50 -107h100z" />
    <glyph glyph-name="Adieresis.numr" unicode="&#xf04d;" horiz-adv-x="443" 
d="M140 375l-15 -33q-17 -30 -9 -43t52 -13v-19h-159v19q36 0 50 12.5t34 55.5l122 259h18l121 -259q20 -43 34 -55.5t46 -12.5v-19h-193v19q41 0 50.5 13t-6.5 43l-15 33h-130zM255 405l-50 107l-50 -107h100zM140 754q16 0 27.5 -11.5t11.5 -27.5q0 -17 -11.5 -28.5
t-27.5 -11.5t-27.5 11.5t-11.5 28.5q0 16 11.5 27.5t27.5 11.5zM306 754q16 0 27.5 -11.5t11.5 -27.5t-11.5 -28t-27.5 -12t-27.5 11.5t-11.5 28.5q0 16 11.5 27.5t27.5 11.5z" />
    <glyph glyph-name="Atilde.numr" unicode="&#xf04e;" horiz-adv-x="443" 
d="M352 775q0 -47 -19 -73.5t-50 -26.5q-18 0 -63.5 27.5t-59.5 27.5q-13 0 -25 -13t-17 -32h-15q0 42 18.5 69.5t45.5 27.5q21 0 65 -27.5t61 -27.5q30 0 43 48h16zM140 375l-15 -33q-17 -30 -9 -43t52 -13v-19h-159v19q36 0 50 12.5t34 55.5l122 259h18l121 -259
q20 -43 34 -55.5t46 -12.5v-19h-193v19q41 0 50.5 13t-6.5 43l-15 33h-130zM255 405l-50 107l-50 -107h100z" />
    <glyph glyph-name="Aring.numr" unicode="&#xf04f;" horiz-adv-x="443" 
d="M140 375l-15 -33q-17 -30 -9 -43t52 -13v-19h-159v19q36 0 50 12.5t34 55.5l122 259h18l121 -259q20 -43 34 -55.5t46 -12.5v-19h-193v19q41 0 50.5 13t-6.5 43l-15 33h-130zM255 405l-50 107l-50 -107h100zM220 839q35 0 59 -24t24 -58q0 -35 -24.5 -59t-58.5 -24
t-58 24t-24 59t24 58.5t58 23.5zM220 803q-19 0 -32.5 -13.5t-13.5 -32.5t13.5 -32.5t32.5 -13.5t32.5 13.5t13.5 32.5t-13.5 32.5t-32.5 13.5z" />
    <glyph glyph-name="Ccedilla.numr" unicode="&#xf050;" horiz-adv-x="442" 
d="M200 259q-64 14 -105.5 63t-41.5 112q0 74 55.5 126.5t134.5 52.5q65 0 107 -47q4 6 13 34h19v-137h-20q-12 56 -43 87.5t-76 31.5q-61 0 -88 -44.5t-27 -103.5t27 -103.5t88 -44.5q45 0 76 31.5t43 87.5h20v-138h-19q-8 28 -12 35q-46 -48 -108 -48h-7l-34 -35
q28 -1 52 -19t24 -51q0 -23 -16 -41.5t-40 -28.5t-43.5 -15.5t-33.5 -6.5v24q78 24 78 68q0 22 -29.5 31t-62.5 -2v13z" />
    <glyph glyph-name="Eacute.numr" unicode="&#xf051;" horiz-adv-x="408" 
d="M337 600l7 -94h-16l-5 19q-7 26 -23.5 35.5t-67.5 9.5h-55v-112q58 0 71 9.5t13 49.5h19v-149h-19q0 40 -13 49.5t-71 9.5v-46q0 -53 11 -68t50 -15h14q51 0 67.5 9.5t23.5 35.5l5 18h15l-6 -94h-314v19q42 0 53.5 15t11.5 69v128q0 53 -11.5 68t-53.5 15v19h294z
M327 764q0 -18 -23 -30l-137 -59l-5 7l93 87q27 24 44 24q13 0 20.5 -9.5t7.5 -19.5z" />
    <glyph glyph-name="Egrave.numr" unicode="&#xf052;" horiz-adv-x="408" 
d="M337 600l7 -94h-16l-5 19q-7 26 -23.5 35.5t-67.5 9.5h-55v-112q58 0 71 9.5t13 49.5h19v-149h-19q0 40 -13 49.5t-71 9.5v-46q0 -53 11 -68t50 -15h14q51 0 67.5 9.5t23.5 35.5l5 18h15l-6 -94h-314v19q42 0 53.5 15t11.5 69v128q0 53 -11.5 68t-53.5 15v19h294z
M278 682l-5 -6l-138 58q-23 12 -23 30q0 10 7.5 19.5t20.5 9.5q19 0 45 -23z" />
    <glyph glyph-name="Ecircumflex.numr" unicode="&#xf053;" horiz-adv-x="408" 
d="M323 684l-13 -12l-107 76l-106 -76l-13 12l119 129zM337 600l7 -94h-16l-5 19q-7 26 -23.5 35.5t-67.5 9.5h-55v-112q58 0 71 9.5t13 49.5h19v-149h-19q0 40 -13 49.5t-71 9.5v-46q0 -53 11 -68t50 -15h14q51 0 67.5 9.5t23.5 35.5l5 18h15l-6 -94h-314v19q42 0 53.5 15
t11.5 69v128q0 53 -11.5 68t-53.5 15v19h294z" />
    <glyph glyph-name="Edieresis.numr" unicode="&#xf054;" horiz-adv-x="408" 
d="M337 600l7 -94h-16l-5 19q-7 26 -23.5 35.5t-67.5 9.5h-55v-112q58 0 71 9.5t13 49.5h19v-149h-19q0 40 -13 49.5t-71 9.5v-46q0 -53 11 -68t50 -15h14q51 0 67.5 9.5t23.5 35.5l5 18h15l-6 -94h-314v19q42 0 53.5 15t11.5 69v128q0 53 -11.5 68t-53.5 15v19h294z
M127 754q16 0 27.5 -11.5t11.5 -27.5q0 -17 -11.5 -28.5t-27.5 -11.5t-27.5 11.5t-11.5 28.5q0 16 11.5 27.5t27.5 11.5zM293 754q16 0 27.5 -11.5t11.5 -27.5t-11.5 -28t-27.5 -12t-27.5 11.5t-11.5 28.5q0 16 11.5 27.5t27.5 11.5z" />
    <glyph glyph-name="Iacute.numr" unicode="&#xf055;" horiz-adv-x="286" 
d="M242 267h-199v19q42 0 53.5 15t11.5 69v128q0 53 -11.5 68t-53.5 15v19h199v-19q-42 0 -53.5 -15t-11.5 -68v-128q0 -54 11.5 -69t53.5 -15v-19zM266 764q0 -18 -23 -30l-137 -59l-5 7l93 87q27 24 44 24q13 0 20.5 -9.5t7.5 -19.5z" />
    <glyph glyph-name="Igrave.numr" unicode="&#xf056;" horiz-adv-x="286" 
d="M242 267h-199v19q42 0 53.5 15t11.5 69v128q0 53 -11.5 68t-53.5 15v19h199v-19q-42 0 -53.5 -15t-11.5 -68v-128q0 -54 11.5 -69t53.5 -15v-19zM194 682l-5 -6l-138 58q-23 12 -23 30q0 10 7.5 19.5t20.5 9.5q19 0 45 -23z" />
    <glyph glyph-name="Icircumflex.numr" unicode="&#xf057;" horiz-adv-x="286" 
d="M266 690l-13 -12l-106 76l-107 -76l-12 12l119 129zM242 267h-199v19q42 0 53.5 15t11.5 69v128q0 53 -11.5 68t-53.5 15v19h199v-19q-42 0 -53.5 -15t-11.5 -68v-128q0 -54 11.5 -69t53.5 -15v-19z" />
    <glyph glyph-name="Idieresis.numr" unicode="&#xf058;" horiz-adv-x="286" 
d="M242 267h-199v19q42 0 53.5 15t11.5 69v128q0 53 -11.5 68t-53.5 15v19h199v-19q-42 0 -53.5 -15t-11.5 -68v-128q0 -54 11.5 -69t53.5 -15v-19zM61 754q16 0 27.5 -11.5t11.5 -27.5q0 -17 -11.5 -28.5t-27.5 -11.5t-27.5 11.5t-11.5 28.5q0 16 11.5 27.5t27.5 11.5z
M227 754q16 0 27.5 -11.5t11.5 -27.5t-11.5 -28t-27.5 -12t-27.5 11.5t-11.5 28.5q0 16 11.5 27.5t27.5 11.5z" />
    <glyph glyph-name="Ntilde.numr" unicode="&#xf059;" horiz-adv-x="503" 
d="M373 773q0 -47 -18.5 -73t-50.5 -26q-18 0 -63 27.5t-59 27.5t-26 -13.5t-17 -32.5h-15q0 42 18.5 69.5t45.5 27.5q20 0 64 -27.5t62 -27.5q31 0 44 48h15zM459 581q-42 0 -53.5 -15t-11.5 -68v-243h-21l-233 253v-138q0 -54 11.5 -69t53.5 -15v-19h-161v19q42 0 53.5 15
t11.5 69v128q0 53 -11.5 68t-53.5 15v19h99l220 -238v136q0 53 -11.5 68t-53.5 15v19h161v-19z" />
    <glyph glyph-name="Oacute.numr" unicode="&#xf05a;" horiz-adv-x="507" 
d="M453 434q0 -74 -58.5 -127t-141.5 -53t-141.5 53t-58.5 127t59 126.5t141 52.5t141 -52.5t59 -126.5zM378 434q0 58 -30.5 103t-94.5 45q-63 0 -93.5 -45t-30.5 -103t30.5 -103t93.5 -45q64 0 94.5 45t30.5 103zM373 764q0 -18 -23 -30l-137 -59l-5 7l93 87q27 24 44 24
q13 0 20.5 -9.5t7.5 -19.5z" />
    <glyph glyph-name="Ograve.numr" unicode="&#xf05b;" horiz-adv-x="507" 
d="M453 434q0 -74 -58.5 -127t-141.5 -53t-141.5 53t-58.5 127t59 126.5t141 52.5t141 -52.5t59 -126.5zM378 434q0 58 -30.5 103t-94.5 45q-63 0 -93.5 -45t-30.5 -103t30.5 -103t93.5 -45q64 0 94.5 45t30.5 103zM285 682l-5 -6l-138 58q-23 12 -23 30q0 10 7.5 19.5
t20.5 9.5q19 0 45 -23z" />
    <glyph glyph-name="Ocircumflex.numr" unicode="&#xf05c;" horiz-adv-x="507" 
d="M357 687l-13 -12l-106 76l-107 -76l-13 12l120 129zM453 434q0 -74 -58.5 -127t-141.5 -53t-141.5 53t-58.5 127t59 126.5t141 52.5t141 -52.5t59 -126.5zM378 434q0 58 -30.5 103t-94.5 45q-63 0 -93.5 -45t-30.5 -103t30.5 -103t93.5 -45q64 0 94.5 45t30.5 103z" />
    <glyph glyph-name="Odieresis.numr" unicode="&#xf05d;" horiz-adv-x="507" 
d="M453 434q0 -74 -58.5 -127t-141.5 -53t-141.5 53t-58.5 127t59 126.5t141 52.5t141 -52.5t59 -126.5zM378 434q0 58 -30.5 103t-94.5 45q-63 0 -93.5 -45t-30.5 -103t30.5 -103t93.5 -45q64 0 94.5 45t30.5 103zM161 754q16 0 27.5 -11.5t11.5 -27.5q0 -17 -11.5 -28.5
t-27.5 -11.5t-27.5 11.5t-11.5 28.5q0 16 11.5 27.5t27.5 11.5zM327 754q16 0 27.5 -11.5t11.5 -27.5t-11.5 -28t-27.5 -12t-27.5 11.5t-11.5 28.5q0 16 11.5 27.5t27.5 11.5z" />
    <glyph glyph-name="Otilde.numr" unicode="&#xf05e;" horiz-adv-x="507" 
d="M375 774q0 -47 -18.5 -73t-50.5 -26q-18 0 -63.5 27.5t-59.5 27.5q-13 0 -25 -13.5t-17 -32.5h-15q0 42 18.5 69.5t45.5 27.5q20 0 64 -27.5t62 -27.5q32 0 43 48h16zM453 434q0 -74 -58.5 -127t-141.5 -53t-141.5 53t-58.5 127t59 126.5t141 52.5t141 -52.5t59 -126.5z
M378 434q0 58 -30.5 103t-94.5 45q-63 0 -93.5 -45t-30.5 -103t30.5 -103t93.5 -45q64 0 94.5 45t30.5 103z" />
    <glyph glyph-name="Uacute.numr" unicode="&#xf05f;" horiz-adv-x="488" 
d="M458 581q-42 0 -53.5 -15t-11.5 -68v-98q0 -69 -40.5 -107t-104.5 -38q-65 0 -108.5 38t-43.5 107v98q0 53 -11.5 68t-53.5 15v19h197v-19q-41 0 -53 -15t-12 -68v-103q0 -48 26 -73t69 -25t70 25t27 73v103q0 54 -11 68.5t-53 14.5v19h167v-19zM356 763q0 -19 -23 -30
l-137 -59l-5 7l93 87q27 24 44 24q13 0 20.5 -9.5t7.5 -19.5z" />
    <glyph glyph-name="Ugrave.numr" unicode="&#xf060;" horiz-adv-x="488" 
d="M458 581q-42 0 -53.5 -15t-11.5 -68v-98q0 -69 -40.5 -107t-104.5 -38q-65 0 -108.5 38t-43.5 107v98q0 53 -11.5 68t-53.5 15v19h197v-19q-41 0 -53 -15t-12 -68v-103q0 -48 26 -73t69 -25t70 25t27 73v103q0 54 -11 68.5t-53 14.5v19h167v-19zM278 681l-5 -6l-138 58
q-23 11 -23 30q0 10 7.5 19.5t20.5 9.5q19 0 45 -23z" />
    <glyph glyph-name="Ucircumflex.numr" unicode="&#xf061;" horiz-adv-x="488" 
d="M359 687l-12 -12l-107 76l-107 -76l-12 12l119 129zM458 581q-42 0 -53.5 -15t-11.5 -68v-98q0 -69 -40.5 -107t-104.5 -38q-65 0 -108.5 38t-43.5 107v98q0 53 -11.5 68t-53.5 15v19h197v-19q-41 0 -53 -15t-12 -68v-103q0 -48 26 -73t69 -25t70 25t27 73v103
q0 54 -11 68.5t-53 14.5v19h167v-19z" />
    <glyph glyph-name="Udieresis.numr" unicode="&#xf062;" horiz-adv-x="488" 
d="M458 581q-42 0 -53.5 -15t-11.5 -68v-98q0 -69 -40.5 -107t-104.5 -38q-65 0 -108.5 38t-43.5 107v98q0 53 -11.5 68t-53.5 15v19h197v-19q-41 0 -53 -15t-12 -68v-103q0 -48 26 -73t69 -25t70 25t27 73v103q0 54 -11 68.5t-53 14.5v19h167v-19zM168 754q16 0 27.5 -11.5
t11.5 -27.5q0 -17 -11.5 -28.5t-27.5 -11.5t-27.5 11.5t-11.5 28.5q0 16 11.5 27.5t27.5 11.5zM334 754q16 0 27.5 -11.5t11.5 -27.5t-11.5 -28t-27.5 -12t-27.5 11.5t-11.5 28.5q0 16 11.5 27.5t27.5 11.5z" />
    <glyph glyph-name="Ydieresis.numr" unicode="&#xf063;" horiz-adv-x="406" 
d="M417 581q-34 0 -52.5 -13.5t-48.5 -54.5l-80 -109v-34q0 -54 11.5 -69t53.5 -15v-19h-198v19q41 0 53 15.5t12 68.5v33l-80 110q-30 41 -48 54.5t-50 13.5v19h193v-19q-37 0 -42.5 -13t17.5 -42l62 -85l63 85q23 31 18 43t-43 12v19h159v-19zM128 754q16 0 27.5 -11.5
t11.5 -27.5t-11.5 -28t-27.5 -12t-28 11.5t-12 28.5q0 16 12 27.5t28 11.5zM293 754q16 0 28 -11.5t12 -27.5q0 -17 -11.5 -28.5t-28.5 -11.5q-16 0 -27.5 12t-11.5 28t11.5 27.5t27.5 11.5z" />
    <glyph glyph-name="Scaron.numr" unicode="&#xf064;" horiz-adv-x="356" 
d="M309 361q0 -46 -35.5 -76.5t-85.5 -30.5q-52 0 -91 34q-13 -13 -16 -34h-19v138h21q5 -49 36 -77t76 -28q25 0 41.5 13t16.5 35q0 35 -64 65l-56 27q-70 32 -70 96q0 37 30.5 63t75.5 26q46 0 79 -26q9 9 12 27h19v-118h-21q-6 38 -27 62t-58 24q-23 0 -39 -11.5
t-16 -29.5q0 -19 15.5 -31.5t53.5 -30.5l56 -27q66 -32 66 -90zM304 804l-119 -129l-119 129l12 11l107 -75l107 75z" />
    <glyph glyph-name="Yacute.numr" unicode="&#xf065;" horiz-adv-x="406" 
d="M338 764q0 -10 -7.5 -18.5t-15.5 -11.5l-137 -59l-5 7l93 88q26 23 44 23q13 0 20.5 -9.5t7.5 -19.5zM417 581q-34 0 -52.5 -13.5t-48.5 -54.5l-80 -109v-34q0 -54 11.5 -69t53.5 -15v-19h-198v19q41 0 53 15.5t12 68.5v33l-80 110q-30 41 -48 54.5t-50 13.5v19h193v-19
q-37 0 -42.5 -13t17.5 -42l62 -85l63 85q23 31 18 43t-43 12v19h159v-19z" />
    <glyph glyph-name="Thorn.numr" unicode="&#xf066;" horiz-adv-x="383" 
d="M108 498q0 53 -11.5 68t-53.5 15v19h199v-19q-33 0 -47 -8.5t-16 -35.5h39q64 0 99.5 -27t35.5 -70q0 -42 -35.5 -69.5t-99.5 -27.5h-40q2 -35 14.5 -46t49.5 -11v-19h-199v19q42 0 53.5 15t11.5 69v128zM282 440q0 28 -16.5 48t-47.5 20h-41v-136h41q31 0 47.5 20
t16.5 48z" />
    <glyph glyph-name="Zcaron.numr" unicode="&#xf067;" horiz-adv-x="387" 
d="M346 361l-7 -94h-289v23l192 280h-75q-51 0 -67.5 -9t-23.5 -36l-5 -19h-16l7 94h269v-20l-193 -282h96q51 0 67.5 9t23.5 36l5 18h16zM310 804l-119 -129l-119 129l12 11l107 -75l107 75z" />
    <glyph glyph-name="AE.numr" unicode="&#xf068;" horiz-adv-x="573" 
d="M279 535l-75 -102h75v102zM287 600h220l7 -94h-16l-5 19q-7 26 -23.5 35.5t-67.5 9.5h-56v-137q58 0 71.5 10t13.5 49h19v-149h-19q0 39 -13.5 49t-71.5 10v-21q0 -53 11 -68t50 -15h15q51 0 67.5 9.5t23.5 35.5l5 18h15l-6 -94h-313v19q42 0 53.5 15t11.5 69v32h-97
l-44 -60q-24 -30 -19 -43t48 -13v-19h-159v19q32 0 50 13t48 55z" />
    <glyph glyph-name="Oslash.numr" unicode="&#xf069;" horiz-adv-x="507" 
d="M347 538l-162 -233q30 -20 68 -20q64 0 94.5 45.5t30.5 103.5q0 62 -31 104zM160 330l162 232q-28 20 -69 20q-63 0 -93.5 -45t-30.5 -103q0 -62 31 -104zM133 290q-80 57 -80 144q0 74 59 126.5t141 52.5q49 0 90 -19l35 49l30 -18l-35 -49q37 -24 58.5 -62t21.5 -80
q0 -74 -58.5 -127t-141.5 -53q-48 0 -90 20l-35 -50l-29 18z" />
    <glyph glyph-name="Eth.numr" unicode="&#xf06a;" horiz-adv-x="479" 
d="M177 459h79v-41h-79v-65q0 -35 7 -45t34 -10h7q123 0 123 137q0 135 -123 135h-48v-111zM108 418h-68v41h68v39q0 53 -11.5 68t-53.5 15v19h179q102 0 153.5 -46.5t51.5 -119.5t-51.5 -120t-153.5 -47h-179v19q42 0 53.5 15t11.5 69v48z" />
    <glyph glyph-name="Lslash.numr" unicode="&#xf06b;" horiz-adv-x="384" 
d="M177 481l36 28l21 -27l-57 -43v-58q0 -53 11 -68t50 -15h35q51 0 68 9.5t23 35.5l5 18h16l-7 -94h-335v19q42 0 53.5 15t11.5 69v18l-37 -28l-20 27l57 43v68q0 53 -11.5 68t-53.5 15v19h199v-19q-42 0 -53.5 -15t-11.5 -68v-17z" />
    <glyph glyph-name="OE.numr" unicode="&#xf06c;" horiz-adv-x="614" 
d="M318 304v260q-40 14 -69 14q-63 0 -94.5 -43.5t-31.5 -100.5t31.5 -100.5t94.5 -43.5q46 0 69 14zM323 600h223l7 -94h-16l-5 19q-7 27 -23.5 36t-67.5 9h-56v-112q58 0 71.5 10t13.5 49h19v-149h-19q0 39 -13.5 49t-71.5 10v-46q0 -53 11 -68t50 -15h15q51 0 67.5 9
t23.5 36l5 18h16l-7 -94h-243q-25 -8 -74 -8q-83 0 -141.5 50.5t-58.5 124.5q0 73 58.5 124t141.5 51q29 0 74 -9z" />
    <glyph glyph-name="germandbls.numr" unicode="&#xf06d;" horiz-adv-x="695" 
d="M653 361q0 -47 -35.5 -77t-86.5 -30q-52 0 -91 34q-11 -11 -16 -34h-19v138h21q5 -49 36 -77t76 -28q25 0 42 13t17 35q0 35 -64 65l-57 27q-70 32 -70 96q0 37 30.5 63t76.5 26q45 0 78 -26q9 9 12 27h20v-118h-21q-15 86 -86 86q-22 0 -38 -11.5t-16 -29.5
q0 -19 15 -31.5t53 -30.5l56 -27q34 -16 50.5 -40.5t16.5 -49.5zM305 361q0 -47 -35.5 -77t-86.5 -30t-90 34q-13 -13 -16 -34h-19v138h20q6 -49 37 -77t76 -28q25 0 41.5 13t16.5 35q0 35 -64 65l-57 27q-70 33 -70 96q0 37 30.5 63t76.5 26t78 -26q8 6 13 27h19v-118h-21
q-6 38 -27 62t-59 24q-22 0 -38 -11.5t-16 -29.5q0 -19 15.5 -31.5t53.5 -30.5l55 -27q34 -16 50.5 -40.5t16.5 -49.5z" />
    <glyph glyph-name="fi.numr" unicode="&#xf06e;" horiz-adv-x="678" 
d="M177 370q0 -54 11.5 -69t53.5 -15v-19h-199v19q42 0 53.5 15t11.5 69v128q0 53 -11.5 68t-53.5 15v19h305l8 -94h-17l-5 19q-6 26 -23 35.5t-68 9.5h-66v-112q58 0 71 9.5t13 49.5h19v-149h-19q0 40 -13 49.5t-71 9.5v-57zM633 267h-198v19q42 0 53.5 15t11.5 69v128
q0 53 -11.5 68t-53.5 15v19h198v-19q-41 0 -53 -15t-12 -68v-128q0 -53 12 -68.5t53 -15.5v-19z" />
    <glyph glyph-name="fl.numr" unicode="&#xf06f;" horiz-adv-x="776" 
d="M177 370q0 -54 11.5 -69t53.5 -15v-19h-199v19q42 0 53.5 15t11.5 69v128q0 53 -11.5 68t-53.5 15v19h305l8 -94h-17l-5 19q-6 26 -23 35.5t-68 9.5h-66v-112q58 0 71 9.5t13 49.5h19v-149h-19q0 40 -13 49.5t-71 9.5v-57zM568 381q0 -53 11 -68t50 -15h36q51 0 68 9.5
t23 35.5l5 18h16l-7 -94h-335v19q42 0 53.5 15t11.5 69v128q0 53 -11.5 68t-53.5 15v19h198v-19q-41 0 -53 -15t-12 -68v-117z" />
    <glyph glyph-name="endash.numr" unicode="&#xf070;" horiz-adv-x="408" 
d="M408 425h-409v44h409v-44z" />
    <glyph glyph-name="emdash.numr" unicode="&#xf071;" horiz-adv-x="550" 
d="M550 425h-551v44h551v-44z" />
    <glyph glyph-name="periodcentered.numr" unicode="&#xf072;" horiz-adv-x="292" 
d="M173 467q0 -19 -14.5 -33.5t-33.5 -14.5t-33 14t-14 34t14 34t33 14t33.5 -14.5t14.5 -33.5z" />
    <glyph glyph-name="guillemotleft.numr" unicode="&#xf073;" horiz-adv-x="435" 
d="M388 306l-202 139l202 137l12 -16l-123 -121l123 -122zM276 265l-241 180l241 178l12 -17l-163 -161l163 -162z" />
    <glyph glyph-name="guillemotright.numr" unicode="&#xf074;" horiz-adv-x="435" 
d="M159 265l-12 18l163 162l-163 161l12 17l241 -178zM47 306l-12 17l123 122l-123 121l12 16l202 -137z" />
    <glyph glyph-name="asciitilde.numr" unicode="&#xf075;" horiz-adv-x="363" 
d="M257 446q36 0 49 54h18q0 -54 -21.5 -84t-57.5 -30q-21 0 -73 32t-68 32q-15 0 -29 -16t-19 -38h-18q0 49 21.5 80.5t52.5 31.5q24 0 74.5 -31t70.5 -31z" />
    <glyph glyph-name="guilsinglleft.numr" unicode="&#xf076;" horiz-adv-x="359" 
d="M301 267l-241 179l241 178l12 -17l-152 -162l152 -160z" />
    <glyph glyph-name="guilsinglright.numr" unicode="&#xf077;" horiz-adv-x="359" 
d="M58 267l-12 18l152 160l-152 162l12 17l241 -178z" />
    <glyph glyph-name="ampersand.numr" unicode="&#xf07b;" horiz-adv-x="419" 
d="M157 469q34 18 52 35t18 41q0 17 -12 28t-29 11q-23 0 -36.5 -14t-13.5 -31q0 -37 21 -70zM239 299q-74 70 -108 116q-31 -26 -31 -65q0 -26 21 -46.5t52 -20.5q37 0 66 16zM263 278q-38 -27 -95 -27q-50 0 -87.5 27t-37.5 77q0 48 67 89q-31 49 -31 83q0 36 31 61t76 25
q38 0 65 -20t27 -50q0 -14 -5.5 -25.5t-18 -22t-22 -16.5t-30 -17.5l-29.5 -16.5q21 -27 105 -113q11 16 20 43q7 26 -4 33t-50 7v19h145v-19q-19 0 -29.5 -1.5t-17 -9t-8.5 -12.5t-6 -22q-10 -36 -29 -59q29 -28 56 -28q22 0 39 22l14 -15q-32 -39 -70 -39q-36 0 -75 27z
" />
    <glyph glyph-name="sterling.numr" unicode="&#xf07c;" horiz-adv-x="375" 
d="M187 381q0 -53 11 -68t50 -15h2q51 0 67.5 9t23.5 36l5 18h16l-7 -94h-302v19q42 0 53.5 15t11.5 69v52h-65v35h65v6q0 75 38.5 112.5t93.5 37.5q54 0 74 -40q14 -28 -3 -42q-7 -6 -18 -6q-13 0 -20 9.5t-9.5 21.5t-12 21.5t-26.5 9.5q-30 0 -39 -26t-9 -98v-6h81v-35
h-81v-41z" />
    <glyph glyph-name="yen.numr" unicode="&#xf07d;" horiz-adv-x="375" 
d="M223 390v-20q0 -53 12 -68.5t53 -15.5v-19h-191v19q42 0 53.5 15t11.5 69v20h-110v36h95l-57 87q-28 43 -42.5 55.5t-42.5 12.5v19h173v-19q-37 0 -41.5 -10.5t16.5 -44.5l55 -85l54 85q20 29 16 42t-40 13v19h145v-19q-28 0 -44.5 -13.5t-43.5 -54.5l-57 -87h95v-36
h-110z" />
    <glyph glyph-name="Euro.numr" unicode="&#xf07e;" horiz-adv-x="375" 
d="M69 459h-39v33h45q14 53 51.5 87t84.5 34q48 0 82 -47q1 2 9 34h15v-137h-19q-9 56 -31 87.5t-55 31.5q-59 0 -74 -90h95v-33h-99q-1 -9 -1 -25q0 -17 1 -25h99v-34h-95q15 -89 74 -89q33 0 55 31.5t31 87.5h19v-138h-15q-7 31 -9 35q-36 -48 -82 -48t-83.5 34t-52.5 87
h-45v34h39q-1 8 -1 25q0 16 1 25z" />
    <glyph glyph-name="perthousand.numr" unicode="&#xf07f;" horiz-adv-x="808" 
d="M232 501q0 -46 -27.5 -78.5t-66.5 -32.5q-38 0 -65 32.5t-27 78.5t27 79t65 33q39 0 66.5 -33t27.5 -79zM180 501q0 86 -42 86q-20 0 -30.5 -24t-10.5 -62q0 -37 10.5 -61.5t30.5 -24.5q21 0 31.5 24t10.5 62zM166 263l218 352l29 -14l-219 -352zM577 362q0 46 27 79
t66 33q38 0 65.5 -33t27.5 -79t-27.5 -79t-65.5 -33q-39 0 -66 33t-27 79zM628 362q0 -37 11 -61.5t31 -24.5t31 24.5t11 61.5q0 38 -11 62t-31 24t-31 -24t-11 -62zM347 362q0 46 27 79t66 33q38 0 65.5 -33t27.5 -79t-27.5 -79t-65.5 -33q-39 0 -66 33t-27 79zM398 362
q0 -37 11 -61.5t31 -24.5t31 24.5t11 61.5q0 38 -11 62t-31 24t-31 -24t-11 -62z" />
    <glyph glyph-name="florin.numr" unicode="&#xf080;" horiz-adv-x="399" 
d="M229 261q0 -90 -40.5 -135.5t-100.5 -45.5q-68 0 -100 47q-21 32 -5 51q7 8 20 9q17 1 26.5 -10t13 -25.5t16 -27t34.5 -12.5q69 0 69 149v108h-79v35h79v29q0 91 46 135.5t111 44.5q62 0 88 -44q18 -32 0 -52q-8 -10 -24 -10q-15 0 -23.5 11.5t-11.5 25.5t-14.5 25.5
t-31.5 11.5q-38 0 -55.5 -34t-17.5 -114v-29h98v-35h-98v-108z" />
    <glyph glyph-name="percent.numr" unicode="&#xf081;" horiz-adv-x="578" 
d="M232 501q0 -46 -27.5 -78.5t-66.5 -32.5q-38 0 -65 32.5t-27 78.5t27 79t65 33q39 0 66.5 -33t27.5 -79zM180 501q0 86 -42 86q-20 0 -30.5 -24t-10.5 -62q0 -37 10.5 -61.5t30.5 -24.5q21 0 31.5 24t10.5 62zM166 263l218 352l29 -14l-219 -352zM347 362q0 46 27 79
t66 33q38 0 65.5 -33t27.5 -79t-27.5 -79t-65.5 -33q-39 0 -66 33t-27 79zM398 362q0 -37 11 -61.5t31 -24.5t31 24.5t11 61.5q0 38 -11 62t-31 24t-31 -24t-11 -62z" />
    <glyph glyph-name="asterisk.numr" unicode="&#xf082;" horiz-adv-x="244" 
d="M117 491q-23 -15 -36.5 -34.5t-16.5 -21.5q-10 -7 -21.5 -4t-17.5 14q-13 22 11 39q3 2 27 3.5t48 13.5q-24 12 -47.5 14t-27.5 4q-10 5 -13.5 16.5t2.5 21.5t17.5 13t21.5 -3q3 -2 16.5 -22t36.5 -35q-2 27 -12.5 48.5t-10.5 25.5q0 12 8.5 20.5t19.5 8.5
q12 0 20.5 -8.5t8.5 -20.5q0 -4 -10.5 -25.5t-12.5 -48.5q23 15 36 34.5t16 21.5q10 7 21.5 4t17.5 -13q6 -9 2.5 -21.5t-13.5 -18.5q-3 -2 -27 -3t-48 -13q24 -12 48 -13t27 -3q10 -7 13.5 -19t-2.5 -21q-6 -10 -17.5 -13t-21.5 3q-2 2 -15.5 22t-37.5 35q2 -27 13 -48.5
t11 -25.5q0 -12 -8.5 -20.5t-20.5 -8.5q-11 0 -19.5 8.5t-8.5 20.5q0 4 10.5 25t12.5 48z" />
    <glyph glyph-name="plus.numr" unicode="&#xf083;" horiz-adv-x="425" 
d="M234 460h133v-44h-133v-132h-44v132h-132v44h132v132h44v-132z" />
    <glyph glyph-name="less.numr" unicode="&#xf084;" horiz-adv-x="400" 
d="M339 257l-275 181l275 182l14 -20l-184 -162l184 -160z" />
    <glyph glyph-name="greater.numr" unicode="&#xf085;" horiz-adv-x="400" 
d="M61 257l-14 21l184 160l-184 162l14 20l275 -182z" />
    <glyph glyph-name="equal.numr" unicode="&#xf086;" horiz-adv-x="392" 
d="M325 479h-258v44h258v-44zM325 354h-258v44h258v-44z" />
    <glyph glyph-name="approxequal.numr" unicode="&#xf087;" horiz-adv-x="390" 
d="M62 513q27 33 66 33q20 0 66.5 -16.5t67.5 -16.5q16 0 32.5 8.5t25.5 16.5l8 8v-50q-27 -33 -66 -33q-20 0 -66.5 16.5t-67.5 16.5q-16 0 -32.5 -8t-25.5 -16l-8 -9v50zM62 380q27 33 66 33q20 0 66.5 -16.5t67.5 -16.5q16 0 32.5 8t25.5 16l8 9v-50q-27 -33 -66 -33
q-20 0 -66.5 16.5t-67.5 16.5q-16 0 -32.5 -8.5t-25.5 -16.5l-8 -8v50z" />
    <glyph glyph-name="notequal.numr" unicode="&#xf088;" horiz-adv-x="408" 
d="M286 523h56v-44h-88l-56 -81h144v-44h-175l-65 -92l-32 18l52 74h-55v44h86l57 81h-143v44h174l66 92l31 -19z" />
    <glyph glyph-name="lessequal.numr" unicode="&#xf089;" horiz-adv-x="408" 
d="M336 380l-10 -23l-259 128l259 127l10 -22l-149 -105zM363 306v-39h-300v39h300z" />
    <glyph glyph-name="greaterequal.numr" unicode="&#xf08a;" horiz-adv-x="408" 
d="M73 380l149 105l-149 105l10 22l259 -127l-259 -128zM46 306h300v-39h-300v39z" />
    <glyph glyph-name="partialdiff.numr" unicode="&#xf08b;" horiz-adv-x="353" 
d="M40 363q0 45 36.5 77.5t89.5 32.5q46 0 77 -29q-5 55 -26.5 95.5t-58.5 40.5q-26 0 -48 -19t-28 -19q-24 0 -24 23q0 17 29.5 33t70.5 16q69 0 109.5 -59.5t40.5 -136.5q0 -47 -14.5 -81t-37.5 -51t-45.5 -24.5t-43.5 -7.5q-52 0 -89.5 32.5t-37.5 76.5zM104 363
q0 -29 16.5 -53.5t46.5 -24.5t53 32t23 86q-7 16 -27 27t-43 11q-31 0 -50 -24.5t-19 -53.5z" />
    <glyph glyph-name="summation.numr" unicode="&#xf08c;" horiz-adv-x="381" 
d="M31 180l142 211l-140 192v17h294l7 -95h-17l-6 25q-5 20 -16.5 28t-46.5 8h-141l136 -182l-127 -187h147q35 0 46.5 8t16.5 29l6 24h17l-6 -95h-312v17z" />
    <glyph glyph-name="product.numr" unicode="&#xf08d;" horiz-adv-x="482" 
d="M440 600v-19q-42 0 -53.5 -15t-11.5 -68v-128q0 -54 11.5 -69t53.5 -15v-19h-172v19q29 0 39 16t10 68v196h-152v-196q0 -53 9 -68.5t39 -15.5v-19h-171v19q42 0 53.5 15t11.5 69v128q0 53 -11.5 68t-53.5 15v19h398z" />
    <glyph glyph-name="pi.numr" unicode="&#xf08e;" horiz-adv-x="482" 
d="M440 600v-19q-42 0 -53.5 -15t-11.5 -68v-128q0 -54 11.5 -69t53.5 -15v-19h-172v19q29 0 39 16t10 68v196h-152v-196q0 -53 9 -68.5t39 -15.5v-19h-171v19q42 0 53.5 15t11.5 69v128q0 53 -11.5 68t-53.5 15v19h398z" />
    <glyph glyph-name="integral.numr" unicode="&#xf08f;" horiz-adv-x="399" 
d="M229 261q0 -90 -40.5 -135.5t-100.5 -45.5q-68 0 -100 47q-21 32 -5 51q7 8 20 9q17 1 26.5 -10t13 -25.5t16 -27t34.5 -12.5q69 0 69 149v172q0 91 46 135.5t111 44.5q62 0 88 -44q18 -32 0 -52q-8 -10 -24 -10q-15 0 -23.5 11.5t-11.5 25.5t-14.5 25.5t-31.5 11.5
q-38 0 -55.5 -34t-17.5 -114v-172z" />
    <glyph glyph-name="Omega.numr" unicode="&#xf090;" horiz-adv-x="378" 
d="M273 484q0 94 -84 94t-84 -94q0 -75 60 -92v-125h-111l-4 100h18l4 -16q5 -21 13.5 -28.5t32.5 -7.5h11v50q-38 15 -61.5 47.5t-23.5 70.5q0 52 41 91t104 39t103.5 -39t40.5 -91q0 -38 -23 -70.5t-61 -47.5v-50h12q22 0 31.5 8t14.5 28l3 16h18l-4 -100h-111v125
q60 17 60 92z" />
    <glyph glyph-name="radical.numr" unicode="&#xf091;" horiz-adv-x="441" 
d="M60 535l55 26l83 -205l184 495h41l-226 -606h-15z" />
    <glyph glyph-name="divide.numr" unicode="&#xf092;" horiz-adv-x="425" 
d="M371 425h-317v44h317v-44zM260 326q0 -20 -14 -34t-34 -14q-19 0 -33 14t-14 34t14 34.5t33 14.5t33.5 -14.5t14.5 -34.5zM260 567q0 -19 -14 -33.5t-34 -14.5q-19 0 -33 14t-14 34t14 34t33 14q20 0 34 -14.5t14 -33.5z" />
    <glyph glyph-name="plusminus.numr" unicode="&#xf093;" horiz-adv-x="425" 
d="M358 306v-39h-291v39h291zM234 498h124v-44h-124v-104h-44v104h-123v44h123v102h44v-102z" />
    <glyph glyph-name="Delta.numr" unicode="&#xf094;" horiz-adv-x="356" 
d="M172 613h19l145 -346h-317zM254 299l-89 219l-95 -219h184z" />
    <glyph glyph-name="infinity.numr" unicode="&#xf095;" horiz-adv-x="513" 
d="M378 341q-53 0 -127 72q-28 -28 -64 -50t-63 -22q-45 0 -73 28.5t-28 69.5q0 42 28 70t73 28q27 0 62.5 -21.5t64.5 -49.5q73 71 127 71q44 0 72.5 -28t28.5 -70q0 -41 -28.5 -69.5t-72.5 -28.5zM379 497q-28 0 -101 -58q71 -57 101 -57q25 0 41 16.5t16 40.5t-16 41
t-41 17zM122 497q-24 0 -40 -17t-16 -41t16 -40.5t40 -16.5q29 0 91 57q-63 58 -91 58z" />
    <glyph glyph-name="braceleft.numr" unicode="&#xf096;" horiz-adv-x="293" 
d="M50 443q39 11 51 30.5t12 88.5q0 77 69 121q17 10 76 38l10 -24q-29 -17 -41.5 -25.5t-28 -24t-20.5 -35t-5 -47.5q0 -73 -13.5 -96t-57.5 -31q44 -9 57.5 -32t13.5 -96q0 -28 5 -47.5t20.5 -35t28 -24t41.5 -25.5l-10 -24q-75 35 -97 53q-48 40 -48 106q0 69 -12 88.5
t-51 30.5v11z" />
    <glyph glyph-name="braceright.numr" unicode="&#xf097;" horiz-adv-x="293" 
d="M243 443v-11q-40 -11 -51.5 -30.5t-11.5 -88.5q0 -77 -69 -121q-17 -10 -76 -38l-11 24q38 21 54 33t28.5 37t12.5 62q0 73 13.5 96t58.5 32q-45 8 -58.5 31t-13.5 96q0 37 -12.5 62t-28.5 37t-54 33l11 24q75 -35 97 -53q48 -40 48 -106q0 -69 11.5 -88.5t51.5 -30.5z
" />
    <glyph glyph-name="bracketleft.numr" unicode="&#xf098;" horiz-adv-x="300" 
d="M261 179h-169v509h169v-32h-104v-445h104v-32z" />
    <glyph glyph-name="bracketright.numr" unicode="&#xf099;" horiz-adv-x="300" 
d="M39 179v32h104v445h-104v32h169v-509h-169z" />
    <glyph glyph-name="paragraph.numr" unicode="&#xf09a;" horiz-adv-x="407" 
d="M379 600v-16q-51 0 -65 -17.5t-14 -79.5v-277q0 -62 14 -79t65 -17v-17h-123v468h-56v-468h-123v17q51 0 65 17t14 79v111q-53 7 -89 46.5t-36 92.5q0 58 41 99t99 41h208z" />
    <glyph glyph-name="section.numr" unicode="&#xf09b;" horiz-adv-x="348" 
d="M98 440q-40 30 -40 79q0 39 29.5 66t77.5 27q38 0 70 -26q8 8 13 27h19v-110h-21q-7 37 -24 57.5t-54 20.5q-23 0 -38.5 -12.5t-15.5 -33.5q0 -19 15 -32.5t54 -32.5l39 -19q83 -38 83 -102q0 -66 -56 -96q41 -30 41 -79q0 -39 -30 -66t-77 -27q-42 0 -78 26
q-9 -9 -12 -27h-20v119h21q6 -39 27.5 -63t58.5 -24q24 0 39 12.5t15 33.5q0 20 -14 33.5t-54 32.5l-39 18q-84 40 -84 103q0 65 55 95zM215 273q38 9 38 50q0 42 -68 73l-52 24q-38 -8 -38 -50q0 -40 68 -73z" />
    <glyph glyph-name="dagger.numr" unicode="&#xf09c;" horiz-adv-x="358" 
d="M190 467l22 -121l-30 -273h-6l-29 273l21 122l-73 -24q-16 -5 -31 7t-15 29q0 18 15 30.5t31 6.5l75 -25l-27 82q-6 16 6 31t30 15t30 -15t7 -31l-28 -82l75 25q16 6 30.5 -6.5t14.5 -30.5t-14.5 -30t-30.5 -6z" />
    <glyph glyph-name="daggerdbl.numr" unicode="&#xf09d;" horiz-adv-x="358" 
d="M308 214q0 -18 -14.5 -30.5t-30.5 -6.5l-75 24l28 -81q5 -16 -7 -31t-30 -15t-30 15t-6 31l27 81l-75 -24q-16 -5 -31 7t-15 30q0 17 15 29t31 7l73 -24l-20 120l20 122l-73 -25q-16 -6 -31 6.5t-15 30.5t15 30.5t31 6.5l75 -26l-27 83q-6 16 6.5 31t29.5 15q18 0 30 -15
t7 -31l-28 -83l75 26q16 6 30.5 -6.5t14.5 -30.5t-15 -30.5t-30 -6.5l-73 24l20 -120l-20 -120l73 23q16 6 30.5 -6t14.5 -30z" />
    <glyph glyph-name="copyright.numr" unicode="&#xf09e;" horiz-adv-x="424" 
d="M212 589q-65 0 -111 -46t-46 -111t46 -111t111 -46t110.5 46t45.5 111t-45.5 111t-110.5 46zM299 332h-11q-4 17 -8 21q-27 -29 -65 -29q-48 0 -81.5 32t-33.5 77t33.5 77t81.5 32q39 0 65 -28q5 8 8 21h11v-85h-12q-4 34 -23 54t-46 20q-35 0 -50 -27.5t-15 -63.5
q0 -35 15 -62t50 -27q27 0 46.5 19t22.5 52h12v-83zM212 615q76 0 129 -53.5t53 -129.5t-53 -129.5t-129 -53.5t-130 53.5t-54 129.5t54 129.5t130 53.5z" />
    <glyph glyph-name="registered.numr" unicode="&#xf09f;" horiz-adv-x="256" 
d="M128 613q49 0 82.5 -33.5t33.5 -81.5q0 -49 -33.5 -82.5t-82.5 -33.5q-48 0 -81.5 33.5t-33.5 82.5q0 48 33.5 81.5t81.5 33.5zM156 525q0 26 -25 26h-16v-51h16q25 0 25 25zM208 436q20 28 20 62q0 41 -29.5 70.5t-70.5 29.5t-70.5 -29.5t-29.5 -70.5q0 -42 29.5 -71.5
t70.5 -29.5q48 0 78 38h-42l-42 54h-7v-14q0 -21 4 -27t17 -6v-7h-72v7q16 0 20.5 6t4.5 27v49q0 20 -4.5 25.5t-20.5 5.5v8h68q24 0 37.5 -10.5t13.5 -27.5q0 -29 -36 -35l17 -20q23 -24 44 -28v-6z" />
    <glyph glyph-name="trademark.numr" unicode="&#xf0a0;" horiz-adv-x="487" 
d="M96 585h-24q-27 0 -36 -6t-14 -22l-3 -9h-8l2 52h193l3 -52h-9l-2 9q-5 17 -13.5 22.5t-36.5 5.5h-24v-112q0 -33 6.5 -42t27.5 -9v-9h-96v9q21 0 27.5 9t6.5 42v112zM280 559v-86q0 -33 6 -42t28 -9v-9h-85v9q22 0 28 9t6 42v68q0 33 -6 42t-28 9v8h64l63 -145l63 145
h59v-8q-23 0 -29 -9t-6 -42v-68q0 -33 6 -42t29 -9v-9h-97v9q21 0 27.5 9t6.5 42v80l-63 -147h-6z" />
    <glyph glyph-name="ordfeminine.numr" unicode="&#xf0a1;" horiz-adv-x="266" 
d="M84 470l-9 -20q-10 -18 -5.5 -25.5t31.5 -7.5v-12h-95v12q21 0 29.5 7t20.5 33l73 156h10l74 -156q12 -26 20 -33t28 -7v-12h-117v12q26 0 31.5 7.5t-4.5 25.5l-9 20h-78zM153 489l-30 63l-30 -63h60z" />
    <glyph glyph-name="ordmasculine.numr" unicode="&#xf0a2;" horiz-adv-x="304" 
d="M272 505q0 -44 -35 -75.5t-85 -31.5t-85 31.5t-35 75.5q0 45 35 76.5t85 31.5t85 -31.5t35 -76.5zM227 505q0 35 -18.5 62.5t-56.5 27.5t-56 -27.5t-18 -62.5t18 -61.5t56 -26.5t56.5 26.5t18.5 61.5z" />
    <glyph glyph-name="numbersign.numr" unicode="&#xf0a3;" horiz-adv-x="352" 
d="M307 390l-8 -46h-62l-15 -96h-38l17 96h-79l-16 -96h-38l17 96h-62l9 46h61l14 83h-61l7 47h62l18 95h36l-16 -95h77l18 95h36l-16 -95h61l-7 -47h-63l-14 -83h62zM208 390l14 83h-78l-14 -83h78z" />
    <glyph glyph-name="asciicircum.numr" unicode="&#xf0a4;" horiz-adv-x="291" 
d="M272 448l-17 -15l-109 109l-109 -109l-17 15l127 175z" />
    <glyph glyph-name="question.numr" unicode="&#xf0a6;" horiz-adv-x="311" 
d="M139 582q-28 0 -45.5 -9t-17.5 -21q0 -7 20 -7q12 0 21 -9t9 -20q0 -15 -12 -23t-25 -8q-19 0 -35 16.5t-16 41.5q0 28 30.5 49t75.5 21q55 0 97 -27.5t42 -72.5q0 -31 -16.5 -53.5t-42.5 -34.5t-43 -17t-34 -7v-23h-29v74q46 0 77 16.5t31 51.5q0 29 -25.5 45.5
t-61.5 16.5zM140 338q16 0 27.5 -11.5t11.5 -27.5q0 -17 -11.5 -28.5t-27.5 -11.5t-27.5 11.5t-11.5 28.5q0 16 11.5 27.5t27.5 11.5z" />
    <glyph glyph-name="exclam.numr" unicode="&#xf0a7;" horiz-adv-x="196" 
d="M48 568q0 18 13.5 31.5t31.5 13.5q17 0 30.5 -13.5t13.5 -31.5q0 -12 -16 -69.5t-18 -120.5h-22q-2 63 -17.5 120.5t-15.5 69.5zM92 338q16 0 27.5 -11.5t11.5 -27.5t-11.5 -28t-27.5 -12t-27.5 11.5t-11.5 28.5q0 16 11.5 27.5t27.5 11.5z" />
    <glyph glyph-name="underscore.numr" unicode="&#xf0a8;" horiz-adv-x="358" 
d="M359 223h-360v44h360v-44z" />
    <glyph glyph-name="questiondown.numr" unicode="&#xf0b3;" horiz-adv-x="311" 
d="M171 525q-16 0 -27.5 11.5t-11.5 28.5q0 16 11.5 27.5t27.5 11.5t27.5 -11.5t11.5 -27.5q0 -17 -11.5 -28.5t-27.5 -11.5zM172 281q28 0 45.5 9t17.5 21q0 8 -20 8q-12 0 -21 8.5t-9 19.5q0 16 12 23.5t25 7.5q19 0 35 -16.5t16 -41.5q0 -28 -30.5 -49t-75.5 -21
q-55 0 -97 27.5t-42 72.5q0 31 16.5 54t42 34.5t44 16.5t33.5 7v23h29v-74q-46 0 -77 -16t-31 -51q0 -29 25.5 -46t61.5 -17z" />
    <glyph glyph-name="lozenge.numr" unicode="&#xf0b4;" horiz-adv-x="317" 
d="M282 430l-124 -201l-123 201l124 194zM237 430l-79 125l-79 -125l79 -130z" />
    <glyph glyph-name="degree.numr" unicode="&#xf0b5;" horiz-adv-x="240" 
d="M119 584q-25 0 -43 -18t-18 -44t18 -43.5t43 -17.5q26 0 44 18t18 43q0 26 -18.5 44t-43.5 18zM119 613q37 0 64 -26.5t27 -64.5q0 -37 -26.5 -63.5t-64.5 -26.5t-64.5 26.5t-26.5 63.5q0 38 27 64.5t64 26.5z" />
    <glyph glyph-name="logicalnot.numr" unicode="&#xf0b6;" horiz-adv-x="409" 
d="M334 477v-172h-44v128h-232v44h276z" />
    <glyph glyph-name="mu.numr" unicode="&#xf0b7;" horiz-adv-x="488" 
d="M163 276v-77q0 -53 12 -68t53 -15v-19h-197v19q42 0 53.5 15t11.5 68v299q0 53 -11.5 68t-53.5 15v19h197v-19q-41 0 -53 -15t-12 -68v-103q0 -48 26 -73t69 -25t70 25t27 73v103q0 54 -11 68.5t-53 14.5v19h167v-19q-42 0 -53.5 -15t-11.5 -68v-98q0 -69 -40.5 -107
t-104.5 -38q-48 0 -85 21z" />
    <glyph glyph-name="exclamdown.numr" unicode="&#xf0b8;" horiz-adv-x="196" 
d="M104 525q-16 0 -27.5 12t-11.5 28t11.5 27.5t27.5 11.5t27.5 -11.5t11.5 -27.5q0 -17 -11.5 -28.5t-27.5 -11.5zM148 295q0 -18 -13.5 -31.5t-31.5 -13.5q-17 0 -30.5 13.5t-13.5 31.5q0 13 16 70t18 120h22q2 -63 17.5 -120t15.5 -70z" />
    <glyph glyph-name="minus.numr" unicode="&#xf0b9;" horiz-adv-x="425" 
d="M358 416h-291v44h291v-44z" />
    <glyph glyph-name="multiply.numr" unicode="&#xf0ba;" horiz-adv-x="425" 
d="M243 438l112 -112l-32 -31l-110 112l-112 -112l-31 31l111 112l-111 111l32 31l111 -111l110 111l31 -31z" />
    <glyph glyph-name="parenleft.sups" unicode="&#xf0bb;" horiz-adv-x="258" 
d="M239 323l-16 -19q-162 134 -162 284t161 283l17 -18q-112 -123 -112 -265t112 -265z" />
    <glyph glyph-name="parenright.sups" unicode="&#xf0bc;" horiz-adv-x="258" 
d="M19 323q113 125 113 265t-113 265l18 18q161 -133 161 -283t-162 -284z" />
    <glyph glyph-name="comma.sups" unicode="&#xf0bd;" horiz-adv-x="279" 
d="M138 415q-3 -1 -9 -1q-19 0 -32.5 14.5t-13.5 34.5t13.5 34t32.5 14q22 0 38 -16t16 -47q0 -36 -24 -80t-67 -71l-12 12q50 51 58 106z" />
    <glyph glyph-name="period.sups" unicode="&#xf0be;" horiz-adv-x="279" 
d="M194 461q0 -21 -16.5 -36.5t-39.5 -15.5t-39 15.5t-16 36.5q0 22 16 37.5t39 15.5t39.5 -15.5t16.5 -37.5z" />
    <glyph glyph-name="cent.sups" unicode="&#xf0bf;" horiz-adv-x="375" 
d="M219 406v-56h-29v55q-58 7 -97 58t-39 121q0 69 39 120t97 58v55h29v-56q45 -6 72 -45q3 6 10 34h16v-137h-19q-19 107 -79 117v-293q60 12 79 118h19v-138h-16q-6 28 -9 35q-32 -39 -73 -46zM190 438v292q-68 -14 -68 -146q0 -131 68 -146z" />
    <glyph glyph-name="dollar.sups" unicode="&#xf0c0;" horiz-adv-x="375" 
d="M209 405v-88h-29v88q-44 7 -75 33q-11 -11 -16 -34h-20v138h20q5 -42 29.5 -68.5t61.5 -34.5v123l-38 18q-72 34 -72 93q0 37 31 63t78 26h1v88h29v-91q26 -5 50 -23q8 8 13 27h19v-118h-19q-10 67 -63 83v-109l45 -21q68 -32 68 -87q0 -44 -32.5 -73.5t-80.5 -32.5z
M209 549v-112q62 3 62 48q0 19 -13.5 33t-48.5 31zM180 632v99q-26 -1 -42 -12t-16 -29t12 -29.5t46 -28.5z" />
    <glyph glyph-name="hyphen.sups" unicode="&#xf0c1;" horiz-adv-x="425" 
d="M342 575h-259v44h259v-44z" />
    <glyph glyph-name="parenleft.sinf" unicode="&#xf0c2;" horiz-adv-x="258" 
d="M239 -244l-16 -19q-162 134 -162 284t161 283l17 -18q-112 -123 -112 -265t112 -265z" />
    <glyph glyph-name="parenright.sinf" unicode="&#xf0c3;" horiz-adv-x="258" 
d="M19 -244q113 125 113 265t-113 265l18 18q161 -133 161 -283t-162 -284z" />
    <glyph glyph-name="hyphen.sinf" unicode="&#xf0c4;" horiz-adv-x="425" 
d="M342 8h-259v44h259v-44z" />
    <glyph glyph-name="cent.sinf" unicode="&#xf0c5;" horiz-adv-x="375" 
d="M219 -161v-56h-29v55q-58 7 -97 58t-39 121q0 69 39 120t97 58v55h29v-56q45 -6 72 -45q3 6 10 34h16v-137h-19q-19 107 -79 117v-293q60 12 79 118h19v-138h-16q-6 28 -9 35q-32 -39 -73 -46zM190 -129v292q-68 -14 -68 -146q0 -131 68 -146z" />
    <glyph glyph-name="dollar.sinf" unicode="&#xf0c6;" horiz-adv-x="375" 
d="M209 -162v-88h-29v88q-44 7 -75 33q-11 -11 -16 -34h-20v138h20q5 -42 29.5 -68.5t61.5 -34.5v123l-38 18q-72 34 -72 93q0 37 31 63t78 26h1v88h29v-91q26 -5 50 -23q8 8 13 27h19v-118h-19q-10 67 -63 83v-109l45 -21q68 -32 68 -87q0 -44 -32.5 -73.5t-80.5 -32.5z
M209 -18v-112q62 3 62 48q0 19 -13.5 33t-48.5 31zM180 65v99q-26 -1 -42 -12t-16 -29t12 -29.5t46 -28.5z" />
    <glyph glyph-name="comma.sinf" unicode="&#xf0c7;" horiz-adv-x="246" 
d="M121 -152q-3 -1 -8 -1q-19 0 -32.5 14t-13.5 34q0 19 13.5 33.5t32.5 14.5q21 0 36.5 -16.5t15.5 -46.5q0 -36 -23.5 -78.5t-65.5 -69.5l-12 11q48 51 57 105z" />
    <glyph glyph-name="period.sinf" unicode="&#xf0c8;" horiz-adv-x="246" 
d="M115 -158q-20 0 -34.5 14t-14.5 35q0 20 14.5 35t34.5 15q21 0 35 -14.5t14 -35.5t-14 -35t-35 -14z" />
    <glyph glyph-name="hsuperior" unicode="&#xf0c9;" horiz-adv-x="395" 
d="M74 518q0 52 -10 66.5t-47 14.5v21l115 20v-198q42 46 96 46q49 0 73.5 -30t24.5 -80v-45q0 -53 10 -67t47 -14v-22h-172v22q36 0 46.5 14.5t10.5 66.5v41q0 74 -62 74q-24 0 -49 -19.5t-25 -48.5v-47q0 -54 8.5 -67.5t42.5 -13.5v-22h-166v22q37 0 47 14.5t10 66.5v185z
" />
    <glyph glyph-name="orn.001" unicode="&#xf0ca;" horiz-adv-x="333" 
d="M151 500l-68 -22q-16 -4 -31 8t-15 29t15 29t31 8l74 -25l-28 81q-4 17 7.5 31.5t29.5 14.5t29.5 -14.5t7.5 -31.5l-28 -81l75 25q16 4 31 -8t15 -29t-15 -29t-31 -8l-72 24q3 -27 33 -66t57.5 -80.5t27.5 -77.5q0 -61 -37.5 -100.5t-89.5 -57.5l-8 16q72 37 72 129
q0 38 -40.5 111.5t-41.5 123.5zM155 -62q-3 27 -33 66.5t-57.5 81t-27.5 77.5q0 61 37.5 100.5t88.5 57.5l9 -16q-73 -37 -73 -129q0 -38 40.5 -111.5t42.5 -123.5l68 21q16 5 31 -7t15 -29q0 -18 -15 -30t-31 -7l-74 25l27 -82q5 -16 -6.5 -30.5t-29.5 -14.5t-30 14.5
t-7 30.5l28 82l-75 -25q-16 -5 -31 7t-15 30q0 17 15 29t31 7z" />
    <glyph glyph-name="orn.002" unicode="&#xf0cb;" horiz-adv-x="984" 
d="M772 236l-22 68q-5 16 7 31t30 15q17 0 29 -15t7 -31l-25 -74l82 28q17 4 31.5 -8t14.5 -29t-14.5 -29t-31.5 -8l-82 28l25 -75q5 -16 -7 -31t-29 -15q-18 0 -30 15t-7 31l23 72q-26 -3 -65 -33t-80.5 -57.5t-78.5 -27.5q-60 0 -99.5 37.5t-57.5 89.5l16 8
q36 -73 129 -73q38 0 111.5 40.5t123.5 42.5zM210 232q22 3 51.5 22t54 40t57.5 38.5t62 17.5q60 0 100 -37.5t58 -89.5l-16 -8q-37 73 -129 73q-39 0 -112.5 -40.5t-122.5 -42.5l21 -68q5 -16 -7 -31t-29 -15q-18 0 -30 15t-7 31l25 74l-82 -28q-16 -4 -31 8t-15 29t15 29
t31 8l82 -28l-25 75q-5 16 7 31t30 15q17 0 29 -15t7 -31z" />
    <glyph glyph-name="orn.003" unicode="&#xf0cc;" horiz-adv-x="583" 
d="M584 317q9 -15 2.5 -33t-23.5 -21l-108 -23l-81 71q-13 11 -9.5 30.5t18.5 27.5q15 9 33 2.5t22 -23.5l20 -100l68 79q12 12 31 8.5t27 -18.5zM390 475l-35 -104l-101 -34q-16 -6 -31 6t-15 30t15 30t31 7l96 -32l-33 97q-5 17 6.5 31.5t29.5 14.5t30.5 -14.5t6.5 -31.5z
M523 15q-9 -15 -28.5 -18.5t-30.5 9.5l-72 82l21 105q3 17 21 23.5t33 -2.5q15 -8 18.5 -26.5t-9.5 -31.5l-76 -67l101 -19q16 -4 23 -22t-1 -33zM192 350l-22 -103q-2 -18 -20 -24.5t-33 2.5t-18.5 27.5t8.5 30.5l76 66l-100 20q-17 4 -24 21.5t2 32.5t27.5 18.5t30.5 -8.5
zM375 65q0 -17 -14.5 -29t-31.5 -8l-96 33l34 -98q4 -16 -8 -31t-29 -15q-18 0 -30 15t-7 31l35 105l101 34q17 5 31.5 -7t14.5 -30zM208 128q14 -12 10.5 -30.5t-18.5 -27.5t-33 -2.5t-22 24.5l-20 99l-67 -78q-12 -13 -31 -9.5t-28 18.5t-2.5 33t24.5 22l107 21z" />
    <glyph glyph-name="orn.004" unicode="&#xf0cd;" horiz-adv-x="583" 
d="M578 344q9 -15 2 -33t-23 -22l-74 -16l-20 -10l-51 -57q-11 -13 -30.5 -10t-28.5 18q-8 15 -1.5 33t22.5 22l79 16l-66 57q-12 12 -8.5 30.5t18.5 26.5q15 9 32.5 2.5t21.5 -23.5l17 -84l51 59q12 12 31.5 9.5t27.5 -18.5zM365 316q5 -16 -7 -31t-30 -15q-17 0 -29 15
t-7 31l25 75l-82 -28q-16 -4 -31 8t-15 29t15 29t31 8l82 -28l-25 74q-5 16 7 31t29 15q18 0 30 -15t7 -31l-23 -72v-22zM542 34q-9 -15 -28 -18t-31 10l-50 56l-20 11l-75 16q-16 4 -23 22t2 33q8 15 28 18t31 -9l52 -60l17 85q4 17 22 23.5t33 -2.5q15 -8 18.5 -26.5
t-9.5 -30.5l-66 -58l78 -15q16 -4 22.5 -21.5t-1.5 -33.5zM268 276q-9 -15 -29 -17.5t-31 9.5l-51 60l-18 -86q-4 -17 -21.5 -23.5t-32.5 2.5t-18.5 27.5t8.5 29.5l66 59l-78 14q-16 4 -22.5 22t2.5 34q8 15 27 17.5t31 -10.5l51 -55l19 -11l75 -16q16 -4 23 -22.5t-1 -33.5
zM396 40q0 -18 -14.5 -29.5t-31.5 -7.5l-82 28l25 -74q5 -16 -7 -31t-29 -15q-18 0 -30 15t-7 31l23 72v22l-23 73q-5 16 7 31t30 15q17 0 29 -15t7 -31l-25 -75l82 28q17 4 31.5 -7.5t14.5 -29.5zM231 226q9 -15 2 -32.5t-23 -21.5l-78 -16l66 -58q12 -11 8.5 -29.5
t-18.5 -27.5t-33 -2.5t-22 23.5l-17 85l-51 -59q-12 -13 -31 -10t-28 19q-9 15 -2 32.5t24 21.5l74 17l19 10l52 57q11 13 30 9.5t28 -18.5z" />
    <glyph glyph-name="orn.005" unicode="&#xf0ce;" horiz-adv-x="583" 
d="M348 416q-6 16 6 31t30 15t30 -15t7 -31l-34 -100l100 34q16 6 31 -6.5t15 -30.5t-15 -30t-31 -6l-104 35zM235 416l-35 -104l-104 -35q-17 -6 -31.5 6t-14.5 30t15 30.5t31 6.5l100 -34l-34 100q-6 16 6 31t30 15t30.5 -15t6.5 -31zM430 220q0 -18 -14.5 -29.5
t-31.5 -7.5l-81 28l25 -75q4 -16 -8 -31t-29 -15t-29 15t-8 31l25 75l-81 -28q-17 -4 -31.5 7.5t-14.5 29.5t14.5 29.5t31.5 7.5l81 -28l-25 74q-4 16 8 31t29 15t29 -15t8 -31l-25 -74l81 28q17 4 31.5 -7.5t14.5 -29.5zM348 23l35 105l104 35q16 5 31 -7t15 -30
q0 -17 -15 -29.5t-31 -7.5l-100 34l34 -100q5 -16 -7 -31t-30 -15t-30 15t-6 31zM235 23q6 -16 -6.5 -31t-30.5 -15q-17 0 -29 15t-7 31l34 100l-100 -34q-17 -4 -31.5 7.5t-14.5 29.5t14.5 30t31.5 7l104 -35z" />
    <glyph glyph-name="orn.006" unicode="&#xf0cf;" horiz-adv-x="583" 
d="M323 290q-16 -5 -30.5 7t-14.5 30t14.5 30t30.5 6l75 -25l-27 82q-6 17 6.5 31.5t30.5 14.5t30 -14.5t6 -31.5l-27 -82l74 25q16 6 31 -6t15 -30t-15 -30t-31 -7l-73 23h-21zM175 -27q-18 0 -30 15t-7 31l28 82l-74 -25q-16 -6 -31 6.5t-15 30.5q0 17 15 29t31 7l72 -23
h22l73 23q16 5 31 -7t15 -29q0 -18 -15 -30.5t-31 -6.5l-75 25l28 -82q5 -16 -7 -31t-30 -15zM223 252q5 -16 -7 -31t-29 -15q-18 0 -30 15t-7 31l25 75l-82 -28q-16 -4 -30.5 8t-14.5 29t14.5 29t30.5 8l82 -28l-25 74q-5 16 7 31t30 15q17 0 29 -15t7 -31l-23 -72v-22z
M538 103q0 -18 -15 -30.5t-31 -6.5l-82 27l25 -74q5 -16 -7 -31t-30 -15q-17 0 -29 15t-7 31l23 73v21l-23 74q-5 16 7 31t29 15q18 0 30 -15t7 -31l-25 -75l82 27q16 6 31 -6t15 -30z" />
    <glyph glyph-name="orn.007" unicode="&#xf0d0;" horiz-adv-x="583" 
d="M390 122q-13 -12 -32 -10.5t-26 16.5l-38 76l-36 -70q-8 -15 -27 -16.5t-32 10.5q-12 11 -10 31t17 27l71 36l-78 38q-15 7 -16.5 26.5t10.5 31.5q13 13 32 11.5t27 -17.5l38 -78l34 71q7 15 27 17t32 -11t10.5 -32t-16.5 -26l-70 -35l76 -38q16 -8 18 -27t-11 -31z
M60 127q-5 16 7 31t30 15q17 0 29.5 -15t6.5 -31l-34 -100l100 34q16 5 31 -7t15 -30t-14.5 -30t-31.5 -7l-104 36zM523 127l-35 -104l-105 -36q-16 -5 -30.5 7t-14.5 30t14.5 30t30.5 7l100 -34l-34 100q-5 16 7.5 31t29.5 15q18 0 30 -15t7 -31zM60 313l35 104l104 35
q17 5 31.5 -7t14.5 -30t-15 -30t-31 -7l-100 35l34 -100q6 -16 -6 -31t-30 -15t-30 14.5t-7 31.5zM523 313q5 -17 -7 -31.5t-30 -14.5t-29.5 14.5t-7.5 31.5l34 100l-100 -35q-16 -4 -30.5 8t-14.5 29q0 18 14.5 30t30.5 7l105 -35z" />
    <glyph glyph-name="orn.008" unicode="&#xf0d1;" horiz-adv-x="583" 
d="M470 318q8 15 27 17t31 -10q13 -12 11.5 -31.5t-17.5 -26.5l-95 -47l95 -47q16 -7 17.5 -26t-11.5 -32q-12 -13 -31 -11t-27 18l-49 98zM391 398l-99 -49l-99 49q-15 7 -16.5 26t11.5 32q12 13 31.5 11t26.5 -18l46 -94l46 94q7 16 26.5 18t32.5 -11q12 -13 10.5 -32
t-16.5 -26zM390 122q-13 -12 -32 -10.5t-26 16.5l-38 76l-36 -70q-8 -15 -27 -16.5t-32 10.5q-12 11 -10 31t17 27l71 36l-78 38q-15 7 -16.5 26.5t10.5 31.5q13 13 32 11.5t27 -17.5l38 -78l34 71q7 15 27 17t32 -11t10.5 -32t-16.5 -26l-70 -35l76 -38q16 -8 18 -27
t-11 -31zM193 41l98 48l98 -48q16 -8 18 -27t-11 -32q-13 -12 -32 -10t-26 17l-47 94l-47 -94q-7 -15 -26 -17t-32 10q-13 13 -11 32t18 27zM113 120q-8 -15 -27 -17t-32 10q-12 12 -10 32t17 27l95 46l-95 47q-16 8 -17.5 27t10.5 31q12 13 31.5 11.5t27.5 -17.5l49 -99z
" />
    <glyph glyph-name="onequarter.small" unicode="&#xf0d2;" horiz-adv-x="853" 
d="M769 187l-6 -98h-69q0 -44 10.5 -57.5t44.5 -13.5v-18h-161v18q34 0 44.5 13.5t10.5 57.5h-137v17l165 220h23v-205q16 1 24.5 3.5t16.5 13t13 32.5l3 17h18zM643 121v119l-90 -119h90zM255 133h-165v18q36 0 46 14t10 63v111q0 48 -13.5 60.5t-53.5 11.5v17l122 25v-225
q0 -49 9.5 -63t44.5 -14v-18zM573 433l-281 -450l-34 17l280 451z" />
    <glyph glyph-name="onehalf.small" unicode="&#xf0d3;" horiz-adv-x="853" 
d="M783 47l-9 -47h-224v22l128 113q24 21 32.5 39t8.5 45t-18 44.5t-48 17.5q-35 0 -52 -28.5t8 -72.5l-26 -24q-37 26 -40 64.5t28 67.5t84 29q49 0 83.5 -26t34.5 -69q0 -48 -57 -99l-86 -76h153zM255 133h-165v18q36 0 46 14t10 63v111q0 48 -13.5 60.5t-53.5 11.5v17
l122 25v-225q0 -49 9.5 -63t44.5 -14v-18zM564 433l-281 -450l-34 17l281 451z" />
    <glyph glyph-name="threequarters.small" unicode="&#xf0d4;" horiz-adv-x="853" 
d="M769 187l-6 -98h-68q0 -44 10 -57.5t44 -13.5v-18h-161v18q35 0 45 13.5t10 57.5h-137v17l166 220h23v-205q40 2 53 49l4 17h17zM643 121v119l-89 -119h89zM289 221q0 -43 -35 -73.5t-87 -30.5q-47 0 -75.5 22t-28.5 44q0 17 19 17q8 0 14.5 -8.5t12.5 -18.5t21 -18.5
t37 -8.5q32 0 49.5 22t17.5 53q0 25 -15 45t-40 24q-5 -4 -15 -22q-8 -15 -23 -15q-12 0 -16 11t7 24l95 100h-85q-52 0 -60 -37l-5 -17h-19l17 99h208v-22l-77 -90q37 -12 60 -40t23 -60zM581 433l-281 -450l-34 17l281 451z" />
    <glyph glyph-name="oneeighth.small" unicode="&#xf0d5;" horiz-adv-x="853" 
d="M797 80q0 -40 -37 -68t-89 -28t-89 28t-37 68q0 33 19.5 51.5t55.5 31.5q-57 32 -57 71q0 34 32 58.5t76 24.5t76 -24.5t32 -58.5q0 -22 -17 -36t-49 -28q40 -17 62 -37t22 -53zM725 243q0 17 -16 31.5t-38 14.5q-23 0 -38.5 -14.5t-15.5 -31.5q0 -28 62 -57q46 21 46 57
zM743 72q0 17 -16.5 32.5t-28.5 21t-45 19.5q-54 -27 -54 -73q0 -23 20 -42t52 -19t52 19t20 42zM247 133h-165v18q35 0 45.5 14t10.5 63v111q0 48 -13.5 60.5t-53.5 11.5v17l122 25v-225q0 -49 9.5 -63t44.5 -14v-18zM556 433l-281 -450l-34 17l281 451z" />
    <glyph glyph-name="threeeighths.small" unicode="&#xf0d6;" horiz-adv-x="853" 
d="M797 80q0 -40 -37 -68t-89 -28t-88.5 28t-36.5 68q0 33 19.5 51.5t55.5 31.5q-58 32 -58 71q0 34 32 58.5t76 24.5t76 -24.5t32 -58.5q0 -22 -17 -36t-49 -28q40 -17 62 -37t22 -53zM726 243q0 17 -16 31.5t-39 14.5q-22 0 -38 -14.5t-16 -31.5q0 -29 63 -57q46 22 46 57
zM743 72q0 17 -16.5 32.5t-28.5 21t-45 19.5q-54 -28 -54 -73q0 -23 20.5 -42t51.5 -19q32 0 52 19t20 42zM289 221q0 -43 -35 -73.5t-87 -30.5q-47 0 -75.5 22t-28.5 44q0 17 19 17q8 0 14.5 -8.5t12.5 -18.5t21 -18.5t37 -8.5q32 0 49.5 22t17.5 53q0 25 -15 45t-40 24
q-5 -4 -15 -22q-8 -15 -23 -15q-12 0 -16 11t7 24l95 100h-85q-52 0 -60 -37l-5 -17h-19l17 99h208v-22l-77 -90q37 -12 60 -40t23 -60zM573 433l-281 -450l-34 17l280 451z" />
    <glyph glyph-name="fiveeighths.small" unicode="&#xf0d7;" horiz-adv-x="853" 
d="M288 228q0 -46 -37.5 -78.5t-90.5 -32.5q-65 0 -92 41q-18 26 -2 38q6 4 14 4t14 -8.5t10.5 -19t19 -19t36.5 -8.5q34 0 53.5 24.5t19.5 58.5q0 33 -17.5 56.5t-49.5 23.5q-22 0 -40 -15t-25 -40h-32l18 180h186l-9 -45h-147l-8 -75q23 25 57 25q54 0 88 -32t34 -78z
M797 80q0 -40 -37 -68t-89 -28t-88.5 28t-36.5 68q0 33 19.5 51.5t55.5 31.5q-58 32 -58 71q0 34 32 58.5t76 24.5t76 -24.5t32 -58.5q0 -22 -17 -36t-49 -28q40 -17 62 -37t22 -53zM726 243q0 17 -16 31.5t-39 14.5q-22 0 -38 -14.5t-16 -31.5q0 -29 63 -57q46 22 46 57z
M743 72q0 17 -16.5 32.5t-28.5 21t-45 19.5q-54 -28 -54 -73q0 -23 20.5 -42t51.5 -19q32 0 52 19t20 42zM573 433l-281 -450l-34 17l280 451z" />
    <glyph glyph-name="seveneighths.small" unicode="&#xf0d8;" horiz-adv-x="853" 
d="M316 411l-134 -265q-7 -14 -11.5 -20.5t-13 -10.5t-18.5 -2q-11 4 -15.5 15t7.5 35l142 225h-123q-51 0 -60 -37l-4 -17h-23l19 99h234v-22zM788 80q0 -40 -36.5 -68t-88.5 -28t-88.5 28t-36.5 68q0 33 19.5 51.5t55.5 31.5q-58 32 -58 71q0 35 31.5 59t76.5 24
q44 0 76 -24.5t32 -58.5q0 -22 -17 -36t-49 -28q39 -17 61 -37t22 -53zM718 243q0 17 -16.5 31.5t-38.5 14.5t-38.5 -14.5t-16.5 -31.5q0 -28 64 -57q46 22 46 57zM735 72q0 17 -16.5 32.5t-28.5 21t-45 19.5q-54 -28 -54 -73q0 -23 20 -42t52 -19t52 19t20 42zM556 433
l-281 -450l-34 17l281 451z" />
    <glyph glyph-name="onethird.small" unicode="&#xf0d9;" horiz-adv-x="853" 
d="M556 433l-281 -450l-34 17l281 451zM788 88q0 -43 -35.5 -73.5t-87.5 -30.5q-47 0 -76 22t-29 44q0 18 19 18q8 0 14.5 -8.5t12.5 -19t21.5 -19t37.5 -8.5q32 0 49.5 22t17.5 53q0 25 -15.5 45t-39.5 25q-11 -13 -15 -22q-9 -16 -24 -16q-12 0 -16 11t7 23l96 100h-86
q-52 0 -60 -36l-5 -16h-19l18 99h207v-23l-76 -90q37 -12 60.5 -40t23.5 -60zM247 133h-165v18q35 0 45.5 14t10.5 63v111q0 48 -13.5 60.5t-53.5 11.5v17l122 25v-225q0 -49 9.5 -63t44.5 -14v-18z" />
    <glyph glyph-name="twothirds.small" unicode="&#xf0da;" horiz-adv-x="853" 
d="M795 88q0 -43 -35 -73.5t-87 -30.5q-47 0 -76 22t-29 44q0 18 20 18q7 0 14 -8.5t12.5 -19t21 -19t37.5 -8.5q32 0 49.5 22t17.5 53q0 25 -15.5 45t-39.5 25q-8 -10 -16 -22q-8 -16 -22 -16q-12 0 -16 11t7 23l95 100h-85q-54 0 -60 -36l-5 -16h-20l18 99h207v-23
l-76 -90q37 -12 60 -40t23 -60zM289 179l-9 -46h-223v21l126 114q24 21 33 39t9 45t-18 44t-48 17q-35 0 -51.5 -28.5t8.5 -71.5l-26 -25q-37 26 -40.5 64.5t28 67.5t83.5 29q49 0 83.5 -26t34.5 -69q0 -21 -10 -41t-20 -31t-27 -27l-85 -76h152zM581 433l-281 -450l-34 17
l281 451z" />
    <glyph glyph-name="dollar.small" unicode="&#xf0db;" horiz-adv-x="406" 
d="M228 529q35 -6 60 -24q12 12 15 28h19v-169h-20q-10 104 -74 126v-147l51 -26q38 -19 58.5 -51t20.5 -63q0 -56 -37.5 -93.5t-92.5 -41.5v-85h-36v85q-18 3 -35.5 9t-34.5 13.5t-21 9.5q-13 -13 -17 -33h-18v171h20q0 -5 1 -12.5t7.5 -28.5t17 -37.5t31.5 -32.5t49 -20
v168l-42 22q-35 17 -58.5 49.5t-23.5 71.5q0 48 35.5 81.5t88.5 33.5v84h36v-88zM228 106q32 3 52 22.5t20 52.5q0 36 -72 76v-151zM192 495q-28 -2 -47.5 -18.5t-19.5 -41.5q0 -22 15.5 -37t51.5 -35v132z" />
    <glyph glyph-name="cent.small" unicode="&#xf0dc;" horiz-adv-x="525" 
d="M303 68v-85h-36v85q-87 8 -146.5 74.5t-59.5 157.5q0 90 60 157t146 75v85h36v-84q33 -4 64.5 -22t51.5 -43q8 8 18 49h19v-174h-20q-14 66 -48 106t-85 45v0v0v0v0v-1v0v0v-1v0v0v-1v0v-1v0v-1v0v-1v0v-1v-1v-1v0v-1v-1v-1v-1v-1v-1v-1v-1v-1v-1v-1v-1v-1v-1v-1v-1v-1
v-1v-1v-1v-1v-1v-1v-1v-1v-1v-1v-1v-1v-1v-1v-1v-1v-1v-1v-1v-1v-1v-1v-1v-1v-1v-1v-1v-1v-1v-1v-1v-1v-1v-1v-1v-1v-1v-1v-1v-1v-1v-1v-1v-1v-1v-1v-2v-1v-1v-1v-1v-1v-1v-1v-1v-1v-2v-1v-1v-1v-1v-1v-1v-2v-1v-1v-1v-1v-1v-2v-1v-1v-1v-2v-1v-1v-1v-1v-2v-1v-1v-1v-2v-1
v-1v-1v-2v-1v-1v-2v-1v-1v-1v-2v-1v-1v-2v-1v-1v-2v-1v-1v-2v-1v-1v-2v-1v-2v-1v-1v-2v-1v-1v-2v-1v-2v-1v-1v-2v-1v-2v-1v-2v-1v-1v-2v-1v-2v-1v-2v-1v-2v-1v-2v-1v-2v-1v-2v-1v-2v-1v-2v-1v-2v-1v-2v-1v-2v-1v-2v-1v-2v-1v-2v-1v-2v-2v-1v-2v-1v-2v-1v-2v-2v-1v-2v-1v-2
v-2v-1v-2v-1v-2v-2v-1v-2v-2v-1v-2v-1v-2v-2v-1v-2v-2v-1v-2v-2v-1v-2v-2v-1v-2v-2v-2v-1v-2v-2v-1v-2v-2v-1v-2v-2v-2v-1v-2v-2v-2v-1v-2v-2v-2v-1v-2v-2v-2v-2v-1v-2v-2v-2v-1v-2v-2v-2v-2v-1v-2v-2v-2v-2v-2v-1v-2v-2v-2v-2v-2v-1v-2v-2v-2v-2v-2v-2v-1v-2v-2v-9
q51 5 85 45t48 107h20v-175h-19q-8 39 -18 50q-20 -26 -51.5 -43.5t-64.5 -21.5zM267 106v387q-65 -8 -95 -65t-30 -128q0 -45 10.5 -84t40 -71.5t74.5 -38.5z" />
    <glyph glyph-name="mu.small" unicode="&#xf0dd;" horiz-adv-x="573" 
d="M108 162v135q0 75 -14.5 95.5t-64.5 20.5v20h229v-20q-50 0 -64.5 -21t-14.5 -95v-142q0 -63 31.5 -95t86.5 -32t88.5 32t33.5 95v142q0 75 -14.5 95.5t-64.5 20.5v20h204v-20q-50 0 -64.5 -21t-14.5 -95v-135q0 -84 -51 -131t-128 -47q-62 0 -107 30v-47q0 -75 14.5 -96
t64.5 -21v-20h-229v20q50 0 64.5 21t14.5 96v195z" />
    <glyph glyph-name="at.small" unicode="&#xf0de;" horiz-adv-x="552" 
d="M484 263q0 75 -48.5 118.5t-117.5 43.5q-90 0 -153 -66.5t-63 -155.5q0 -90 52.5 -144t137.5 -54q76 0 157 49l10 -20q-85 -61 -173 -61q-100 0 -169.5 66t-69.5 162q0 106 77 182.5t184 76.5q89 0 148 -54t59 -142q0 -70 -45.5 -126t-93.5 -56q-36 0 -51 34
q-13 -16 -33 -26.5t-37 -10.5q-46 0 -67.5 40t-12.5 99q10 56 51 96t88 40q23 0 47 -12h45l-33 -188q-8 -40 20 -40q29 0 60 46.5t31 102.5zM352 308q-18 16 -41 16q-30 0 -52 -31t-30 -77q-8 -45 1 -73t38 -28q20 0 38.5 19t23.5 47z" />
    <glyph glyph-name="germandbls.small" unicode="&#xf0df;" horiz-adv-x="795" 
d="M751 120q0 -60 -41.5 -98.5t-101.5 -38.5q-59 0 -111 37q-17 -17 -19 -37h-19v172h20q7 -63 44 -98t94 -35q33 0 54.5 18t21.5 49q0 48 -81 89l-69 35q-82 43 -82 122q0 48 35.5 81t89.5 33q52 0 94 -30q13 13 16 31h19v-169h-20q-5 54 -30 92.5t-75 38.5
q-30 0 -51 -15.5t-21 -42.5q0 -25 19 -42.5t68 -43.5l68 -35q78 -40 78 -113zM353 120q0 -60 -41.5 -98.5t-100.5 -38.5q-57 0 -112 37q-16 -18 -19 -37h-18v172h20q6 -63 43 -98t94 -35q33 0 55 18t22 49q0 48 -82 89l-68 35q-83 43 -83 122q0 48 36 81t89 33t95 -30
q13 16 15 31h20v-169h-20q-5 54 -30.5 92.5t-74.5 38.5q-31 0 -51.5 -15.5t-20.5 -42.5q0 -25 19 -42.5t68 -43.5l67 -35q78 -40 78 -113z" />
    <glyph glyph-name="fi.small" unicode="&#xf0e0;" horiz-adv-x="763" 
d="M192 137q0 -75 14.5 -96t64.5 -21v-20h-229v20q50 0 64.5 21t14.5 96v160q0 74 -14.5 95t-64.5 21v20h232h129l9 -120h-21l-5 20q-10 38 -30.5 51t-85.5 13h-78v-149h6q73 0 90.5 13.5t17.5 65.5h20v-195h-20q0 51 -17.5 65t-90.5 14h-6v-74zM717 0h-229v20q50 0 64.5 21
t14.5 96v160q0 74 -14.5 95t-64.5 21v20h229v-20q-50 0 -64.5 -20.5t-14.5 -95.5v-160q0 -75 14.5 -96t64.5 -21v-20z" />
    <glyph glyph-name="fl.small" unicode="&#xf0e1;" horiz-adv-x="884" 
d="M192 137q0 -75 14.5 -96t64.5 -21v-20h-229v20q50 0 64.5 21t14.5 96v160q0 74 -14.5 95t-64.5 21v20h232h129l9 -120h-21l-5 20q-10 38 -30.5 51t-85.5 13h-78v-149h6q73 0 90.5 13.5t17.5 65.5h20v-195h-20q0 51 -17.5 65t-90.5 14h-6v-74zM567 297q0 74 -14.5 95
t-64.5 21v20h229v-20q-50 0 -64.5 -20.5t-14.5 -95.5v-144q0 -75 14.5 -95.5t64.5 -20.5h35q65 0 85.5 13t30.5 51l5 20h20l-6 -121h-399v20q50 0 64.5 21t14.5 96v160z" />
    <glyph glyph-name="ordfeminine.small" unicode="&#xf0e2;" horiz-adv-x="443" 
d="M140 374l-15 -32q-16 -30 -8.5 -43t51.5 -13v-19h-159v19q36 0 50 12t34 55l122 260h18l121 -260q21 -43 34.5 -55t45.5 -12v-19h-193v19q41 0 50 13t-6 43l-15 32h-130zM255 405l-50 107l-50 -107h100z" />
    <glyph glyph-name="ordmasculine.small" unicode="&#xf0e3;" horiz-adv-x="507" 
d="M453 433q0 -74 -59 -126.5t-141 -52.5t-141 52.5t-59 126.5t58.5 127t141.5 53t141.5 -53t58.5 -127zM378 433q0 58 -30.5 103.5t-94.5 45.5q-63 0 -93.5 -45.5t-30.5 -103.5t30.5 -102.5t93.5 -44.5q64 0 94.5 44.5t30.5 102.5z" />
    <glyph glyph-name="exclamdown.small" unicode="&#xf0e4;" horiz-adv-x="313" 
d="M194 560q0 -20 -14 -34t-34 -14q-19 0 -33 14t-14 34t14 34t33 14q20 0 34 -14t14 -34zM194 32q0 -20 -14.5 -34.5t-33.5 -14.5t-33 14.5t-14 34.5q0 21 5.5 64t13.5 132t11 212h34q3 -123 11 -212t14 -132t6 -64z" />
    <glyph glyph-name="questiondown.small" unicode="&#xf0e5;" horiz-adv-x="504" 
d="M352 560q0 -20 -14 -34t-33 -14t-33.5 14t-14.5 34t14.5 34t33.5 14t33 -14t14 -34zM457 99q0 -47 -48 -81.5t-120 -34.5q-86 0 -149.5 46.5t-63.5 123.5q0 49 21.5 87t52 57t60.5 31t52 15l21 3v94h45v-164q-75 0 -130 -33t-55 -102q0 -58 45 -92t110 -34q52 0 84 21
t32 47q0 25 -43 25q-17 0 -28.5 12t-11.5 28q0 22 16.5 33t34.5 11q28 0 51.5 -26t23.5 -67z" />
    <glyph glyph-name="bullet.small" unicode="&#xf0e6;" horiz-adv-x="270" 
d="M135 360q32 0 54.5 -22.5t22.5 -54.5t-22.5 -54t-54.5 -22t-54.5 22.5t-22.5 53.5q0 32 22.5 54.5t54.5 22.5z" />
    <glyph glyph-name="periodcentered.small" unicode="&#xf0e7;" horiz-adv-x="292" 
d="M173 229q0 -19 -14.5 -33.5t-33.5 -14.5t-33 14t-14 34t14 34.5t33 14.5t33.5 -14.5t14.5 -34.5z" />
    <glyph glyph-name="endash.small" unicode="&#xf0e8;" horiz-adv-x="525" 
d="M525 208h-526v44h526v-44z" />
    <glyph glyph-name="emdash.small" unicode="&#xf0e9;" horiz-adv-x="667" 
d="M667 208h-668v44h668v-44z" />
    <glyph glyph-name="hyphen.small" unicode="&#xf0ea;" 
d="M375 208h-292v44h292v-44z" />
    <glyph glyph-name="guilsinglleft.small" unicode="&#xf0eb;" horiz-adv-x="393" 
d="M324 30l-267 199l267 198l14 -19l-179 -180l179 -179z" />
    <glyph glyph-name="guilsinglright.small" unicode="&#xf0ec;" horiz-adv-x="393" 
d="M69 30l-14 19l179 179l-179 180l14 19l268 -198z" />
    <glyph glyph-name="guillemotleft.small" unicode="&#xf0ed;" horiz-adv-x="520" 
d="M449 75l-224 154l224 153l14 -18l-142 -136l142 -135zM324 30l-267 199l267 198l14 -19l-185 -180l185 -179z" />
    <glyph glyph-name="guillemotright.small" unicode="&#xf0ee;" horiz-adv-x="520" 
d="M196 30l-14 19l186 179l-186 180l14 19l267 -198zM71 75l-13 18l141 135l-141 136l13 18l224 -153z" />
    <glyph glyph-name="asciitilde.small" unicode="&#xf0ef;" horiz-adv-x="423" 
d="M298 227q42 0 58 62h21q0 -61 -25 -96t-67 -35q-25 0 -85.5 36.5t-78.5 36.5t-34 -18.5t-22 -43.5h-21q0 57 25 93t61 36q27 0 86 -35.5t82 -35.5z" />
    <glyph glyph-name="zero.small" unicode="&#xf0f0;" horiz-adv-x="475" 
d="M408 217q0 -97 -50 -165.5t-120 -68.5q-71 0 -121 68.5t-50 165.5q0 96 50 164.5t121 68.5q70 0 120 -68.5t50 -164.5zM336 217q0 86 -25 141t-73 55q-49 0 -74 -54.5t-25 -141.5t25 -141.5t74 -54.5q48 0 73 55t25 141z" />
    <glyph glyph-name="one.small" unicode="&#xf0f1;" horiz-adv-x="358" 
d="M293 0h-229v21q50 0 64.5 21t14.5 96v153q0 72 -19 91t-76 17v21l166 33v-315q0 -75 14.5 -96t64.5 -21v-21z" />
    <glyph glyph-name="two.small" unicode="&#xf0f2;" 
d="M66 0v24l182 164q62 54 62 113q0 53 -28.5 80t-75.5 27q-30 0 -55.5 -20.5t-32 -54t20.5 -75.5l-31 -31q-51 35 -54 88.5t41.5 94t117.5 40.5q68 0 117 -37t49 -97q0 -36 -20.5 -71t-40.5 -52l-20 -17l-135 -118h229l-11 -58h-315z" />
    <glyph glyph-name="three.small" unicode="&#xf0f3;" 
d="M236 235q-10 -12 -23 -34q-13 -20 -28 -20q-9 0 -15.5 5.5t-6.5 13.5q0 12 10 23l135 152h-121q-78 0 -92 -56l-5 -20h-22l23 134h292v-27l-114 -133q54 -15 89 -55.5t35 -87.5q0 -60 -49.5 -103.5t-122.5 -43.5q-65 0 -108 30.5t-43 58.5q0 23 27 23q11 0 21 -11
t18.5 -24t30.5 -24t54 -11q50 0 75.5 29.5t25.5 75.5q0 39 -24 69.5t-62 35.5z" />
    <glyph glyph-name="four.small" unicode="&#xf0f4;" 
d="M223 165v183l-137 -183h137zM294 128q0 -67 14.5 -87t64.5 -20v-21h-229v21q50 0 64.5 19.5t14.5 87.5h-193v20l238 315h26v-298q35 0 53.5 15.5t29.5 60.5l5 20h21l-9 -133h-100z" />
    <glyph glyph-name="five.small" unicode="&#xf0f5;" 
d="M391 138q0 -64 -53 -109.5t-127 -45.5q-64 0 -104 29.5t-40 58.5q0 24 28 24q11 0 19.5 -11t15.5 -24t28 -24t53 -11q51 0 80 32.5t29 80.5q0 50 -26 82.5t-75 32.5q-33 0 -60.5 -19.5t-35.5 -53.5h-40l26 253h259l-10 -58h-215l-11 -115q37 34 96 34q70 0 116.5 -45.5
t46.5 -110.5z" />
    <glyph glyph-name="six.small" unicode="&#xf0f6;" 
d="M390 124q0 -58 -44.5 -99.5t-107.5 -41.5q-25 0 -50.5 9t-53.5 30t-45.5 64.5t-17.5 104.5q0 101 49 180t130 79q63 0 99 -36q27 -28 6 -45q-1 -1 -3 -2q-13 -8 -24.5 3t-31 27t-45.5 16q-50 0 -76.5 -53t-31.5 -129q12 14 37.5 23.5t51.5 9.5q63 0 110.5 -41t47.5 -99z
M320 124q0 39 -24 70t-64 31q-32 0 -59 -13.5t-33 -33.5q2 -75 30.5 -116.5t67.5 -41.5q40 0 61 32t21 72z" />
    <glyph glyph-name="seven.small" unicode="&#xf0f7;" horiz-adv-x="433" 
d="M383 433v-27l-176 -383q-13 -28 -24.5 -39t-31.5 -5q-14 4 -19.5 19.5t8.5 45.5l194 331h-161q-77 0 -91 -56l-5 -20h-23l24 134h305z" />
    <glyph glyph-name="eight.small" unicode="&#xf0f8;" 
d="M394 116q0 -56 -48.5 -94.5t-116.5 -38.5q-66 0 -115.5 38t-49.5 87q0 81 109 126q-39 25 -62.5 49.5t-23.5 55.5q0 47 42.5 79t99.5 32t100 -30t43 -72q0 -58 -99 -101q27 -13 44.5 -23t37.5 -26t29.5 -36.5t9.5 -45.5zM305 351q0 26 -21.5 44t-54.5 18q-32 0 -53.5 -18
t-21.5 -44q0 -43 87 -88q64 34 64 88zM328 104q0 18 -8.5 33.5t-27 29.5t-33.5 22l-40 21l-12 6q-75 -42 -75 -108q0 -38 26 -62.5t71 -24.5t72 24t27 59z" />
    <glyph glyph-name="nine.small" unicode="&#xf0f9;" 
d="M388 243q0 -101 -49 -180.5t-130 -79.5q-64 0 -99 37q-26 28 -5 45q1 1 3 2q12 8 23.5 -3t31 -27t45.5 -16q50 0 76.5 52.5t32.5 129.5q-13 -14 -38 -24t-51 -10q-63 0 -111 41.5t-48 98.5q0 58 45 99.5t107 41.5q25 0 50.5 -9t53.5 -30t45.5 -64.5t17.5 -103.5zM319 255
q-1 75 -29.5 116.5t-68.5 41.5t-61 -31.5t-21 -72.5q0 -39 24 -70t65 -31q31 0 58 13.5t33 33.5z" />
    <glyph glyph-name="ellipsis.allsmall" unicode="&#xf0fa;" horiz-adv-x="896" 
d="M194 40q0 -20 -14 -34t-34 -14q-19 0 -33 14t-14 34t14 34t33 14q20 0 34 -14t14 -34zM486 40q0 -19 -14.5 -33.5t-33.5 -14.5t-33 14t-14 34t14 34t33 14t33.5 -14.5t14.5 -33.5zM778 40q0 -19 -14.5 -33.5t-34.5 -14.5q-19 0 -32.5 14t-13.5 34t13.5 34t32.5 14
q20 0 34.5 -14.5t14.5 -33.5z" />
    <glyph glyph-name="colon.allsmall" unicode="&#xf0fb;" horiz-adv-x="335" 
d="M215 40q0 -20 -14.5 -34t-33.5 -14t-33 14t-14 34t14 34t33 14t33.5 -14t14.5 -34zM215 230q0 -20 -14.5 -34t-33.5 -14t-33 14t-14 34t14 34t33 14t33.5 -14t14.5 -34z" />
    <glyph glyph-name="semicolon.allsmall" unicode="&#xf0fc;" horiz-adv-x="335" 
d="M215 230q0 -20 -14.5 -34t-33.5 -14t-33 14t-14 34t14 34t33 14t33.5 -14t14.5 -34zM175 -8h-8q-19 0 -33 14t-14 34t14 34t33 14q22 0 38 -16t16 -47q0 -37 -24.5 -80.5t-67.5 -70.5l-11 12q49 51 57 106z" />
    <glyph glyph-name="comma.allsmall" unicode="&#xf0fd;" horiz-adv-x="313" 
d="M154 -2q-2 -1 -8 -1q-19 0 -33 14.5t-14 34.5t14 34t33 14q22 0 38 -16t16 -47q0 -37 -24.5 -80.5t-67.5 -70.5l-11 12q49 51 57 106z" />
    <glyph glyph-name="period.allsmall" unicode="&#xf0fe;" horiz-adv-x="313" 
d="M211 44q0 -21 -17 -36.5t-40 -15.5t-39 15.5t-16 36.5q0 22 16 37.5t39 15.5t40 -15.5t17 -37.5z" />
    <glyph glyph-name="quotesinglbase.allsmall" unicode="&#xf0ff;" horiz-adv-x="251" 
d="M73 -106q48 51 57 107q-2 -1 -8 -1q-19 0 -33 14.5t-14 33.5q0 20 14 34.5t33 14.5q22 0 38 -16.5t16 -47.5q0 -36 -24 -79.5t-68 -71.5z" />
    <glyph glyph-name="quotedblbase.allsmall" unicode="&#xf100;" horiz-adv-x="418" 
d="M130 1q-2 -1 -8 -1q-19 0 -33 14.5t-14 33.5q0 20 14 34.5t33 14.5q22 0 38 -16.5t16 -47.5q0 -36 -24 -79.5t-68 -71.5l-11 12q48 51 57 107zM297 1q-3 -1 -9 -1q-19 0 -32.5 14.5t-13.5 33.5q0 20 13.5 34.5t32.5 14.5q22 0 38.5 -16.5t16.5 -47.5q0 -36 -24 -79.5
t-68 -71.5l-12 12q49 51 58 107z" />
    <glyph glyph-name="underscore.allsmall" unicode="&#xf101;" horiz-adv-x="358" 
d="M359 -44h-360v44h360v-44z" />
    <glyph glyph-name="ampersand.allsmall" unicode="&#xf102;" horiz-adv-x="524" 
d="M193 262q45 25 69 48t24 56q0 24 -15 40t-38 16q-31 0 -49 -20.5t-18 -43.5q0 -50 27 -96zM305 38q-93 91 -142 158q-42 -37 -42 -89q0 -36 29.5 -63t71.5 -27q47 0 83 21zM329 17q-50 -34 -119 -34q-63 0 -109.5 34t-46.5 97q0 65 84 117q-39 62 -39 109t39 78.5
t95 31.5q47 0 80.5 -25.5t33.5 -63.5q0 -22 -14 -42t-27.5 -29.5t-47.5 -29.5t-45 -27q29 -41 136 -153q19 28 26 58q10 36 -4 47t-63 11v22h179v-22q-24 0 -37.5 -2t-22 -12t-11 -17t-8.5 -30q-10 -43 -36 -78q41 -39 73 -39q26 0 50 27l14 -15q-38 -48 -85 -48t-95 35z
" />
    <glyph glyph-name="dollar.allsmall" unicode="&#xf103;" 
d="M249 447q44 -5 80 -28q16 13 19 31h19v-169h-19q-16 107 -99 127v-145l59 -26q46 -21 70 -53t24 -64q0 -59 -43 -97t-110 -40v-83h-36v85q-56 8 -104 35q-19 -17 -23 -37h-18v172h20q14 -113 125 -131v170l-44 19q-95 42 -95 120q0 50 38 82.5t101 33.5v84h36v-86z
M249 22h4q40 0 66 18t26 49q0 29 -20 50t-73 39l-3 1v-157zM213 412q-32 0 -57 -15t-25 -43q0 -22 18.5 -39t63.5 -37v134z" />
    <glyph glyph-name="Euro.allsmall" unicode="&#xf104;" horiz-adv-x="475" 
d="M138 247v-30v-30h152v-37h-147q23 -128 120 -128q50 0 85 38.5t50 104.5h19v-165h-17q-6 38 -16 49q-20 -28 -55 -47t-66 -19q-71 0 -123.5 46.5t-71.5 120.5h-46v37h41q-2 18 -2 30q0 10 2 30h-41v36h46q19 74 71.5 120.5t123.5 46.5q32 0 67 -19t54 -47q9 12 16 49h17
v-164h-19q-14 65 -49.5 104t-85.5 39q-95 0 -120 -129h147v-36h-152z" />
    <glyph glyph-name="sterling.allsmall" unicode="&#xf105;" horiz-adv-x="467" 
d="M129 206h-81v38h81v19q0 94 48 140.5t116 46.5q65 0 91 -46q19 -33 1 -54q-8 -10 -25 -10q-16 0 -25 12t-12 27t-15 27t-33 12q-39 0 -57 -35.5t-18 -119.5v-19h101v-38h-101v-53q0 -76 14.5 -96t73.5 -20h10q57 0 77 16.5t31 59.5l5 20h21l-9 -133h-390v21
q63 0 79.5 20.5t16.5 96.5v68z" />
    <glyph glyph-name="yen.allsmall" unicode="&#xf106;" horiz-adv-x="475" 
d="M295 219l-16 -23v-37h117v-36h-117q1 -65 16 -84t63 -19v-20h-229v20q49 0 63.5 19t15.5 84h-116v36h116v35l-16 25h-100v37h75l-46 69q-36 54 -58 71t-60 17v20h223v-20q-47 0 -53 -16t24 -60l66 -99l65 99q32 46 27 61t-55 15v20h188v-20q-39 0 -63 -18t-59 -70
l-47 -69h77v-37h-101z" />
    <glyph glyph-name="percent.allsmall" unicode="&#xf107;" horiz-adv-x="729" 
d="M288 307q0 -59 -35 -101.5t-84 -42.5t-84 42.5t-35 101.5t35 101t84 42t84 -42t35 -101zM224 307q0 48 -14.5 79t-40.5 31t-40.5 -31t-14.5 -79t14.5 -79t40.5 -31t40.5 31t14.5 79zM207 1l280 451l36 -18l-280 -452zM441 128q0 59 35 101t84 42t84 -42t35 -101
t-35 -101.5t-84 -42.5t-84 42.5t-35 101.5zM505 128q0 -48 14.5 -79t40.5 -31t40.5 31t14.5 79q0 47 -14.5 78.5t-40.5 31.5t-40.5 -31.5t-14.5 -78.5z" />
    <glyph glyph-name="perthousand.allsmall" unicode="&#xf108;" horiz-adv-x="1028" 
d="M288 307q0 -59 -35 -101.5t-84 -42.5t-84 42.5t-35 101.5t35 101t84 42t84 -42t35 -101zM224 307q0 48 -14.5 79t-40.5 31t-40.5 -31t-14.5 -79t14.5 -79t40.5 -31t40.5 31t14.5 79zM207 1l280 451l36 -18l-280 -452zM740 128q0 59 35 101t84 42t84 -42t35 -101
t-35 -101.5t-84 -42.5t-84 42.5t-35 101.5zM804 128q0 -48 14.5 -79t40.5 -31t40.5 31t14.5 79q0 47 -14.5 78.5t-40.5 31.5t-40.5 -31.5t-14.5 -78.5zM441 128q0 59 35 101t84 42t84 -42t35 -101t-35 -101.5t-84 -42.5t-84 42.5t-35 101.5zM505 128q0 -48 14.5 -79
t40.5 -31t40.5 31t14.5 79q0 47 -14.5 78.5t-40.5 31.5t-40.5 -31.5t-14.5 -78.5z" />
    <glyph glyph-name="cent.allsmall" unicode="&#xf109;" 
d="M269 39v-64h-36v63q-72 8 -121 59t-49 120t49 120t121 58v63h36v-63q57 -8 90 -46q4 6 13 34h19v-137h-20q-22 106 -102 117v0v0v0v-1v0v0v-1v0v-1v0v-1v0v-1v0v-1v-1v-1v-1v-1v-1v-1v-1v-1v-1v-1v-1v-1v-1v-1v-1v-1v-1v-1v-1v-1v-1v-1v-1v-1v-1v-1v-1v-1v-1v-1v-1v-1v-1
v-1v-1v-1v-1v-1v-1v-1v-1v-1v-1v-1v-1v-1v-1v-1v-1v-2v-1v-1v-1v-1v-1v-1v-1v-1v-2v-1v-1v-1v-1v-1v-2v-1v-1v-1v-1v-2v-1v-1v-1v-2v-1v-1v-1v-2v-1v-1v-1v-2v-1v-1v-2v-1v-1v-2v-1v-1v-2v-1v-1v-2v-1v-1v-2v-1v-2v-1v-1v-2v-1v-2v-1v-1v-2v-1v-2v-1v-2v-1v-2v-1v-2v-1v-2
v-1v-2v-1v-2v-1v-2v-1v-2v-1v-2v-1v-2v-1v-2v-1v-2v-2v-1v-2v-1v-2v-1v-2v-2v-1v-2v-2v-1v-2v-1v-2v-2v-1v-2v-2v-1v-2v-2v-1v-2v-2v-1v-2v-2v-1v-2v-2v-2v-1v-2v-2v-1v-2v-2v-2v-1v-2v-2v-2v-2v-1v-2v-2v-2v-1v-2v-2v-2v-2v-1v-2v-2v-2v-2v-2v-1v-2v-2v-2v-2v-2v-1v-2v-9
q79 11 102 117h20v-138h-19q-8 28 -12 35q-38 -38 -91 -46zM233 71v0v0v0v1v0v0v1v0v1v0v1v0v1v1v1v1v0v1v1v1v1v1v1v1v1v1v1v1v1v1v1v1v1v1v1v1v1v1v1v1v1v1v1v1v1v1v1v1v1v1v1v1v1v1v1v1v1v1v1v1v1v1v1v1v1v1v1v1v2v1v1v1v1v1v1v2v1v1v1v1v1v2v1v1v1v1v2v1v1v1v2v1v1v2v1
v1v1v2v1v1v2v1v1v2v1v1v2v1v1v2v1v2v1v1v2v1v2v1v1v2v1v2v1v2v1v1v2v1v2v1v2v1v2v1v2v1v2v1v2v1v2v2v1v2v1v2v1v2v1v2v2v1v2v1v2v2v1v2v1v2v2v1v2v2v1v2v2v1v2v2v1v2v2v1v2v2v2v1v2v2v1v2v2v2v1v2v2v2v1v2v2v2v2v1v2v2v2v2v1v2v2v2v2v2v1v2v2v2v2v2v1v2v2v2v10
q-50 -7 -72.5 -50t-22.5 -96t22.5 -96t72.5 -50z" />
    <glyph glyph-name="less.allsmall" unicode="&#xf10a;" horiz-adv-x="483" 
d="M422 28l-18 -23l-329 218l329 217l18 -22l-231 -195z" />
    <glyph glyph-name="greater.allsmall" unicode="&#xf10b;" horiz-adv-x="483" 
d="M62 28l231 195l-231 195l17 22l329 -217l-329 -218z" />
    <glyph glyph-name="plusminus.allsmall" unicode="&#xf10c;" 
d="M251 243h157v-44h-157v-116h-44v116h-157v44h157v115h44v-115zM408 38v-38h-358v38h358z" />
    <glyph glyph-name="approxequal.allsmall" unicode="&#xf10d;" 
d="M95 297q28 33 67 33q20 0 66 -16.5t67 -16.5q17 0 33.5 8.5t25.5 16.5l8 8v-50q-28 -33 -67 -33q-20 0 -66 16.5t-67 16.5q-17 0 -33.5 -8t-24.5 -16l-9 -9v50zM95 163q28 34 67 34q20 0 66 -17t67 -17q17 0 33.5 8.5t25.5 16.5l8 9v-50q-28 -34 -67 -34q-20 0 -66 17
t-67 17q-17 0 -33.5 -8.5t-24.5 -16.5l-9 -9v50z" />
    <glyph glyph-name="Delta.allsmall" unicode="&#xf10e;" horiz-adv-x="445" 
d="M215 450h23l182 -450h-396zM327 40l-116 300l-128 -300h244z" />
    <glyph glyph-name="lessequal.allsmall" unicode="&#xf10f;" 
d="M369 118l-11 -25l-308 129l308 128l11 -23l-199 -105zM408 38v-38h-358v38h358z" />
    <glyph glyph-name="greaterequal.allsmall" unicode="&#xf110;" 
d="M89 118l199 104l-199 105l12 23l307 -128l-307 -129zM50 38h358v-38h-358v38z" />
    <glyph glyph-name="infinity.allsmall" unicode="&#xf111;" horiz-adv-x="574" 
d="M428 112q-30 0 -69.5 24t-70.5 55q-83 -79 -141 -79q-51 0 -82.5 31t-31.5 78t31.5 78t82.5 31q30 0 69 -24t71 -55q32 31 71.5 55t69.5 24q50 0 81.5 -31t31.5 -78t-31.5 -78t-81.5 -31zM430 285q-34 0 -113 -64q79 -64 113 -64q27 0 45 19t18 45q0 27 -18 45.5
t-45 18.5zM143 285q-26 0 -43.5 -18.5t-17.5 -45.5q0 -26 17.5 -45t43.5 -19q29 0 103 64q-74 64 -103 64z" />
    <glyph glyph-name="plus.allsmall" unicode="&#xf112;" 
d="M251 243h157v-44h-157v-157h-44v157h-157v44h157v157h44v-157z" />
    <glyph glyph-name="equal.allsmall" unicode="&#xf113;" 
d="M375 262h-292v44h292v-44zM375 137h-292v44h292v-44z" />
    <glyph glyph-name="notequal.allsmall" unicode="&#xf114;" 
d="M311 306h64v-44h-96l-56 -81h152v-44h-183l-77 -109l-32 19l64 90h-64v44h95l57 81h-152v44h183l77 109l32 -19z" />
    <glyph glyph-name="divide.allsmall" unicode="&#xf115;" 
d="M408 199h-358v44h358v-44zM277 84q0 -19 -14.5 -33.5t-34.5 -14.5q-19 0 -32.5 14t-13.5 34t13.5 34.5t32.5 14.5q20 0 34.5 -14.5t14.5 -34.5zM277 358q0 -19 -15 -33.5t-34 -14.5t-32.5 14.5t-13.5 33.5q0 20 13.5 34.5t32.5 14.5q20 0 34.5 -14.5t14.5 -34.5z" />
    <glyph glyph-name="lozenge.allsmall" unicode="&#xf116;" horiz-adv-x="395" 
d="M361 223l-161 -251l-161 251l162 243zM308 223l-108 165l-107 -165l107 -171z" />
    <glyph glyph-name="degree.allsmall" unicode="&#xf117;" horiz-adv-x="360" 
d="M179 450q55 0 95 -40t40 -95t-40 -95t-95 -40t-95 40t-40 95t40 95t95 40zM179 407q-38 0 -64.5 -27t-26.5 -65t26.5 -65t64.5 -27t65 27t27 65t-27 65t-65 27z" />
    <glyph glyph-name="mu.allsmall" unicode="&#xf118;" horiz-adv-x="573" 
d="M108 162v135q0 75 -14.5 95.5t-64.5 20.5v20h229v-20q-50 0 -64.5 -21t-14.5 -95v-142q0 -63 31.5 -95t86.5 -32t88.5 32t33.5 95v142q0 75 -14.5 95.5t-64.5 20.5v20h204v-20q-50 0 -64.5 -21t-14.5 -95v-135q0 -84 -51 -131t-128 -47q-62 0 -107 30v-47q0 -75 14.5 -96
t64.5 -21v-20h-229v20q50 0 64.5 21t14.5 96v195z" />
    <glyph glyph-name="partialdiff.allsmall" unicode="&#xf119;" horiz-adv-x="467" 
d="M73 124q0 58 47.5 99t110.5 41q26 0 51 -9.5t38 -23.5q-6 77 -32.5 129.5t-75.5 52.5q-27 0 -46 -16t-30.5 -27t-24.5 -3q-24 15 -1 42q29 36 91 41h12q81 0 130 -79t49 -180q0 -61 -17.5 -104.5t-45.5 -64.5t-54 -30t-51 -9q-62 0 -106.5 41.5t-44.5 99.5zM143 124
q0 -40 21 -72t60 -32t68 41.5t31 116.5q-7 20 -33.5 33.5t-58.5 13.5q-41 0 -64.5 -31t-23.5 -70z" />
    <glyph glyph-name="summation.allsmall" unicode="&#xf11a;" horiz-adv-x="447" 
d="M28 0v17l135 216l-125 184v16h335l8 -132h-21l-5 20q-11 44 -31.5 60t-84.5 16h-118l121 -178l-114 -182h129q44 0 67.5 9t32 23t16.5 44l5 20h20l-8 -133h-362z" />
    <glyph glyph-name="product.allsmall" unicode="&#xf11b;" horiz-adv-x="606" 
d="M196 389v-252q0 -75 14.5 -96t64.5 -21v-20h-229v20q50 0 64.5 21t14.5 96v160q0 75 -14.5 95.5t-64.5 20.5v20h514v-20q-50 0 -64.5 -20.5t-14.5 -95.5v-160q0 -75 14.5 -96t64.5 -21v-20h-229v20q50 0 64.5 21t14.5 96v252h-214z" />
    <glyph glyph-name="pi.allsmall" unicode="&#xf11c;" horiz-adv-x="606" 
d="M196 389v-252q0 -75 14.5 -96t64.5 -21v-20h-229v20q50 0 64.5 21t14.5 96v160q0 75 -14.5 95.5t-64.5 20.5v20h514v-20q-50 0 -64.5 -20.5t-14.5 -95.5v-160q0 -75 14.5 -96t64.5 -21v-20h-229v20q50 0 64.5 21t14.5 96v252h-214z" />
    <glyph glyph-name="integral.allsmall" unicode="&#xf11d;" horiz-adv-x="399" 
d="M231 3q0 -94 -42.5 -141.5t-104.5 -47.5q-71 0 -104 47q-23 33 -7 54q7 9 21 10q18 1 28 -10.5t13.5 -27t16.5 -28t37 -12.5q71 0 71 156v260q0 94 48 140.5t116 46.5q65 0 91 -46q19 -33 1 -54q-8 -10 -25 -10q-16 0 -25 12t-12 27t-15 27t-33 12q-39 0 -57 -35.5
t-18 -119.5v-260z" />
    <glyph glyph-name="radical.allsmall" unicode="&#xf11e;" horiz-adv-x="491" 
d="M85 268l55 26l83 -205l184 495h41l-226 -606h-15z" />
    <glyph glyph-name="Omega.allsmall" unicode="&#xf11f;" horiz-adv-x="493" 
d="M363 284q0 53 -25.5 91t-90.5 38q-66 0 -92 -38.5t-26 -90.5q0 -104 80 -126v-158h-138l-5 123h24l3 -18q5 -29 18.5 -40.5t50.5 -11.5h10v75q-52 19 -83 61.5t-31 92.5q0 67 54 117.5t135 50.5t134 -50.5t53 -117.5q0 -49 -31 -92t-81 -62v-75h10q37 0 50 11.5t18 40.5
l3 18h25l-5 -123h-140v158q80 22 80 126z" />
    <glyph glyph-name="logicalnot.allsmall" unicode="&#xf120;" horiz-adv-x="528" 
d="M418 243v-171h-45v127h-290v44h335z" />
    <glyph glyph-name="paragraph.allsmall" unicode="&#xf121;" horiz-adv-x="496" 
d="M463 433v-20q-63 0 -79.5 -20.5t-16.5 -96.5v-329q0 -75 16.5 -95.5t79.5 -20.5v-21h-150v559h-70v-559h-150v21q63 0 79.5 20.5t16.5 95.5v128q-64 7 -107.5 55t-43.5 113q0 71 50 120.5t120 49.5h255z" />
    <glyph glyph-name="section.allsmall" unicode="&#xf122;" horiz-adv-x="398" 
d="M302 13q33 -35 33 -85q0 -47 -35.5 -80.5t-89.5 -33.5q-52 0 -94 30q-13 -13 -16 -31h-19v169h20q5 -54 30 -92t75 -38q30 0 51 15t21 42q0 25 -19 42.5t-68 43.5l-68 35q-78 40 -78 113q0 68 52 107q-34 37 -34 85t36 81t89 33q52 0 86 -30q14 14 16 31h19v-161h-20
q-12 123 -96 123q-31 0 -51.5 -15.5t-20.5 -42.5q0 -25 19 -42.5t68 -43.5l67 -35q78 -40 78 -113q0 -66 -51 -107zM126 225q-23 -20 -23 -51q0 -46 81 -89l69 -35q11 -5 20 -12q23 20 23 51q0 48 -82 89l-68 35z" />
    <glyph glyph-name="copyright.allsmall" unicode="&#xf123;" horiz-adv-x="512" 
d="M255 418q-83 0 -142 -59t-59 -142t59 -142t142 -59t142 59t59 142t-59 142t-142 59zM368 88h-15q-6 24 -10 28q-36 -38 -84 -38q-61 0 -104 41.5t-43 98.5q0 58 43 99t104 41q50 0 84 -36q4 6 10 26h15v-107h-16q-21 93 -93 93q-47 0 -67.5 -35t-20.5 -81t20.5 -80.5
t67.5 -34.5q72 0 93 93h16v-108zM255 451q97 0 165.5 -68.5t68.5 -165.5t-68.5 -166t-165.5 -69t-165.5 69t-68.5 166t68.5 165.5t165.5 68.5z" />
    <glyph glyph-name="registered.allsmall" unicode="&#xf124;" horiz-adv-x="389" 
d="M194 450q74 0 125.5 -51t51.5 -124t-52 -124.5t-125 -51.5q-72 0 -123.5 51.5t-51.5 124.5t51.5 124t123.5 51zM236 318q0 16 -9.5 27.5t-27.5 11.5h-24v-78h24q37 0 37 39zM315 182q32 44 32 93q0 63 -45 108t-108 45q-64 0 -108.5 -45t-44.5 -108t44.5 -107.5
t108.5 -44.5q73 0 119 56h-64l-64 82h-10v-22q0 -30 6 -39t26 -9v-12h-110v12q24 0 31 8.5t7 39.5v75q0 31 -7 40t-31 9v10h102q38 0 58.5 -15t20.5 -40q0 -20 -14.5 -35.5t-40.5 -19.5l26 -30q37 -39 66 -42v-9z" />
    <glyph glyph-name="trademark.allsmall" unicode="&#xf125;" horiz-adv-x="778" 
d="M148 405h-37q-42 0 -55 -8.5t-19 -31.5l-4 -17h-15l7 85h302l6 -85h-14l-4 17q-6 23 -19.5 31.5t-54.5 8.5h-38v-174q0 -47 10 -61t44 -14v-17h-163v17q35 0 44.5 13.5t9.5 61.5v174zM757 139h-156v17q34 0 43 13.5t9 61.5v127l-100 -225h-13l-98 222v-124
q0 -48 9.5 -61.5t42.5 -13.5v-17h-131v17q34 0 43.5 13.5t9.5 61.5v110q0 48 -9.5 61.5t-43.5 13.5v17h100l98 -221l97 221h99v-17q-34 0 -43.5 -14t-9.5 -61v-110q0 -47 9.5 -61t43.5 -14v-17z" />
    <glyph glyph-name="ordfeminine.allsmall" unicode="&#xf126;" horiz-adv-x="363" 
d="M114 236l-11 -29q-13 -27 -7 -38.5t42 -11.5v-18h-130v18q29 0 40.5 11t28.5 50l99 232h14l100 -232q16 -39 27.5 -50t38.5 -11v-18h-158v18q33 0 40 11.5t-5 38.5l-11 29h-108zM208 263l-40 97l-41 -97h81z" />
    <glyph glyph-name="ordmasculine.allsmall" unicode="&#xf127;" horiz-adv-x="415" 
d="M372 289q0 -66 -48.5 -113.5t-115.5 -47.5t-115.5 47.5t-48.5 113.5q0 67 48 114t116 47t116 -47t48 -114zM310 289q0 52 -25.5 93t-76.5 41q-52 0 -77.5 -41t-25.5 -93t25.5 -92t77.5 -40t77 40t25 92z" />
    <glyph glyph-name="asciicircum.allsmall" unicode="&#xf128;" horiz-adv-x="485" 
d="M243 452l180 -252l-16 -13l-164 164l-165 -164l-16 13z" />
    <glyph glyph-name="numbersign.allsmall" unicode="&#xf129;" horiz-adv-x="435" 
d="M301 161h78l-9 -53h-78l-21 -125h-40l22 125h-107l-21 -125h-40l22 125h-79l10 53h77l19 111h-77l9 52h77l22 126h40l-22 -126h106l22 126h40l-22 -126h79l-10 -52h-78zM155 161h106l19 111h-106z" />
    <glyph glyph-name="asterisk.allsmall" unicode="&#xf12a;" horiz-adv-x="407" 
d="M195 268q-34 -23 -53 -53t-24 -33q-16 -9 -34 -4t-26 20q-9 15 -4 31.5t20 26.5q6 4 41.5 6t71.5 20q-36 18 -71.5 20t-41.5 6q-15 9 -20 25.5t4 32.5q8 15 26 20t34 -4q5 -3 24 -33.5t53 -52.5q-2 41 -17.5 72.5t-15.5 37.5q0 18 12 31t29 13q18 0 31 -13.5t13 -30.5
q0 -6 -16.5 -38t-18.5 -73q34 23 53.5 52.5t24.5 32.5q16 10 32.5 5.5t26.5 -19.5q10 -14 4.5 -32.5t-20.5 -26.5q-6 -4 -41.5 -5.5t-71.5 -19.5q37 -18 72 -20t41 -5q15 -9 20 -27t-4 -32q-10 -15 -26.5 -19.5t-32.5 4.5q-5 3 -25 32.5t-54 52.5q3 -41 19.5 -72.5
t16.5 -37.5q0 -18 -13 -31.5t-31 -13.5q-17 0 -29 13.5t-12 31.5q0 6 15.5 37.5t17.5 72.5z" />
    <glyph glyph-name="bracketleft.allsmall" unicode="&#xf12b;" horiz-adv-x="342" 
d="M303 -88h-186v609h186v-32h-121v-545h121v-32z" />
    <glyph glyph-name="bracketright.allsmall" unicode="&#xf12c;" horiz-adv-x="342" 
d="M39 -88v32h121v545h-121v32h186v-609h-186z" />
    <glyph glyph-name="parenleft.allsmall" unicode="&#xf12d;" horiz-adv-x="287" 
d="M264 -92l-18 -16q-179 147 -179 324t178 325l19 -17q-130 -144 -130 -308t130 -308z" />
    <glyph glyph-name="parenright.allsmall" unicode="&#xf12e;" horiz-adv-x="287" 
d="M23 -92q130 144 130 308t-130 308l19 17q178 -148 178 -325t-179 -324z" />
    <glyph glyph-name="braceleft.allsmall" unicode="&#xf12f;" horiz-adv-x="340" 
d="M56 223q26 7 37.5 12.5t24 20t17 39.5t4.5 67q0 17 2.5 32t5.5 26.5t11 23t12.5 19t17.5 17t18.5 14t22 13.5t21.5 11.5l24.5 12t24.5 11.5l13 -24q-62 -34 -84.5 -62t-22.5 -92q0 -83 -18 -110t-71 -37q53 -11 71 -38t18 -110q0 -34 5.5 -56.5t22 -40.5t31.5 -28t48 -29
l-13 -23q-4 2 -26.5 12.5t-27.5 13.5t-23.5 13t-24 15.5t-18.5 16.5t-17.5 21t-11.5 23.5t-9 29.5t-2 35q0 55 -10.5 83t-24.5 36.5t-48 18.5v13z" />
    <glyph glyph-name="braceright.allsmall" unicode="&#xf130;" horiz-adv-x="340" 
d="M284 223v-13q-34 -10 -48 -18.5t-24.5 -36.5t-10.5 -83q0 -19 -2 -35t-9 -29.5t-11.5 -23.5t-17.5 -21t-18.5 -16.5t-24 -15.5t-23.5 -13t-27.5 -13.5t-26.5 -12.5l-13 23q33 19 48 29t31.5 28t22 40.5t5.5 56.5q0 83 18 110t71 38q-53 10 -71 37t-18 110q0 64 -22.5 92
t-84.5 62l13 24q5 -2 24.5 -11.5l24.5 -12t21.5 -11.5t22 -13.5t18.5 -14t17.5 -17t12.5 -19t11 -23t5.5 -26.5t2.5 -32q0 -42 4.5 -67t17 -39.5t24 -20t37.5 -12.5z" />
    <glyph glyph-name="florin.allsmall" unicode="&#xf131;" horiz-adv-x="399" 
d="M231 3q0 -94 -42.5 -141.5t-104.5 -47.5q-71 0 -104 47q-23 33 -7 54q7 9 21 10q18 1 28 -10.5t13.5 -27t16.5 -28t37 -12.5q71 0 71 156v161h-82v36h82v63q0 94 48 140.5t116 46.5q65 0 91 -46q19 -33 1 -54q-8 -10 -25 -10q-16 0 -25 12t-12 27t-15 27t-33 12
q-39 0 -57 -35.5t-18 -119.5v-63h101v-36h-101v-161z" />
    <glyph glyph-name="dagger.allsmall" unicode="&#xf132;" horiz-adv-x="386" 
d="M205 283l25 -140l-33 -328h-7l-33 328l25 141l-83 -27q-18 -7 -34.5 7t-16.5 34t16.5 34t34.5 7l84 -27l-30 91q-7 18 7 35t33 17q20 0 34 -16.5t8 -35.5l-31 -91l84 27q18 6 34.5 -7.5t16.5 -33.5t-16.5 -33.5t-34.5 -7.5z" />
    <glyph glyph-name="daggerdbl.allsmall" unicode="&#xf133;" horiz-adv-x="386" 
d="M339 -35q0 -19 -16.5 -32.5t-34.5 -8.5l-84 28l31 -92q6 -17 -8 -34.5t-34 -17.5q-19 0 -32.5 17.5t-7.5 34.5l30 92l-84 -28q-18 -6 -34.5 8t-16.5 33q0 21 16 34.5t35 7.5l83 -27l-24 152l24 152l-83 -28q-18 -6 -34.5 8t-16.5 34q0 19 16.5 33.5t34.5 7.5l84 -28
l-30 92q-7 18 7 35t33 17q20 0 34 -16.5t8 -35.5l-31 -92l84 28q17 7 34 -7.5t17 -33.5q0 -20 -16.5 -34t-34.5 -8l-83 27l23 -150l-23 -153l83 27q18 5 34.5 -8.5t16.5 -33.5z" />
    <glyph glyph-name="questiondown.allsmall" unicode="&#xf134;" horiz-adv-x="403" 
d="M219 357q-17 0 -29.5 12.5t-12.5 29.5q0 18 12.5 30.5t29.5 12.5q18 0 30.5 -12.5t12.5 -30.5q0 -17 -12.5 -29.5t-30.5 -12.5zM218 15q39 0 63 15.5t24 32.5q0 14 -29 14q-16 0 -27 10.5t-11 25.5q0 19 15 28.5t32 9.5q24 0 45 -21t21 -54q0 -38 -39.5 -65.5
t-99.5 -27.5q-74 0 -127.5 36t-53.5 95q0 34 16 61.5t36.5 42.5t49 26t44 14t30.5 5v35h36v-95q-60 0 -102 -23t-42 -72q0 -42 34 -67.5t85 -25.5z" />
    <glyph glyph-name="question.allsmall" unicode="&#xf135;" horiz-adv-x="403" 
d="M186 418q-39 0 -63.5 -15t-24.5 -33q0 -13 30 -13q15 0 26 -10.5t11 -25.5q0 -19 -15 -28.5t-32 -9.5q-24 0 -44.5 20.5t-20.5 54.5q0 38 39 65t100 27q74 0 127.5 -35.5t53.5 -95.5q0 -42 -22 -73t-56 -46t-57 -21t-41 -8v-36h-36v96q60 0 101.5 22.5t41.5 72.5
q0 42 -33.5 67t-84.5 25zM184 77q18 0 30.5 -12.5t12.5 -30.5q0 -17 -12.5 -29.5t-30.5 -12.5q-17 0 -29.5 12.5t-12.5 29.5q0 18 12.5 30.5t29.5 12.5z" />
    <glyph glyph-name="slash.allsmall" unicode="&#xf136;" horiz-adv-x="267" 
d="M254 433l-207 -450l-34 18l207 450z" />
    <glyph glyph-name="exclam.allsmall" unicode="&#xf137;" horiz-adv-x="281" 
d="M131 77q17 0 29.5 -12.5t12.5 -30.5q0 -17 -12.5 -29.5t-29.5 -12.5t-30 12.5t-13 29.5q0 18 13 30.5t30 12.5zM84 402q0 20 14 34t33 14t33.5 -14t14.5 -34q0 -18 -16.5 -88.5t-19.5 -178.5h-25q-3 108 -18.5 179t-15.5 88z" />
    <glyph glyph-name="exclamdown.allsmall" unicode="&#xf138;" horiz-adv-x="281" 
d="M150 357q-17 0 -29.5 12.5t-12.5 29.5q0 18 12.5 30.5t29.5 12.5t30 -12.5t13 -30.5q0 -17 -13 -29.5t-30 -12.5zM197 32q0 -20 -14 -34.5t-33 -14.5t-33.5 14.5t-14.5 34.5q0 18 16.5 88.5t19.5 177.5h25q3 -107 18.5 -178t15.5 -88z" />
    <glyph glyph-name="quotedbl.allsmall" unicode="&#xf139;" horiz-adv-x="412" 
d="M75 402q0 20 14 34t33 14q20 0 34 -14t14 -34q0 -7 -17.5 -60t-22.5 -115h-17q-5 62 -21.5 115t-16.5 60zM242 402q0 20 13.5 34t32.5 14q20 0 34.5 -14.5t14.5 -33.5q0 -7 -17.5 -60t-22.5 -115h-17q-5 62 -21.5 115t-16.5 60z" />
    <glyph glyph-name="quotesingle.allsmall" unicode="&#xf13a;" horiz-adv-x="245" 
d="M75 402q0 20 14 34t33 14q20 0 34 -14t14 -34q0 -7 -17.5 -60t-22.5 -115h-17q-5 62 -21.5 115t-16.5 60z" />
    <glyph glyph-name="quotedblleft.allsmall" unicode="&#xf13b;" horiz-adv-x="418" 
d="M345 446q-50 -53 -57 -107q2 1 8 1q19 0 33 -14t14 -34t-14 -34.5t-33 -14.5q-22 0 -38 16.5t-16 47.5q0 36 24 79.5t67 71.5zM178 446q-48 -51 -57 -107q2 1 8 1q19 0 33 -14t14 -34t-14 -34.5t-33 -14.5q-22 0 -38 16.5t-16 47.5q0 36 24 79.5t68 71.5z" />
    <glyph glyph-name="quotedblright.allsmall" unicode="&#xf13c;" horiz-adv-x="418" 
d="M130 354q-2 -1 -8 -1q-19 0 -33 14.5t-14 34.5t14 34t33 14q22 0 38 -16t16 -47q0 -37 -24.5 -80.5t-67.5 -70.5l-11 12q49 51 57 106zM297 354q-3 -1 -9 -1q-19 0 -32.5 14.5t-13.5 34.5t13.5 34t32.5 14q22 0 38.5 -16t16.5 -47q0 -37 -24.5 -80.5t-67.5 -70.5l-12 12
q50 51 58 106z" />
    </font>
</defs>
</svg>
