<?xml version="1.0" standalone="no"?>
<!DOCTYPE svg PUBLIC "-//W3C//DTD SVG 1.1//EN" "http://www.w3.org/Graphics/SVG/1.1/DTD/svg11.dtd" >
<svg xmlns="http://www.w3.org/2000/svg" xmlns:xlink="http://www.w3.org/1999/xlink" version="1.1">
<metadata>
Created by FontForge 20170731 at Thu Jul  1 08:09:13 2021
 By Aleksey,,,
Copyright (c) 2009 by Hannes von Doehren. All rights reserved.
</metadata>
<defs>
<font id="BrandonGrotesque-Medium" horiz-adv-x="1003" >
  <font-face 
    font-family="Brandon Grotesque Medium"
    font-weight="420"
    font-stretch="normal"
    units-per-em="2048"
    panose-1="2 11 6 3 2 2 3 6 2 2"
    ascent="1434"
    descent="-614"
    x-height="819"
    cap-height="1434"
    bbox="-287 -777.021 2193.23 2117.53"
    underline-thickness="102"
    underline-position="-307"
    unicode-range="U+0020-FB02"
  />
<missing-glyph horiz-adv-x="1226" 
d="M102 61v1311q0 62 62 62h899q32 0 46.5 -15t14.5 -47v-1311q0 -32 -14.5 -46.5t-46.5 -14.5h-899q-32 0 -47 14.5t-15 46.5zM537 643q0 -10 8.5 -17.5t19.5 -7.5h74q31 0 31 27v53q0 23 16 44.5t40 39t51.5 40.5t51.5 46.5t40 59.5t16 78q0 99 -73 163t-183 64
q-50 0 -96 -13t-75.5 -31.5t-52.5 -36.5t-33 -31l-10 -13q-16 -24 0 -37l46 -45q17 -11 34 0q1 1 15 14.5t20.5 19t23.5 17.5t31.5 17.5t36.5 10.5t45 5q59 0 92 -31t33 -75q0 -35 -21 -65t-50.5 -53t-59 -47.5t-50.5 -59.5t-21 -77v-59zM502 319q0 -40 29 -69t69 -29
q41 0 70.5 29t29.5 69t-29.5 69.5t-70.5 29.5q-40 0 -69 -29.5t-29 -69.5z" />
    <glyph glyph-name="fi" unicode="fi" horiz-adv-x="1114" 
d="M197 39v610h-97q-17 0 -28 11.5t-11 27.5v92q0 17 11 28t28 11h97v254q0 177 105 279t263 102q90 0 173.5 -30.5t133.5 -61.5q12 -7 15.5 -23t-4.5 -28l-52 -92q-15 -31 -53 -11q-119 66 -213 66q-70 0 -120 -51t-50 -150v-254h547q15 0 27 -12t12 -27v-741
q0 -15 -12 -27t-27 -12h-117q-15 0 -27 12t-12 27v610h-391v-610q0 -39 -57 -39h-102q-15 0 -27 12t-12 27z" />
    <glyph glyph-name="fl" unicode="fl" horiz-adv-x="1130" 
d="M199 39v612h-101q-17 0 -28 11.5t-11 27.5v90q0 17 11 28t28 11h101v254q0 181 105 281t261 100q49 0 95.5 -11.5t79 -28t57.5 -32.5t37 -28l12 -11l18 56q16 35 45 35h49q15 0 27 -12t12 -27v-1356q0 -15 -12 -27t-27 -12h-116q-15 0 -27 12t-12 27v1114
q-5 7 -12.5 15.5t-29.5 28t-45.5 34t-60 26t-73.5 11.5q-76 0 -131.5 -48.5t-55.5 -146.5v-254h205q17 0 28 -11t11 -28v-90q0 -16 -11 -27.5t-28 -11.5h-205v-612q0 -15 -12 -27t-27 -12h-120q-15 0 -26 12t-11 27z" />
    <glyph glyph-name="f_f" unicode="ff" horiz-adv-x="1271" 
d="M197 39v610h-99q-17 0 -28 11.5t-11 27.5v92q0 17 11 28t28 11h99v207q0 102 32.5 181.5t88.5 128t127 73.5t153 25q161 0 274 -88q94 108 258 108q75 0 137 -25.5t97 -56.5q23 -20 8 -47l-51 -92q-7 -13 -21.5 -15t-29.5 9q-74 49 -135 49q-70 0 -112 -51.5t-42 -151.5
v-254h221q17 0 28 -11t11 -28v-92q0 -16 -11 -27.5t-28 -11.5h-221v-610q0 -15 -12 -27t-27 -12h-121q-15 0 -27 12t-12 27v610h-387v-610q0 -15 -12 -27t-27 -12h-120q-15 0 -27 12t-12 27zM395 819h387v254q0 55 13 109q-25 27 -78.5 50t-112.5 23q-89 0 -149 -57.5
t-60 -171.5v-207z" />
    <glyph glyph-name="f_f_i" unicode="ffi" horiz-adv-x="1699" 
d="M197 39v610h-99q-17 0 -28 11.5t-11 27.5v92q0 17 11 28t28 11h99v207q0 185 108.5 293.5t292.5 114.5q25 0 49.5 -2t46 -7t39.5 -9.5t36 -12.5t29.5 -13t26 -13.5t20 -12l16.5 -10.5l11 -8q94 108 273 108q90 0 177 -30.5t136 -61.5q12 -7 15 -23t-5 -28l-53 -97
q-15 -23 -53 -6q-14 9 -41.5 22t-78 28.5t-91.5 15.5q-72 0 -121 -51.5t-49 -151.5v-252h547q15 0 27 -12t12 -27v-741q0 -15 -12 -27t-27 -12h-117q-17 0 -28 11.5t-11 27.5v610h-391v-610q0 -15 -12 -27t-27 -12h-121q-15 0 -27 12t-12 27v610h-387v-610q0 -15 -12 -27
t-27 -12h-120q-15 0 -27 12t-12 27zM395 819h387v254q0 49 11 109q-23 27 -76.5 50t-112.5 23q-90 0 -149.5 -57t-59.5 -172v-207z" />
    <glyph glyph-name="f_f_l" unicode="ffl" horiz-adv-x="1716" 
d="M197 39v610h-99q-17 0 -28 11.5t-11 27.5v92q0 17 11 28t28 11h99v207q0 102 32.5 181.5t88.5 128t127 73.5t153 25q161 0 274 -88q94 108 283 108q76 0 145 -28t100 -56l32 -27l18 56q12 35 45 35h49q15 0 27 -12t12 -27v-1356q0 -15 -12 -27t-27 -12h-117
q-15 0 -26.5 12t-11.5 27v1114l-12.5 15t-29.5 28.5t-46 34t-60.5 26t-73.5 11.5q-76 0 -131 -48.5t-55 -146.5v-254h205q17 0 28 -11t11 -28v-90q0 -16 -11 -27.5t-28 -11.5h-205v-612q0 -15 -12 -27t-27 -12h-121q-15 0 -27 12t-12 27v610h-387v-610q0 -15 -12 -27
t-27 -12h-120q-15 0 -27 12t-12 27zM395 819h387v254q0 55 13 109q-25 27 -78.5 50t-112.5 23q-89 0 -149 -57.5t-60 -171.5v-207z" />
    <glyph glyph-name="f_f_h" unicode="ffh" horiz-adv-x="2295" 
d="M197 39v610h-99q-17 0 -28 11.5t-11 27.5v92q0 17 11 28t28 11h99v185q0 210 110.5 320t290.5 110q161 0 274 -88q94 108 283 108q76 0 145 -28t100 -56l32 -27l18 56q12 35 45 35h49q15 0 27 -12t12 -27q0 -108 1 -322.5t1 -320.5q126 88 246 88q342 0 342 -424v-377
q0 -15 -12 -27t-27 -12h-117q-15 0 -27 12t-12 27v412q0 99 -46 152.5t-126 53.5q-84 0 -147.5 -45t-73.5 -84v-49v-440q0 -17 -11 -28t-30 -11h-117q-15 0 -26.5 12t-11.5 27v1114l-12.5 15t-29.5 28.5t-46 34t-60.5 26t-73.5 11.5q-80 0 -133 -50.5t-53 -158.5v-240h205
q17 0 28 -11t11 -28v-90q0 -16 -11 -27.5t-28 -11.5h-205v-612q0 -15 -12 -27t-27 -12h-121q-15 0 -27 12t-12 27v610h-387v-610q0 -15 -12 -27t-27 -12h-120q-15 0 -27 12t-12 27zM395 819h387v254q0 55 13 109q-25 27 -78.5 50t-112.5 23q-89 0 -149 -57.5t-60 -171.5
v-207z" />
    <glyph glyph-name="f_k" unicode="fk" horiz-adv-x="1626" 
d="M199 39v612h-101q-17 0 -28 11.5t-11 27.5v90q0 17 11 28t28 11h101v254q0 121 51.5 209.5t133 130t181.5 41.5q49 0 95.5 -11.5t79 -28t57.5 -32.5t37 -28l12 -11l18 56q12 35 45 35h49q15 0 27 -12t12 -27v-887l322 287q24 24 49 24h145q24 0 30.5 -21.5t-7.5 -33.5
l-342 -309l403 -402q15 -13 8 -33t-32 -20h-168q-21 0 -37 16l-371 381v-358q0 -15 -12 -27t-27 -12h-116q-15 0 -27 12t-12 27v1114q-5 7 -12.5 15.5t-29.5 28t-45.5 34t-60 26t-73.5 11.5q-76 0 -131.5 -48.5t-55.5 -146.5v-254h205q17 0 28 -11t11 -28v-90
q0 -16 -11 -27.5t-28 -11.5h-205v-612q0 -15 -12 -27t-27 -12h-120q-15 0 -26 12t-11 27z" />
    <glyph glyph-name="f_j" unicode="fj" horiz-adv-x="1114" 
d="M197 39v610h-97q-17 0 -28 11.5t-11 27.5v92q0 17 11 28t28 11h97v254q0 177 105 279t263 102q90 0 173.5 -30.5t133.5 -61.5q12 -7 15.5 -23t-4.5 -28l-52 -92q-15 -31 -53 -11q-119 66 -213 66q-70 0 -120 -51t-50 -150v-254h547q15 0 27 -12t12 -27v-1034
q0 -184 -97 -282.5t-251 -98.5q-76 0 -138.5 25t-95.5 57q-9 8 -11.5 22t3.5 25l51 92q7 13 23 14t29 -8q76 -51 135 -51q73 0 114 51.5t41 153.5v903h-389v-610q0 -15 -12 -27t-27 -12h-120q-15 0 -27 12t-12 27z" />
    <glyph glyph-name="f_f_j" unicode="ffj" horiz-adv-x="1699" 
d="M197 39v610h-99q-17 0 -28 11.5t-11 27.5v92q0 17 11 28t28 11h99v201q0 199 112 306.5t289 107.5q25 0 49.5 -2t46 -7t39.5 -9.5t36 -12.5t29.5 -13t26 -13.5t20 -12l16.5 -10.5l11 -8q94 108 273 108q90 0 175 -30t138 -62q12 -7 15 -23t-5 -28l-53 -97q-15 -23 -53 -6
q-14 9 -41.5 22t-78 28.5t-91.5 15.5q-88 0 -129 -61.5t-41 -188.5v-205h547q15 0 27 -12t12 -27v-1020q0 -97 -44 -153.5t-116 -69.5q-97 -159 -301 -131q-61 4 -102 33.5t-27 54.5l51 92q15 27 51 6q77 -51 135 -51q72 0 114 52t42 153v903h-389v-610q0 -15 -12 -27
t-27 -12h-121q-15 0 -27 12t-12 27v610h-387v-610q0 -15 -12 -27t-27 -12h-120q-15 0 -27 12t-12 27zM395 819h387v223q0 80 11 140q-23 27 -76.5 50t-112.5 23q-90 0 -149.5 -57t-59.5 -172v-207z" />
    <glyph glyph-name="f_b" unicode="fb" horiz-adv-x="1673" 
d="M199 39v612h-101q-17 0 -28 11.5t-11 27.5v90q0 17 11 28t28 11h101v217q0 49 2 74q12 160 112.5 252t251.5 92q49 0 95.5 -11.5t79 -28t57.5 -32.5t37 -28l12 -11l18 56q12 35 45 35h49q15 0 27 -12t12 -27v-602q106 47 197 47q171 0 288 -124.5t117 -305.5
q0 -178 -111 -304t-271 -126q-46 0 -89.5 11.5t-73.5 28.5t-53 34t-34 28l-11 12q-1 -5 -4.5 -19t-5.5 -19.5t-6 -17t-8 -16t-10 -11t-13.5 -9t-17.5 -2.5h-49q-15 0 -27 12t-12 27v1114q-5 7 -12.5 15.5t-29.5 28t-45.5 34t-60 26t-73.5 11.5q-76 0 -131.5 -48.5
t-55.5 -146.5v-37v-217h205q17 0 28 -11t11 -28v-90q0 -16 -11 -27.5t-28 -11.5h-205v-612q0 -15 -12 -27t-27 -12h-120q-15 0 -26 12t-11 27zM995 299q2 -12 15.5 -34t36.5 -47.5t62 -44.5t83 -19q96 0 156.5 75t60.5 181q0 105 -66 176t-167 71q-48 0 -93.5 -11.5
t-66.5 -23.5l-21 -12v-311z" />
    <glyph glyph-name="f_f_k" unicode="ffk" horiz-adv-x="2211" 
d="M197 39v610h-99q-17 0 -28 11.5t-11 27.5v92q0 17 11 28t28 11h99v207q0 102 32.5 181.5t88.5 128t127 73.5t153 25q161 0 274 -88q94 108 281 108q48 0 94.5 -11.5t78.5 -28t57 -32.5t37 -28l12 -11l20 60q9 31 39 31h53q15 0 27 -12t12 -27v-887l322 287q24 24 49 24
h145q24 0 30.5 -21.5t-7.5 -33.5l-342 -309l403 -402q15 -13 8 -33t-32 -20h-168q-21 0 -37 16l-371 381v-358q0 -15 -12 -27t-27 -12h-117q-15 0 -26.5 12t-11.5 27v1114l-12.5 15t-29.5 28.5t-46 34t-60.5 26t-73.5 11.5q-76 0 -131 -48.5t-55 -146.5v-254h205
q17 0 28 -11t11 -28v-90q0 -16 -11 -27.5t-28 -11.5h-205v-612q0 -15 -12 -27t-27 -12h-121q-15 0 -27 12t-12 27v610h-387v-610q0 -15 -12 -27t-27 -12h-120q-15 0 -27 12t-12 27zM395 819h387v254q0 55 13 109q-25 27 -78.5 50t-112.5 23q-89 0 -149 -57.5t-60 -171.5
v-207z" />
    <glyph glyph-name="f_h" unicode="fh" horiz-adv-x="1708" 
d="M199 39v612h-101q-17 0 -28 11.5t-11 27.5v90q0 17 11 28t28 11h101v217q0 49 2 74q12 160 113.5 252t252.5 92q48 0 94.5 -11.5t78.5 -28t57 -32.5t37 -28l12 -11l18 56q12 35 45 35h49q15 0 27 -12t12 -27q0 -108 1 -322.5t1 -320.5q126 88 246 88q177 0 259.5 -113.5
t82.5 -310.5v-377q0 -15 -12 -27t-27 -12h-116q-15 0 -27 12t-12 27v412q0 99 -46 152.5t-126 53.5q-84 0 -148.5 -45t-73.5 -84v-39v-450q0 -17 -11 -28t-30 -11h-116q-15 0 -27 12t-12 27v1114q-5 7 -12.5 15.5t-29.5 28t-45.5 34t-60 26t-73.5 11.5q-76 0 -131.5 -48.5
t-55.5 -146.5v-37v-217h205q17 0 28 -11t11 -28v-90q0 -16 -11 -27.5t-28 -11.5h-205v-612q0 -15 -12 -27t-27 -12h-120q-15 0 -26 12t-11 27z" />
    <glyph glyph-name="f_f_b" unicode="ffb" horiz-adv-x="2258" 
d="M197 39v610h-99q-17 0 -28 11.5t-11 27.5v92q0 17 11 28t28 11h99v205q0 192 112 301t289 109q161 0 274 -88q94 108 281 108q48 0 94.5 -11.5t78.5 -28t57 -32.5t37 -28l12 -11l18 56q12 35 45 35h49q15 0 27 -12t12 -27v-602q106 47 197 47q171 0 288 -124.5
t117 -305.5q0 -178 -111.5 -304t-271.5 -126q-46 0 -89.5 11.5t-73 28.5t-52.5 34t-34 28l-11 12q-1 -5 -4.5 -19t-5.5 -19.5t-6 -17t-8 -16t-10 -11t-13.5 -9t-17.5 -2.5h-50q-15 0 -26.5 12t-11.5 27v1114l-12.5 15t-29.5 28.5t-46 34t-60.5 26t-73.5 11.5
q-76 0 -131 -48.5t-55 -146.5v-37v-217h205q17 0 28 -11t11 -28v-90q0 -16 -11 -27.5t-28 -11.5h-205v-612q0 -15 -12 -27t-27 -12h-121q-15 0 -27 12t-12 27v610h-387v-610q0 -15 -12 -27t-27 -12h-120q-15 0 -27 12t-12 27zM395 819h387v254q0 55 13 109q-25 27 -78.5 50
t-112.5 23q-89 0 -149 -57.5t-60 -171.5v-207zM1581 299q2 -12 15.5 -34t36.5 -47.5t62 -44.5t83 -19q96 0 156.5 75t60.5 181q0 105 -66.5 176t-167.5 71q-48 0 -93 -11.5t-66 -23.5l-21 -12v-311z" />
    <glyph glyph-name=".notdef" horiz-adv-x="1226" 
d="M102 61v1311q0 62 62 62h899q32 0 46.5 -15t14.5 -47v-1311q0 -32 -14.5 -46.5t-46.5 -14.5h-899q-32 0 -47 14.5t-15 46.5zM537 643q0 -10 8.5 -17.5t19.5 -7.5h74q31 0 31 27v53q0 23 16 44.5t40 39t51.5 40.5t51.5 46.5t40 59.5t16 78q0 99 -73 163t-183 64
q-50 0 -96 -13t-75.5 -31.5t-52.5 -36.5t-33 -31l-10 -13q-16 -24 0 -37l46 -45q17 -11 34 0q1 1 15 14.5t20.5 19t23.5 17.5t31.5 17.5t36.5 10.5t45 5q59 0 92 -31t33 -75q0 -35 -21 -65t-50.5 -53t-59 -47.5t-50.5 -59.5t-21 -77v-59zM502 319q0 -40 29 -69t69 -29
q41 0 70.5 29t29.5 69t-29.5 69.5t-70.5 29.5q-40 0 -69 -29.5t-29 -69.5z" />
    <glyph glyph-name=".null" horiz-adv-x="0" 
 />
    <glyph glyph-name="nonmarkingreturn" horiz-adv-x="682" 
 />
    <glyph glyph-name="space" unicode=" " horiz-adv-x="450" 
 />
    <glyph glyph-name="exclam" unicode="!" horiz-adv-x="602" 
d="M279 557q-13 0 -25 10.5t-14 22.5l-60 571v234q0 15 12 27t27 12h164q15 0 27 -12t12 -27v-230l-60 -575q-2 -12 -13.5 -22.5t-24.5 -10.5h-45zM158 121q0 59 42 101t99 42q60 0 101.5 -41.5t41.5 -101.5q0 -59 -41.5 -100t-101.5 -41q-57 0 -99 41.5t-42 99.5z" />
    <glyph glyph-name="quotedbl" unicode="&#x22;" horiz-adv-x="663" 
d="M455 1026q-15 0 -27 12t-12 27v330q0 15 12 27t27 12h116q21 0 32 -15.5t5 -36.5l-69 -325q-3 -12 -14.5 -21.5t-22.5 -9.5h-47zM125 1026q-15 0 -27 12t-12 27v330q0 15 12 27t27 12h117q21 0 32 -15.5t5 -36.5l-70 -325q-3 -12 -14.5 -21.5t-22.5 -9.5h-47z" />
    <glyph glyph-name="numbersign" unicode="#" horiz-adv-x="1105" 
d="M215 45l49 346h-143q-17 0 -28 10t-11 25v29q0 17 11 27t28 10h158l49 342h-148q-16 0 -27.5 9.5t-11.5 24.5v29q0 15 12 26t27 11h160l66 467q2 12 12.5 22.5t23.5 10.5h23q18 0 29 -13.5t8 -31.5l-62 -455h316l63 467q2 12 14 22.5t25 10.5h19q19 0 30 -13t8 -32
l-61 -455h137q17 0 28 -11t11 -26v-29q0 -15 -10 -24.5t-27 -9.5h-151l-49 -342h139q16 0 27.5 -10t11.5 -27v-29q0 -15 -11 -25t-26 -10h-156l-51 -358q-2 -14 -13 -23.5t-26 -9.5h-20q-19 0 -30 13t-9 32l51 346h-320l-49 -358q-1 -13 -13 -23t-26 -10h-18q-20 0 -31 13
t-8 32zM377 492h319l45 342h-315z" />
    <glyph glyph-name="dollar" unicode="$" horiz-adv-x="1069" 
d="M102 141q-11 11 -15.5 17t-5 19.5t10.5 29.5l60 86q29 41 63 14q11 -11 43.5 -35t99.5 -58t129 -46q0 78 1 231.5t1 231.5q-87 34 -148.5 66.5t-120 80.5t-91 113t-37.5 147q-2 25 2 74q5 57 31.5 111t72.5 102.5t121.5 82.5t169.5 44v66q0 17 11.5 27.5t27.5 10.5h21
q16 0 27.5 -10.5t11.5 -27.5v-68q177 -14 332 -117q14 -9 19 -27t-7 -42q-6 -8 -15.5 -23.5t-16.5 -25.5t-16.5 -22.5t-17.5 -19.5t-17.5 -12t-19.5 -4t-20 8l-25 15q-24 14 -51 28.5t-68 31.5t-77 26q0 -75 -1 -225.5t-1 -225.5q73 -31 126 -58t110.5 -67.5t93.5 -84.5
t59.5 -105.5t23.5 -132.5q0 -159 -115 -265t-300 -120v-213q0 -18 -12.5 -27.5t-30.5 -9.5q-54 0 -54 37v213q-75 6 -145 26.5t-119 49t-76 47.5t-45 36zM487 856v414q-96 -10 -146 -63.5t-50 -114.5q0 -76 48.5 -132.5t147.5 -103.5zM586 160q85 11 141.5 63.5t56.5 124.5
t-48.5 129t-149.5 109v-426z" />
    <glyph glyph-name="percent" unicode="%" horiz-adv-x="1368" 
d="M334 903q-116 0 -196.5 80.5t-80.5 196.5q0 115 80.5 195.5t196.5 80.5q114 0 195 -80.5t81 -195.5t-81 -196t-195 -81zM238 55l702 1358q14 21 35 21h67q23 0 34.5 -18t0.5 -38l-706 -1358q-3 -6 -15 -13t-20 -7h-64q-23 0 -34 17.5t0 37.5zM334 1049q53 0 90 38t37 93
q0 51 -37.5 89t-89.5 38q-54 0 -91.5 -37.5t-37.5 -89.5q0 -55 37.5 -93t91.5 -38zM719 254q0 116 80.5 196t195.5 80q114 0 195.5 -80.5t81.5 -195.5t-81.5 -196t-195.5 -81q-115 0 -195.5 80.5t-80.5 196.5zM864 254q0 -54 38 -91.5t93 -37.5q51 0 89 37.5t38 91.5
q0 52 -38 89.5t-89 37.5q-55 0 -93 -37t-38 -90z" />
    <glyph glyph-name="ampersand" unicode="&#x26;" horiz-adv-x="1390" 
d="M162 360q0 51 12.5 98.5t30 83t46.5 70t51.5 56t55.5 45.5t48.5 33.5t39.5 23.5v4l-47 51q-69 72 -105.5 142t-35.5 155q0 60 24 118t68.5 106.5t118 78t164.5 29.5q164 0 265 -94t101 -232q0 -41 -12 -81t-28 -71t-44.5 -64.5t-48.5 -54t-54 -47.5t-47.5 -36.5
t-41.5 -28.5l287 -286q67 129 77 295q1 33 14.5 44t43.5 5l84 -17q9 -1 15.5 -4t10.5 -6.5t6.5 -8.5t3.5 -8.5t1 -10v-9t-1 -9t-1 -7.5q-11 -107 -46 -211t-79 -182l190 -185q15 -15 21 -25.5t1.5 -28.5t-26.5 -40l-53 -53q-44 -41 -88 6l-162 164q-68 -77 -181 -132.5
t-266 -55.5q-187 0 -300 110t-113 270zM604 866q2 1 20.5 12t25.5 15.5t26.5 17.5t29 21t27 23t27.5 27t22.5 29.5t19 33.5t11 35.5t4.5 39.5q0 70 -53 123t-141 53q-84 0 -133.5 -50.5t-49.5 -125.5q-1 -55 28 -101t91 -108zM356 373q0 -96 68.5 -158.5t167.5 -62.5
q183 0 307 147l-342 360q-36 -23 -60 -40.5t-62 -54.5t-58.5 -85.5t-20.5 -105.5z" />
    <glyph glyph-name="quotesingle" unicode="'" horiz-adv-x="333" 
d="M125 1026q-15 0 -27 12t-12 27v330q0 15 12 27t27 12h117q21 0 32 -15.5t5 -36.5l-70 -325q-3 -12 -14.5 -21.5t-22.5 -9.5h-47z" />
    <glyph glyph-name="parenleft" unicode="(" horiz-adv-x="698" 
d="M618 -4q11 -3 18.5 -13.5t4.5 -23.5l-4 -94q-3 -27 -39 -27q-62 4 -118 22t-113.5 54.5t-104 99t-83.5 148t-57 209t-20 274.5q0 130 15.5 240t42 190.5t64.5 144t80.5 105t93 69.5t99.5 40.5t101 15.5q36 3 39 -27l4 -94q3 -13 -4.5 -24t-18.5 -13q-167 -37 -242 -198.5
t-75 -448.5q0 -288 75 -449t242 -200z" />
    <glyph glyph-name="parenright" unicode=")" horiz-adv-x="698" 
d="M57 -39q-2 12 5.5 23t17.5 12q168 39 243.5 200t75.5 449q0 287 -76 448.5t-243 198.5q-11 2 -17.5 13t-5.5 24l6 94q0 30 37 27q52 -3 101 -15.5t99.5 -40.5t93 -69.5t80.5 -105t64.5 -144t42 -190.5t15.5 -240q0 -151 -20 -274.5t-57 -209t-83.5 -148t-104 -99
t-113.5 -54.5t-118 -22q-37 0 -37 27z" />
    <glyph glyph-name="asterisk" unicode="*" horiz-adv-x="692" 
d="M324 803q-15 0 -27 12t-12 27l4 174l-144 -101q-12 -9 -28.5 -5t-24.5 16l-24 39q-9 14 -5.5 30t15.5 25l162 98l-164 101q-12 9 -15 25t5 28q19 31 26 39q8 12 23.5 15.5t27.5 -5.5l146 -100l-4 174q0 15 12 27t27 12h45q15 0 27 -12t12 -27l-5 -174l144 104
q12 7 28 3.5t25 -15.5l25 -39q8 -13 5 -28.5t-16 -24.5l-163 -103l163 -102q14 -9 17.5 -25t-4.5 -28l-27 -39q-7 -13 -23.5 -17t-29.5 4l-144 103l5 -172q0 -15 -12 -27t-27 -12h-45z" />
    <glyph glyph-name="plus" unicode="+" horiz-adv-x="1193" 
d="M516 313v314h-315q-15 0 -27 12t-12 27v86q0 15 12 27t27 12h315v317q0 15 12 26t27 11h86q15 0 27 -11t12 -26v-317h315q15 0 26 -12t11 -27v-86q0 -15 -11 -27t-26 -12h-315v-314q0 -15 -12 -26t-27 -11h-86q-15 0 -27 11t-12 26z" />
    <glyph glyph-name="comma" unicode="," horiz-adv-x="499" 
d="M92 121q0 59 43.5 101t106.5 42q68 0 119 -53.5t51 -173.5q0 -74 -21 -144t-54 -121.5t-65 -86.5t-63 -58q-28 -25 -49 0l-31 31q-9 9 -7 24t17 27q146 127 146 279q-1 0 -8.5 -2t-19.5 -4t-24 -2q-57 0 -99 41.5t-42 99.5z" />
    <glyph glyph-name="hyphen" unicode="-" horiz-adv-x="798" 
d="M178 422q-17 0 -28 11t-11 26v88q0 17 11 28t28 11h443q17 0 27.5 -11t10.5 -28v-88q0 -15 -10.5 -26t-27.5 -11h-443z" />
    <glyph glyph-name="period" unicode="." horiz-adv-x="468" 
d="M92 121q0 60 41 101.5t100 41.5q60 0 102 -41.5t42 -101.5q0 -59 -42 -100t-102 -41q-59 0 -100 41t-41 100z" />
    <glyph glyph-name="slash" unicode="/" horiz-adv-x="686" 
d="M70 51l401 1356q3 11 14 19t23 8h96q22 0 32.5 -15t4.5 -37l-399 -1355q-3 -10 -14.5 -18.5t-22.5 -8.5h-99q-21 0 -31.5 15t-4.5 36z" />
    <glyph glyph-name="zero" unicode="0" horiz-adv-x="1292" 
d="M647 -20q-242 0 -375 189t-133 527t133 527.5t375 189.5q241 0 373.5 -189.5t132.5 -527.5t-132.5 -527t-373.5 -189zM647 166q143 0 221 138t78 392q0 252 -78.5 390.5t-220.5 138.5q-144 0 -222.5 -138t-78.5 -391q0 -255 78 -392.5t223 -137.5z" />
    <glyph glyph-name="one" unicode="1" horiz-adv-x="702" 
d="M299 39v1040l-164 -78q-13 -6 -27 -2t-18 17l-24 71q-10 25 6 41l290 265h101q15 0 26 -12t11 -27v-1315q0 -15 -11 -27t-26 -12h-125q-17 0 -28 11.5t-11 27.5z" />
    <glyph glyph-name="two" unicode="2" horiz-adv-x="1060" 
d="M74 39v53q90 102 295.5 348.5t220.5 264.5q155 175 155 299q0 41 -14.5 79t-43 71t-78.5 53t-115 20q-133 0 -261 -137q-12 -12 -27.5 -12t-27.5 12l-69 69q-10 10 -11.5 25t8.5 28q6 8 18 21.5t51.5 48.5t83 61.5t110.5 48t135 21.5q107 0 193 -32.5t141 -88t84.5 -127
t29.5 -153.5q0 -107 -47 -192.5t-149 -207.5q-197 -236 -373 -436h522q15 0 27 -12t12 -27v-98q0 -15 -12 -27t-27 -12h-792q-17 0 -28 11.5t-11 27.5z" />
    <glyph glyph-name="three" unicode="3" horiz-adv-x="1083" 
d="M86 162q-9 10 -8.5 25t10.5 24l80 74q30 24 55 -4q7 -9 28.5 -27t57.5 -42t88 -41t105 -17q104 0 180 61t76 160q0 100 -84.5 169.5t-239.5 69.5h-115q-38 0 -38 43v88q0 23 9.5 33t31.5 10h114q139 0 214 62t75 158q0 99 -69 161t-164 62q-133 0 -238 -115
q-9 -12 -24 -14t-29 10l-76 68q-12 11 -11.5 26.5t11.5 26.5q6 7 18 19.5t51 43.5t80.5 54.5t104.5 43t125 19.5q183 0 305.5 -103.5t122.5 -271.5q0 -109 -65.5 -196.5t-145.5 -124.5v-6q39 -17 79.5 -46.5t80 -72t64 -101t24.5 -120.5q0 -170 -127 -280.5t-336 -110.5
q-265 0 -420 182z" />
    <glyph glyph-name="four" unicode="4" horiz-adv-x="1214" 
d="M72 305q-17 0 -28 11.5t-11 27.5v123l758 936q12 12 30 12h76q16 0 27.5 -11t11.5 -28v-905h166q17 0 28 -11t11 -26v-86q0 -16 -11 -27.5t-28 -11.5h-166l2 -270q0 -15 -12 -27t-27 -12h-121q-15 0 -27 12t-12 27v266h-667zM254 475h494v602z" />
    <glyph glyph-name="five" unicode="5" horiz-adv-x="1085" 
d="M127 150q-21 24 -21.5 37t17.5 32q14 11 38 35.5t38 36.5q28 24 49 0q8 -11 29.5 -29t58 -43.5t89.5 -43t107 -17.5q121 0 200 87t79 201q0 113 -74.5 188t-210.5 75h-313q-29 0 -46 22t-17 49v574q0 16 10.5 27.5t27.5 11.5h633q17 0 28 -11.5t11 -27.5v-101
q0 -16 -11 -27.5t-28 -11.5h-487v-323h207q223 0 347 -119t124 -323q0 -95 -37 -181t-100.5 -149.5t-154.5 -101t-194 -37.5q-79 0 -148 17t-117.5 45.5t-79.5 54t-54 53.5z" />
    <glyph glyph-name="six" unicode="6" horiz-adv-x="1107" 
d="M98 553q0 118 28.5 225t72.5 187.5t107 152.5t123.5 121t130.5 91.5t119 65.5t97 42q38 12 51 -25l35 -84q17 -42 -37 -59q-33 -11 -80.5 -34.5t-111.5 -66t-121 -92.5t-106 -119.5t-68 -140.5q17 11 47.5 25t97 32.5t127.5 18.5q82 0 158.5 -30t137 -85t96.5 -140.5
t36 -188.5q0 -193 -135 -331t-321 -138q-120 0 -213.5 45t-152 124t-88.5 181.5t-30 222.5zM580 164q113 0 191.5 83t78.5 199t-79 197.5t-193 81.5q-106 0 -186.5 -57t-94.5 -99q-6 -68 7 -136.5t44.5 -130t91.5 -100t140 -38.5z" />
    <glyph glyph-name="seven" unicode="7" horiz-adv-x="978" 
d="M145 39v22l553 1151h-606q-15 0 -27 12t-12 27v103q0 15 12 27t27 12h838q15 0 27 -12t12 -27v-15l-602 -1284q-14 -33 -29 -44t-51 -11h-94q-20 0 -34 12t-14 27z" />
    <glyph glyph-name="eight" unicode="8" horiz-adv-x="1171" 
d="M113 373q0 51 18.5 100.5t46.5 87t62.5 70t64.5 52.5t55 32v6q-36 18 -70.5 46.5t-67 68t-52.5 92.5t-20 110q0 167 123.5 271t310.5 104q191 0 314.5 -104t123.5 -271q0 -107 -65 -190.5t-146 -124.5v-8q39 -18 79 -48t79.5 -72.5t64.5 -101t25 -120.5
q0 -171 -129.5 -282t-347.5 -111q-212 0 -340.5 111.5t-128.5 281.5zM586 811q114 17 171.5 75.5t57.5 143.5q0 93 -66.5 154t-168.5 61q-94 0 -159 -61t-65 -154q0 -86 57 -143.5t173 -75.5zM326 369q0 -98 76.5 -161t181.5 -63q111 0 186.5 62t75.5 162q0 86 -70 156.5
t-190 88.5q-120 -18 -190 -88.5t-70 -156.5z" />
    <glyph glyph-name="nine" unicode="9" horiz-adv-x="1105" 
d="M244 76q-17 42 37 59q33 11 81 34.5t112 66t121.5 92.5t106.5 118.5t68 139.5q-133 -74 -272 -74q-83 0 -160 30t-137 85t-96.5 140.5t-36.5 188.5q0 127 62 235t167.5 171t228.5 63q119 0 212.5 -45t151.5 -124t88 -182t30 -224q0 -118 -28.5 -225t-72.5 -187.5
t-107.5 -152.5t-123.5 -120.5t-130 -91.5t-118.5 -66t-97.5 -42q-38 -12 -51 25zM528 678q57 0 110.5 19t88.5 45.5t56.5 51t25.5 40.5q7 67 -6 136.5t-44.5 131t-92 100.5t-140.5 39q-112 0 -191 -84t-79 -199q0 -117 79 -198.5t193 -81.5z" />
    <glyph glyph-name="colon" unicode=":" horiz-adv-x="505" 
d="M254 575q-55 0 -94 39t-39 93q0 55 38.5 94t94.5 39q55 0 93 -38.5t38 -94.5q0 -54 -38 -93t-93 -39zM121 111q0 55 38.5 94t94.5 39q55 0 93 -38.5t38 -94.5q0 -54 -38 -92.5t-93 -38.5t-94 38.5t-39 92.5z" />
    <glyph glyph-name="semicolon" unicode=";" horiz-adv-x="518" 
d="M254 575q-55 0 -94 39t-39 93q0 55 38.5 94t94.5 39q55 0 93 -38.5t38 -94.5q0 -54 -38 -93t-93 -39zM125 106q0 53 38 90t93 37q63 0 108.5 -47t45.5 -155q0 -65 -19 -127.5t-49.5 -110.5t-57 -80.5t-53.5 -56.5t-49 -2l-28 31q-20 19 8 47q11 9 22 19t33 35.5t37.5 52
t28 66.5t12.5 81q-12 -6 -43 -6q-53 0 -90 37t-37 89z" />
    <glyph glyph-name="less" unicode="&#x3c;" horiz-adv-x="892" 
d="M63 430q-8 5 -14 15.5t-6 19.5v10q0 9 6 19.5t14 15.5l703 434q20 12 38.5 2t18.5 -35v-108q0 -25 -20 -37l-488 -295l488 -285q20 -12 20 -34v-109q0 -25 -18.5 -35t-38.5 2z" />
    <glyph glyph-name="equal" unicode="=" horiz-adv-x="1019" 
d="M190 705q-17 0 -27.5 11t-10.5 27v88q0 16 10.5 27.5t27.5 11.5h639q17 0 28 -11.5t11 -27.5v-88q0 -15 -11 -26.5t-28 -11.5h-639zM190 272q-17 0 -27.5 11.5t-10.5 27.5v90q0 16 10.5 27.5t27.5 11.5h639q17 0 28 -11.5t11 -27.5v-90q0 -16 -11 -27.5t-28 -11.5h-639z
" />
    <glyph glyph-name="greater" unicode="&#x3e;" horiz-adv-x="892" 
d="M70 43v109q0 24 20 34l485 285l-485 295q-20 10 -20 37v108q0 25 18.5 35t38.5 -2l702 -434q8 -5 14.5 -15.5t6.5 -19.5v-10q0 -9 -6.5 -19.5t-14.5 -15.5l-702 -420q-20 -12 -38.5 -2t-18.5 35z" />
    <glyph glyph-name="question" unicode="?" horiz-adv-x="929" 
d="M373 557q-16 0 -27.5 11t-11.5 28v86q0 45 16.5 84t42.5 67.5t57.5 55t63.5 51t58 50t42.5 59t16.5 71.5q0 66 -49.5 112t-135.5 46q-41 0 -76.5 -8.5t-64 -25.5t-45 -29.5t-38.5 -34t-27 -25.5q-25 -22 -50 0l-67 66q-24 21 0 53q5 7 15.5 19.5t46.5 43.5t77.5 54.5
t109 43t140.5 19.5q161 0 269 -92.5t108 -237.5q0 -72 -33 -131t-79.5 -98t-93 -73t-79.5 -71.5t-33 -76.5v-76q0 -20 -12 -30.5t-31 -10.5h-110zM285 121q0 60 41 101.5t100 41.5q60 0 101.5 -41.5t41.5 -101.5q0 -59 -41.5 -100t-101.5 -41q-58 0 -99.5 41t-41.5 100z" />
    <glyph glyph-name="at" unicode="@" horiz-adv-x="2013" 
d="M76 457q0 216 69 401t192.5 316t303.5 205.5t393 74.5q205 0 372.5 -65.5t277.5 -181.5t169.5 -274t59.5 -343q0 -85 -14 -167.5t-47.5 -163.5t-83.5 -142t-128 -99t-174 -38q-185 0 -239 159h-17q-35 -69 -103.5 -114t-158.5 -45q-158 0 -261 122t-103 310
q0 192 103.5 310t266.5 118q27 0 52.5 -4.5t45 -11t39.5 -17t33 -19t27 -20.5t21 -18.5t16 -15.5l8 -9q3 10 8 27.5t7.5 24.5t8.5 17.5t13 14.5t18.5 7t28.5 3h27q15 0 27 -12t12 -27v-405q0 -135 35 -184.5t102 -49.5q109 0 180.5 124t71.5 319q0 120 -28 226t-86 194
t-141 151.5t-198.5 99t-253.5 35.5q-355 0 -565.5 -224t-210.5 -609q0 -264 141.5 -462.5t376.5 -297.5q20 -9 24.5 -20t-3.5 -31l-37 -92q-14 -31 -43 -19q-284 111 -459.5 356.5t-175.5 565.5zM762 418q-3 -118 56 -190t147 -72q94 0 141 54t49 144v189q-5 34 -56.5 81.5
t-133.5 47.5q-89 0 -144.5 -68t-58.5 -186z" />
    <glyph glyph-name="A" unicode="A" horiz-adv-x="1355" 
d="M41 0q-23 0 -33.5 16.5t-1.5 36.5l629 1379q4 9 15.5 15.5t19.5 6.5h20q8 0 19.5 -6.5t15.5 -15.5l625 -1379q9 -20 -1.5 -36.5t-33.5 -16.5h-129q-33 0 -47 31l-127 280h-670q-21 -47 -63 -140t-62 -140q-13 -31 -47 -31h-129zM422 487h512l-252 562h-10z" />
    <glyph glyph-name="B" unicode="B" horiz-adv-x="1273" 
d="M199 39v1356q0 16 11 27.5t28 11.5h458q185 0 305.5 -108.5t120.5 -270.5q0 -108 -63.5 -192.5t-149.5 -133.5q46 -19 87 -45.5t81 -66.5t64 -97.5t24 -124.5q0 -172 -126 -283.5t-320 -111.5h-481q-17 0 -28 11.5t-11 27.5zM408 811h276q96 0 153.5 62t57.5 157t-57 153
t-154 58h-276v-430zM406 188h311q94 0 157.5 64.5t63.5 159.5q0 92 -75 153.5t-177 61.5h-280v-439z" />
    <glyph glyph-name="C" unicode="C" horiz-adv-x="1425" 
d="M94 715q0 202 99 372t269 268.5t372 98.5q150 0 268 -47.5t227 -142.5q13 -12 13.5 -29t-11.5 -29l-90 -92q-22 -29 -51 0q-73 64 -166.5 100.5t-187.5 36.5q-143 0 -262 -73t-185.5 -195t-66.5 -264t67 -264t186.5 -194.5t262.5 -72.5q104 0 185.5 35t166.5 101
q27 21 49 2l94 -93q11 -11 10 -27.5t-12 -27.5q-204 -198 -497 -198q-202 0 -372 97.5t-269 266.5t-99 371z" />
    <glyph glyph-name="D" unicode="D" horiz-adv-x="1521" 
d="M199 39v1356q0 15 11 27t26 12h471q145 0 278 -57t229.5 -153t153.5 -228t57 -277q0 -146 -57 -279.5t-153.5 -229.5t-229 -153t-278.5 -57h-471q-15 0 -26 12t-11 27zM408 195h270q226 0 373 148.5t147 375.5q0 226 -147 373t-373 147h-270v-1044z" />
    <glyph glyph-name="E" unicode="E" horiz-adv-x="1206" 
d="M199 39v1356q0 16 11 27.5t28 11.5h819q17 0 28 -11.5t11 -27.5v-115q0 -16 -11 -27.5t-28 -11.5h-647v-418h546q15 0 27 -12t12 -27v-114q0 -17 -11.5 -28t-27.5 -11h-546v-441h647q17 0 28 -11.5t11 -26.5v-113q0 -16 -11 -27.5t-28 -11.5h-819q-17 0 -28 11.5
t-11 27.5z" />
    <glyph glyph-name="F" unicode="F" horiz-adv-x="1159" 
d="M199 39v1356q0 16 11 27.5t28 11.5h819q17 0 28 -11.5t11 -27.5v-115q0 -16 -11 -27.5t-28 -11.5h-647v-473h546q15 0 27 -12t12 -27v-113q0 -15 -12 -26.5t-27 -11.5h-546v-539q0 -15 -12 -27t-27 -12h-133q-17 0 -28 11.5t-11 27.5z" />
    <glyph glyph-name="G" unicode="G" horiz-adv-x="1478" 
d="M94 715q0 151 58 288t157 235.5t235.5 157t286.5 58.5q276 0 498 -190q12 -12 13 -29t-11 -29q-16 -17 -46.5 -48.5t-45.5 -47.5q-23 -25 -53 2q-74 64 -165 101.5t-183 37.5q-142 0 -261 -73t-186 -195t-67 -264q0 -141 67 -263t186 -195t261 -73q40 0 80.5 5t70 11.5
t59.5 16t46 16t34 13.5l17 8v229h-201q-17 0 -28 11t-11 26v119q0 17 11 28t28 11h373q15 0 26 -12t11 -27q0 -82 1 -248t1 -248q0 -19 -17 -32q-9 -5 -25 -14.5t-68 -32.5t-108 -41t-140 -32.5t-167 -14.5q-150 0 -286.5 57.5t-235.5 155.5t-157 234.5t-58 287.5z" />
    <glyph glyph-name="H" unicode="H" horiz-adv-x="1572" 
d="M199 39v1356q0 15 12 27t27 12h135q17 0 28 -11.5t11 -27.5v-572h749v572q0 16 11 27.5t28 11.5h135q15 0 27 -12t12 -27v-1356q0 -15 -12 -27t-27 -12h-135q-17 0 -28 11.5t-11 27.5v592h-749v-592q0 -16 -11 -27.5t-28 -11.5h-135q-15 0 -27 12t-12 27z" />
    <glyph glyph-name="I" unicode="I" horiz-adv-x="610" 
d="M199 39v1356q0 15 12 27t27 12h135q15 0 27 -12t12 -27v-1356q0 -15 -12 -27t-27 -12h-135q-15 0 -27 12t-12 27z" />
    <glyph glyph-name="J" unicode="J" horiz-adv-x="843" 
d="M-35 129q-17 27 4 51l74 80q35 30 66 -4q78 -88 167 -88q84 0 145.5 66t61.5 192v969q0 16 11 27.5t28 11.5h135q17 0 28 -11.5t11 -27.5v-967q0 -209 -117.5 -328.5t-302.5 -119.5q-190 0 -311 149z" />
    <glyph glyph-name="K" unicode="K" horiz-adv-x="1302" 
d="M199 49v1335q0 21 14 35.5t35 14.5h119q20 0 34.5 -15t14.5 -35v-567l577 596q17 21 39 21h154q28 0 38.5 -25.5t-10.5 -48.5l-591 -602l626 -690q14 -15 3.5 -41.5t-40.5 -26.5h-163q-28 0 -37 14l-596 672v-637q0 -20 -14.5 -34.5t-34.5 -14.5h-119q-21 0 -35 14
t-14 35z" />
    <glyph glyph-name="L" unicode="L" horiz-adv-x="1021" 
d="M199 39v1356q0 16 11 27.5t28 11.5h135q15 0 27 -12t12 -27v-1205h555q17 0 28 -11.5t11 -26.5v-113q0 -16 -11 -27.5t-28 -11.5h-729q-17 0 -28 11.5t-11 27.5z" />
    <glyph glyph-name="M" unicode="M" horiz-adv-x="1779" 
d="M100 47l254 1376q3 12 14 21.5t23 9.5h33q10 0 21 -6.5t14 -15.5l428 -1047h8l426 1047q3 9 13.5 15.5t21.5 6.5h33q12 0 22.5 -9.5t13.5 -21.5l252 -1376q5 -22 -5 -34.5t-32 -12.5h-133q-13 0 -24.5 9t-14.5 20l-151 915h-6l-369 -942q-7 -22 -35 -22h-37q-27 0 -34 22
l-371 942h-8l-148 -915q-2 -11 -13.5 -20t-23.5 -9h-133q-45 0 -39 47z" />
    <glyph glyph-name="N" unicode="N" horiz-adv-x="1587" 
d="M199 39v1378q0 15 12 26t27 11h51l889 -1028h2v969q0 16 11 27.5t28 11.5h131q15 0 27 -12t12 -27v-1379q0 -15 -12 -25.5t-27 -10.5h-54l-888 1056h-2v-997q0 -16 -11 -27.5t-28 -11.5h-129q-15 0 -27 12t-12 27z" />
    <glyph glyph-name="O" unicode="O" horiz-adv-x="1660" 
d="M94 715q0 101 26 197t73 177t114.5 149t148.5 115.5t176.5 74t196.5 26.5q202 0 371.5 -98.5t268 -268.5t98.5 -372t-98.5 -371t-268 -266.5t-371.5 -97.5q-151 0 -287.5 57.5t-234.5 155.5t-155.5 234.5t-57.5 287.5zM299 715q0 -144 71.5 -266.5t193.5 -193.5t265 -71
q108 0 206.5 42t170 113t114 169.5t42.5 206.5q0 143 -71.5 266t-194.5 195.5t-267 72.5q-143 0 -265.5 -72.5t-193.5 -195.5t-71 -266z" />
    <glyph glyph-name="P" unicode="P" horiz-adv-x="1216" 
d="M199 39v1356q0 16 11 27.5t28 11.5h467q189 0 323.5 -133.5t134.5 -319.5q0 -125 -61.5 -231t-166.5 -168t-228 -62h-297v-481q0 -15 -12 -27t-27 -12h-133q-17 0 -28 11.5t-11 27.5zM410 721h282q107 0 183.5 76.5t76.5 185.5q0 103 -76.5 174.5t-183.5 71.5h-282v-508z
" />
    <glyph glyph-name="Q" unicode="Q" horiz-adv-x="1662" 
d="M94 715q0 101 26 197t73 177t114.5 149t148.5 115.5t176.5 74t196.5 26.5q202 0 371.5 -98.5t268 -268.5t98.5 -372q0 -215 -114.5 -393.5t-303.5 -272.5l248 -393q13 -22 2.5 -42t-35.5 -20h-160q-21 0 -33 21l-221 373q-52 -8 -121 -8q-151 0 -287.5 57.5t-234.5 155.5
t-155.5 234.5t-57.5 287.5zM299 715q0 -144 71.5 -266.5t193.5 -193.5t265 -71q108 0 206.5 42t170 113t114 169.5t42.5 206.5q0 143 -71.5 266t-194.5 195.5t-267 72.5q-143 0 -265.5 -72.5t-193.5 -195.5t-71 -266z" />
    <glyph glyph-name="R" unicode="R" horiz-adv-x="1361" 
d="M199 39v1356q0 16 11 27.5t28 11.5h557q121 0 223.5 -58.5t162.5 -159.5t60 -221q0 -138 -83 -249t-220 -166l281 -521q11 -20 0.5 -39.5t-35.5 -19.5h-160q-24 0 -33 18l-272 543h-309v-522q0 -15 -12 -27t-27 -12h-133q-17 0 -28 11.5t-11 27.5zM414 737h364
q101 0 175.5 74.5t74.5 179.5q0 99 -75 171.5t-175 72.5h-364v-498z" />
    <glyph glyph-name="S" unicode="S" horiz-adv-x="1099" 
d="M119 141q-11 10 -16 17t-5.5 20t8.5 29q9 14 27 42.5t27 41.5q14 20 33 24.5t36 -8.5q15 -12 36.5 -27.5t70 -45.5t108 -49t113.5 -19q103 0 167 55t64 135q0 89 -74.5 154t-234.5 131q-69 29 -120 56.5t-101 66t-81.5 81.5t-51 102t-19.5 128q0 50 15 101t49.5 101.5
t85 89.5t128 63t171.5 24q71 0 140 -15.5t121.5 -40.5t76 -38.5t41.5 -26.5q14 -9 19.5 -26.5t-7.5 -42.5q-8 -12 -25.5 -38.5t-25.5 -39.5q-13 -21 -31.5 -27.5t-40.5 6.5q-1 0 -11 6.5t-21.5 13t-30 16.5t-36.5 18.5t-41 18t-44.5 16t-46 10.5t-45.5 4q-61 0 -108 -18
t-73 -46.5t-38.5 -59t-12.5 -61.5q0 -84 63 -143.5t197 -114.5q80 -32 138 -60.5t119 -70t98.5 -86t61.5 -106.5t24 -135q0 -162 -130 -274.5t-327 -112.5q-87 0 -167.5 19.5t-136.5 50.5t-86.5 52t-49.5 39z" />
    <glyph glyph-name="T" unicode="T" 
d="M395 39v1202h-334q-17 0 -27.5 11.5t-10.5 27.5v115q0 16 10.5 27.5t27.5 11.5h881q17 0 28 -11.5t11 -27.5v-115q0 -16 -11 -27.5t-28 -11.5h-334v-1202q0 -15 -12 -27t-27 -12h-135q-15 0 -27 12t-12 27z" />
    <glyph glyph-name="U" unicode="U" horiz-adv-x="1474" 
d="M180 535v860q0 15 12 27t27 12h137q17 0 28 -11.5t11 -27.5v-846q0 -157 93 -261t247 -104q155 0 249.5 102.5t94.5 258.5v850q0 16 11 27.5t28 11.5h137q15 0 27 -12t12 -27v-860q0 -154 -71.5 -281t-200 -200.5t-287.5 -73.5q-158 0 -285.5 73.5t-198.5 200.5t-71 281z
" />
    <glyph glyph-name="V" unicode="V" horiz-adv-x="1359" 
d="M633 2l-625 1378q-9 20 1.5 37t33.5 17h145q11 0 21.5 -7.5t13.5 -15.5l451 -1014h12l451 1014q9 23 34 23h146q23 0 33.5 -17t1.5 -37l-629 -1378q-11 -22 -35 -22h-20q-24 0 -35 22z" />
    <glyph glyph-name="W" unicode="W" horiz-adv-x="1843" 
d="M455 8l-387 1376q-6 22 4 36t32 14h138q12 0 23 -9t14 -20l247 -940h9l333 967q3 9 13 15.5t22 6.5h37q12 0 22 -6.5t13 -15.5l338 -967h8l244 940q3 11 14 20t23 9h137q22 0 32.5 -14t4.5 -36l-387 -1376q-3 -12 -14 -20t-23 -8h-33q-11 0 -21.5 6.5t-13.5 15.5
l-360 1018h-11l-354 -1018q-3 -9 -13.5 -15.5t-21.5 -6.5h-32q-12 0 -23 8t-14 20z" />
    <glyph glyph-name="X" unicode="X" horiz-adv-x="1245" 
d="M72 57l422 678l-406 641q-12 20 -1.5 39t36.5 19h174q24 0 35 -19l289 -489h2l292 489q9 19 33 19h174q26 0 36.5 -19t-1.5 -39l-405 -641l419 -678q12 -22 2 -39.5t-36 -17.5h-158q-26 0 -35 18l-321 525h-5l-317 -525q-13 -18 -35 -18h-157q-27 0 -38.5 18.5t1.5 38.5z
" />
    <glyph glyph-name="Y" unicode="Y" horiz-adv-x="1175" 
d="M479 39v651l-479 684q-12 20 -1.5 40t34.5 20h151q19 0 33 -19l371 -522l370 522q14 19 33 19h154q24 0 34.5 -20t-1.5 -40l-486 -682v-653q0 -15 -12 -27t-27 -12h-135q-17 0 -28 11.5t-11 27.5z" />
    <glyph glyph-name="Z" unicode="Z" horiz-adv-x="1095" 
d="M55 39v37l676 1153v8h-577q-15 0 -27 12t-12 27v119q0 15 12 27t27 12h841q15 0 27 -12t12 -27v-27l-678 -1171v-2h598q17 0 28 -11.5t11 -27.5v-117q0 -16 -11 -27.5t-28 -11.5h-860q-15 0 -27 12t-12 27z" />
    <glyph glyph-name="bracketleft" unicode="[" horiz-adv-x="690" 
d="M334 -449h274q15 0 27 -10.5t12 -25.5v-90q0 -15 -12 -27t-27 -12h-422q-15 0 -27 12t-12 27v1970q0 15 12 27t27 12h422q15 0 27 -12t12 -27v-90q0 -17 -11.5 -28t-27.5 -11h-274v-1715z" />
    <glyph glyph-name="backslash" unicode="\" horiz-adv-x="700" 
d="M444 27l-399 1355q-6 22 4.5 37t32.5 15h111q12 0 22.5 -8t13.5 -19l402 -1356q6 -21 -5 -36t-32 -15h-113q-11 0 -22.5 8.5t-14.5 18.5z" />
    <glyph glyph-name="bracketright" unicode="]" horiz-adv-x="690" 
d="M82 -449h272v1715h-272q-16 0 -27.5 11t-11.5 28v90q0 15 12 27t27 12h422q15 0 27 -12t12 -27v-1970q0 -15 -12 -27t-27 -12h-422q-15 0 -27 12t-12 27v90q0 15 12 25.5t27 10.5z" />
    <glyph glyph-name="asciicircum" unicode="^" horiz-adv-x="1073" 
d="M115 801q-25 0 -35 18.5t2 38.5l420 584q5 8 15.5 14t19.5 6h10q9 0 19.5 -6t15.5 -14l407 -584q12 -20 2 -38.5t-35 -18.5h-104q-20 0 -35 20l-278 389l-283 -389q-12 -20 -37 -20h-104z" />
    <glyph glyph-name="underscore" unicode="_" horiz-adv-x="817" 
d="M43 -59q0 17 11 28t28 11h653q17 0 28 -11t11 -28v-58q0 -15 -11 -26t-28 -11h-653q-17 0 -28 11t-11 26v58z" />
    <glyph glyph-name="grave" unicode="`" horiz-adv-x="618" 
d="M481 1112l-344 148q-12 6 -15.5 20t3.5 29l47 90q7 12 26 12.5t27 -6.5l322 -186q10 -5 13.5 -16t-1.5 -23l-29 -60q-13 -26 -49 -8z" />
    <glyph glyph-name="a" unicode="a" horiz-adv-x="866" 
d="M74 254q0 116 87 190t240 74q38 0 78.5 -6t62.5 -12l21 -6q2 100 -24.5 140t-102.5 40q-96 0 -229 -37q-34 -8 -45 33l-17 75q-8 36 27 48q14 6 45.5 15t100.5 20.5t137 11.5q55 0 98 -10t73 -26t51.5 -43.5t33.5 -55.5t19 -68.5t9 -76.5t2 -85v-436q0 -15 -12 -27
t-27 -12h-57q-23 0 -35 29l-20 55q-109 -104 -252 -104q-117 0 -190.5 74t-73.5 200zM252 256q0 -57 34.5 -94t90.5 -37t109 33t75 69v131q-15 10 -55 21.5t-88 11.5q-74 0 -120 -36.5t-46 -98.5z" />
    <glyph glyph-name="b" unicode="b" 
d="M133 39v1356q0 15 12 27t27 12h119q15 0 27 -12t12 -27v-600l23 9q23 9 43.5 16t57 13.5t72.5 6.5q170 0 287 -125t117 -305q0 -178 -110.5 -304t-272.5 -126q-45 0 -88.5 11.5t-73.5 28.5t-53 34t-34 28l-11 12l-17 -59q-10 -35 -37 -35h-61q-15 0 -27 12t-12 27z
M328 279q6 -13 18 -29.5t35 -39.5t60.5 -38.5t80.5 -15.5q96 0 156.5 74t60.5 180t-66 179t-167 73q-47 0 -91.5 -12t-65.5 -24l-21 -12v-335z" />
    <glyph glyph-name="c" unicode="c" horiz-adv-x="888" 
d="M72 408q0 118 60 218t159 157t211 57q179 0 297 -146q10 -14 8 -30t-16 -27l-68 -62q-5 -5 -9.5 -8t-9.5 -3h-8t-8 3.5t-6.5 4.5t-7 6t-6.5 6q-70 78 -164 78q-99 0 -168.5 -73.5t-69.5 -178.5q0 -106 68.5 -180t167.5 -74q22 0 40.5 2.5t36 10t27.5 11t26.5 17
t20.5 16.5t21 20l18 17q27 27 56 4l55 -45q35 -28 14 -57q-51 -80 -132.5 -126t-184.5 -46q-114 0 -212 55t-157 154t-59 219z" />
    <glyph glyph-name="d" unicode="d" 
d="M74 410q0 180 116.5 305t286.5 125q29 0 58 -4t52 -10.5t39.5 -12t31 -11.5t16.5 -7v600q0 15 12 27t27 12h118q15 0 27 -12t12 -27v-1356q0 -15 -12 -27t-27 -12h-61q-26 0 -37 35l-16 59q-4 -5 -11.5 -12.5t-33 -27t-54 -34.5t-72.5 -27.5t-89 -12.5q-162 0 -272.5 126
t-110.5 304zM264 410q0 -106 60.5 -180t156.5 -74q43 0 80.5 15.5t61 38t36 39.5t17.5 30v333q-8 6 -23 14t-61.5 22t-93.5 14q-101 0 -167.5 -73t-66.5 -179z" />
    <glyph glyph-name="e" unicode="e" horiz-adv-x="923" 
d="M74 410q0 178 114.5 304t294.5 126q161 0 269 -108t108 -271q0 -27 -4 -55q-1 -15 -12 -25t-25 -10h-557q5 -87 72 -153t164 -66q92 0 182 59q16 9 23 12t15.5 1.5t16.5 -11.5l58 -78q25 -29 -5 -53q-50 -43 -129 -72.5t-174 -29.5q-182 0 -296.5 124.5t-114.5 305.5z
M272 500h398q-5 74 -60 128t-129 54q-82 0 -141 -52t-68 -130z" />
    <glyph glyph-name="f" unicode="f" horiz-adv-x="686" 
d="M197 39v610h-97q-17 0 -28 11.5t-11 27.5v92q0 17 11 28t28 11h97v254q0 184 97 282.5t251 98.5q75 0 136.5 -25.5t96.5 -56.5q23 -20 8 -47l-51 -92q-7 -13 -21.5 -15t-29.5 9q-74 49 -135 49q-70 0 -112 -51.5t-42 -151.5v-254h221q17 0 28 -11t11 -28v-92
q0 -16 -11 -27.5t-28 -11.5h-221v-610q0 -15 -12 -27t-27 -12h-120q-15 0 -27 12t-12 27z" />
    <glyph glyph-name="g" unicode="g" horiz-adv-x="942" 
d="M51 49q0 44 15 84.5t36.5 66.5t43 45.5t36.5 28.5l15 9q-7 8 -17.5 24t-28.5 67.5t-18 106.5q0 147 99.5 253t252.5 106h359q17 0 28 -11t11 -28v-51q0 -11 -6.5 -22.5t-16.5 -12.5l-112 -31q4 -3 9.5 -8t21 -24.5t27 -42.5t21 -62t9.5 -82q0 -136 -97.5 -235t-251.5 -99
q-46 0 -86.5 8.5t-64 16.5t-27.5 8q-18 0 -51 -29t-33 -72q0 -36 27 -59.5t72 -23.5h278q139 0 230.5 -73t91.5 -202q0 -141 -120 -240.5t-317 -99.5q-104 0 -184.5 25t-127 66t-70 89.5t-23.5 100.5q0 119 121 192v6q-20 6 -42.5 19t-49 36t-43.5 62.5t-17 87.5zM489 289
q77 0 125 52.5t48 135.5t-48.5 136t-124.5 53q-78 0 -129 -53t-51 -136t51 -135.5t129 -52.5zM272 -322q0 -63 60 -104t153 -41q97 0 165.5 45t68.5 117q0 16 -6 33t-20.5 37.5t-47.5 33.5t-80 13q-106 0 -180 -5q-12 -4 -24 -10t-36 -21t-38.5 -40.5t-14.5 -57.5z" />
    <glyph glyph-name="h" unicode="h" horiz-adv-x="1040" 
d="M133 39v1356q0 15 12 27t27 12h119q15 0 27 -12t12 -27v-643q126 88 245 88q167 0 255 -107t88 -282v-412q0 -15 -12 -27t-27 -12h-115q-17 0 -28 11.5t-11 27.5v416q0 99 -46.5 153t-127.5 54q-83 0 -147 -47t-74 -83v-493q0 -39 -41 -39h-117q-15 0 -27 12t-12 27z" />
    <glyph glyph-name="i" unicode="i" horiz-adv-x="460" 
d="M227 1153q-49 0 -82.5 34.5t-33.5 84.5q0 51 33.5 86t82.5 35q51 0 86 -35t35 -86q0 -50 -35 -84.5t-86 -34.5zM133 39v741q0 15 12 27t27 12h117q15 0 27 -12t12 -27v-741q0 -15 -12 -27t-27 -12h-117q-15 0 -27 12t-12 27z" />
    <glyph glyph-name="j" unicode="j" horiz-adv-x="462" 
d="M229 1153q-49 0 -82.5 34.5t-33.5 84.5q0 51 33.5 86t82.5 35q51 0 86 -35t35 -86q0 -50 -35 -84.5t-86 -34.5zM133 -254v1034q0 17 11.5 28t27.5 11h119q16 0 27.5 -11t11.5 -28v-1034q0 -184 -97 -282.5t-251 -98.5q-76 0 -138.5 25t-95.5 57q-10 7 -12 22t4 25l51 92
q15 27 51 6q76 -51 135 -51q72 0 114 52t42 153z" />
    <glyph glyph-name="k" unicode="k" horiz-adv-x="956" 
d="M133 39v1356q0 15 12 27t27 12h119q15 0 27 -12t12 -27v-887l319 287q28 24 51 24h144q25 0 31 -21.5t-9 -33.5l-340 -309l402 -402q15 -13 8.5 -33t-31.5 -20h-168q-25 0 -37 16l-370 381v-358q0 -15 -12 -27t-27 -12h-119q-15 0 -27 12t-12 27z" />
    <glyph glyph-name="l" unicode="l" horiz-adv-x="460" 
d="M133 39v1356q0 15 12 27t27 12h117q15 0 27 -12t12 -27v-1356q0 -15 -12 -27t-27 -12h-117q-15 0 -27 12t-12 27z" />
    <glyph glyph-name="m" unicode="m" horiz-adv-x="1579" 
d="M133 39v741q0 15 12 27t27 12h57q25 0 35 -24l23 -70q115 115 270 115q172 0 264 -131q14 14 35.5 31t61.5 42t93 41.5t107 16.5q91 0 158 -30.5t105.5 -85t56.5 -122.5t18 -151v-412q0 -16 -11 -27.5t-28 -11.5h-114q-17 0 -28 11.5t-11 27.5v420q0 97 -43.5 150
t-126.5 53q-30 0 -58.5 -7t-48.5 -16.5t-40 -23t-30.5 -23t-21.5 -20t-12 -11.5q6 -27 6 -98v-424q0 -15 -12 -27t-27 -12h-109q-17 0 -28 11.5t-11 27.5v420q0 99 -44 151t-130 52q-43 0 -81.5 -15t-62.5 -37t-38.5 -40t-19.5 -31v-500q0 -15 -12 -27t-27 -12h-115
q-15 0 -27 12t-12 27z" />
    <glyph glyph-name="n" unicode="n" horiz-adv-x="1040" 
d="M133 39v741q0 15 12 27t27 12h59q26 0 33 -24l25 -70q9 10 29 25.5t56.5 37.5t90 37t110.5 15q91 0 158.5 -30.5t107 -85t58.5 -122.5t19 -151v-412q0 -15 -12 -27t-27 -12h-117q-17 0 -28 11.5t-11 27.5v420q0 97 -45 150t-125 53q-85 0 -150.5 -45t-76.5 -78v-500
q0 -21 -10.5 -30t-36.5 -9h-107q-15 0 -27 12t-12 27z" />
    <glyph glyph-name="o" unicode="o" horiz-adv-x="970" 
d="M72 412q0 174 121 301t292 127t292.5 -127t121.5 -301q0 -178 -121.5 -305t-292.5 -127t-292 127t-121 305zM254 412q0 -106 67.5 -181t163.5 -75q97 0 164.5 75t67.5 181q0 103 -68 176.5t-164 73.5t-163.5 -73.5t-67.5 -176.5z" />
    <glyph glyph-name="p" unicode="p" 
d="M330 35v-610q0 -39 -43 -39h-115q-15 0 -27 12t-12 27v1355q0 15 12 27t27 12h61q23 0 35 -26l21 -54q101 101 250 101q167 0 279 -126.5t112 -305.5q0 -180 -116.5 -304t-283.5 -124q-104 0 -200 55zM326 215q8 -7 23 -16.5t62 -26t95 -16.5q100 0 166.5 73.5
t66.5 178.5q0 106 -62 180t-163 74q-77 0 -127 -43t-61 -76v-328z" />
    <glyph glyph-name="q" unicode="q" 
d="M74 408q0 179 112 305.5t279 126.5q149 0 250 -101l20 52q11 28 39 28h57q15 0 27 -12t12 -27v-1355q0 -15 -12 -27t-27 -12h-116q-18 0 -29.5 10.5t-11.5 28.5v612q-1 0 -15.5 -8t-31.5 -15t-41 -15.5t-53.5 -13.5t-59.5 -5q-167 0 -283 124t-116 304zM262 408
q0 -105 67 -178.5t167 -73.5q48 0 93 14t66 28l21 15v322q-6 18 -25.5 44.5t-64.5 54.5t-99 28q-101 0 -163 -74t-62 -180z" />
    <glyph glyph-name="r" unicode="r" horiz-adv-x="688" 
d="M133 39v741q0 15 12 27t27 12h59q11 0 21.5 -8t13.5 -20l23 -70q9 13 23.5 28t44 38t74.5 38t97 15q43 0 79.5 -7t59 -25t11.5 -44l-49 -100q-15 -34 -49 -19q-28 14 -70 14q-41 0 -76.5 -13t-58 -32.5t-33.5 -32t-16 -22.5v-520q0 -24 -13.5 -31.5t-42.5 -7.5h-98
q-15 0 -27 12t-12 27z" />
    <glyph glyph-name="s" unicode="s" horiz-adv-x="733" 
d="M96 63q-10 6 -13.5 18.5t1.5 24.5l43 80q6 12 21 16t30 -5q10 -6 28 -15t68.5 -24t94.5 -15q46 0 73 18.5t27 51.5q0 39 -33.5 65.5t-124.5 67.5q-108 47 -170.5 110.5t-62.5 157.5q0 87 72 156.5t208 69.5q145 0 242 -64q14 -9 19 -26.5t-3 -32.5l-36 -70
q-7 -13 -24.5 -17.5t-29.5 1.5q-90 43 -168 43q-48 0 -70 -17.5t-22 -44.5q0 -19 8 -34t29 -28.5t38 -22t56 -25.5q54 -24 87 -40.5t72.5 -43t61.5 -53t37 -64t15 -82.5q0 -98 -85 -168.5t-218 -70.5q-169 0 -271 83z" />
    <glyph glyph-name="t" unicode="t" horiz-adv-x="708" 
d="M186 223v426h-86q-17 0 -28 11.5t-11 27.5v92q0 17 11 28t28 11h86v228q0 15 12 26.5t27 11.5l117 2q15 0 26 -11.5t11 -26.5v-230h209q17 0 28 -11t11 -28v-92q0 -16 -11 -27.5t-28 -11.5h-209v-405q0 -49 16 -65.5t49 -16.5q48 0 125 37q32 14 47 -19l37 -90
q14 -33 -18 -49q-25 -15 -100.5 -38t-139.5 -23q-115 0 -162 62.5t-47 180.5z" />
    <glyph glyph-name="u" unicode="u" horiz-adv-x="1009" 
d="M121 367v413q0 15 12 27t27 12h116q15 0 27 -12t12 -27v-420q0 -99 44.5 -151.5t123.5 -52.5q80 0 138.5 48.5t64.5 86.5v489q0 23 10.5 31t34.5 8h107q15 0 27 -12t12 -27v-741q0 -15 -12 -27t-27 -12h-58q-26 0 -37 33l-20 59l-10 -9q-10 -9 -17 -15.5t-22.5 -18
t-30 -20t-36.5 -18.5t-44.5 -16t-51 -10.5t-58.5 -4.5q-89 0 -155 30t-103.5 84t-55.5 122t-18 151z" />
    <glyph glyph-name="v" unicode="v" horiz-adv-x="849" 
d="M385 0l-362 772q-9 20 -1 33.5t31 13.5h121q26 0 37 -22l213 -484h2l221 484q5 11 15 16t17 5.5t23 0.5h95q23 0 31 -13.5t-1 -33.5l-362 -772q-8 -20 -35 -20h-10q-27 0 -35 20z" />
    <glyph glyph-name="w" unicode="w" horiz-adv-x="1255" 
d="M299 0l-244 772q-9 20 -1 33.5t30 13.5h111q11 0 22 -7t14 -17l138 -453h2l219 477q3 8 13.5 14.5t21.5 6.5h12q27 0 35 -21l217 -479h2l135 455q5 12 17.5 17.5t21 6t25.5 0.5h79q22 0 31 -13.5t0 -33.5l-239 -772q-7 -20 -37 -20h-9q-27 0 -34 18l-252 547h-2
l-250 -547q-7 -18 -33 -18h-10q-28 0 -35 20z" />
    <glyph glyph-name="x" unicode="x" horiz-adv-x="880" 
d="M59 53l267 365l-258 346q-15 20 -7 37.5t31 17.5h133q33 0 49 -22l164 -236h2l168 236q16 22 47 22h136q26 0 32.5 -16.5t-8.5 -36.5l-258 -346l260 -367q14 -20 7 -36.5t-31 -16.5h-129q-25 0 -43 25l-181 254h-2l-184 -263q-12 -16 -33 -16h-137q-26 0 -32.5 16.5
t7.5 36.5z" />
    <glyph glyph-name="y" unicode="y" horiz-adv-x="948" 
d="M379 29l-356 737q-9 21 1 37t33 16h136q23 0 34 -22l254 -545h2l246 545q10 22 43 22h117q25 0 35.5 -16.5t-0.5 -36.5l-627 -1356q-12 -24 -35 -24h-123q-23 0 -34 16.5t-1 38.5z" />
    <glyph glyph-name="z" unicode="z" horiz-adv-x="745" 
d="M66 39v20l348 584v2h-291q-15 0 -26 12t-11 27v96q0 17 11 28t26 11h528q24 0 35.5 -17.5t-0.5 -37.5l-346 -590v-2h270q17 0 28 -11t11 -28v-94q0 -16 -11 -27.5t-28 -11.5h-506q-15 0 -26.5 12t-11.5 27z" />
    <glyph glyph-name="braceleft" unicode="{" horiz-adv-x="806" 
d="M215 -111v291q0 62 -47 102t-94 48q-12 1 -21.5 13t-9.5 24v82q0 11 8.5 20t20.5 12q37 4 90 47.5t53 102.5v295q0 118 32.5 212t83.5 150.5t120 94.5t134 53t134 16q18 2 29.5 -7.5t11.5 -27.5l4 -84q1 -12 -7.5 -23.5t-19.5 -13.5q-142 -25 -233.5 -120.5t-91.5 -249.5
v-244q0 -66 -19.5 -119t-50 -83.5t-53 -45.5t-43.5 -24v-7q22 -10 39.5 -19.5t43 -32t42 -49t29 -70.5t12.5 -97v-246q0 -154 91.5 -248.5t233.5 -119.5q11 -2 19.5 -12.5t7.5 -24.5l-4 -84q0 -15 -13 -26t-28 -9q-69 1 -134 16t-134 52.5t-120 94t-83.5 150t-32.5 211.5z
" />
    <glyph glyph-name="bar" unicode="|" horiz-adv-x="387" 
d="M145 -578v2096q0 17 11.5 27.5t27.5 10.5h21q15 0 26 -10.5t11 -27.5v-2096q0 -15 -12 -25.5t-27 -10.5h-19q-15 0 -27 10.5t-12 25.5z" />
    <glyph glyph-name="braceright" unicode="}" horiz-adv-x="806" 
d="M395 -111v246q0 53 12.5 97t29 70.5t42 49t43 32t39.5 19.5v7q-21 9 -43.5 24t-53 45.5t-50 83.5t-19.5 119v244q0 154 -91.5 249.5t-233.5 120.5q-11 2 -19.5 13.5t-7.5 23.5l4 84q0 18 11.5 27.5t29.5 7.5q69 -1 134 -16t134 -53t120 -94.5t83.5 -150.5t32.5 -212v-295
q0 -59 53 -102.5t90 -47.5q12 -3 20.5 -12t8.5 -20v-82q0 -12 -9.5 -24t-21.5 -13q-47 -8 -94 -48t-47 -102v-291q0 -118 -32.5 -211.5t-83.5 -150t-120 -94t-134 -52.5t-134 -16q-15 -2 -28 9t-13 26l-4 84q-1 14 7.5 24.5t19.5 12.5q142 25 233.5 119.5t91.5 248.5z" />
    <glyph glyph-name="asciitilde" unicode="~" horiz-adv-x="1114" 
d="M162 434q-13 12 -35.5 30.5t-34.5 29.5q-23 27 -4 49q5 8 15 21t41 47t63 60t79.5 47t92.5 21q42 0 86 -16.5t63.5 -29t63.5 -42.5q94 -67 149 -67q29 0 55 11.5t48 33t33 35.5t26 36q12 15 28 17t30 -10l65 -60q11 -9 12 -23.5t-8 -25.5q-5 -8 -14.5 -21t-40.5 -46.5
t-62.5 -59.5t-79 -47t-92.5 -21q-17 0 -34.5 2.5t-30 5t-31 10.5t-26.5 11t-27.5 15t-23 14t-24.5 17l-22 14q-3 2 -17 12t-19 13t-18 11.5t-21.5 12t-20.5 8t-23.5 6.5t-23.5 2q-85 0 -162 -117q-10 -15 -26.5 -16.5t-28.5 10.5z" />
    <glyph glyph-name="uni00A0" unicode="&#xa0;" horiz-adv-x="450" 
 />
    <glyph glyph-name="exclamdown" unicode="&#xa1;" horiz-adv-x="468" 
d="M236 555q-60 0 -102 41.5t-42 101.5q0 59 42 100.5t102 41.5q57 0 99 -42t42 -100q0 -60 -41.5 -101.5t-99.5 -41.5zM172 229q2 12 14 22.5t25 10.5h45q13 0 25 -10.5t14 -22.5l59 -571v-233q0 -15 -12 -27t-27 -12h-163q-15 0 -27 12t-12 27v229z" />
    <glyph glyph-name="cent" unicode="&#xa2;" horiz-adv-x="858" 
d="M311 12q-118 47 -191 153.5t-73 242.5q0 118 60 218t159 157t211 57q22 0 58 -4l22 84q5 15 18.5 22.5t28.5 3.5l21 -6q15 -3 22.5 -16.5t3.5 -30.5l-22 -84q78 -35 145 -115q10 -14 8 -30t-16 -27l-68 -62q-5 -5 -9.5 -8t-9.5 -3h-8t-8 3.5t-6.5 4.5t-7 6t-6.5 6
q-26 29 -63 47l-127 -473h24q15 0 29.5 1.5t26 3.5t24 7t20.5 8.5t19 10.5t16 10.5t15.5 12.5t14 12.5t14 13.5t12.5 12q26 26 55 4l55 -45q35 -28 15 -57q-51 -80 -133 -126t-185 -46q-35 0 -69 6l-54 -199q-3 -15 -17.5 -22.5t-29.5 -4.5l-18 7q-15 3 -23.5 16.5
t-5.5 28.5zM360 188l125 469h-6q-100 0 -168.5 -71.5t-68.5 -175.5q0 -71 31.5 -130t86.5 -92z" />
    <glyph glyph-name="sterling" unicode="&#xa3;" horiz-adv-x="1011" 
d="M152 39v37q129 245 77 522h-90q-15 0 -26 12t-11 27v20q0 15 11 27t26 12h66q-3 14 -22 80t-30.5 128t-11.5 122q0 195 122.5 311.5t307.5 116.5q183 0 347 -145q12 -9 13 -25.5t-9 -28.5l-72 -88q-26 -35 -57 -4q-5 4 -13 11.5t-33 26t-50.5 32.5t-60.5 25.5t-67 11.5
q-97 0 -163 -66.5t-66 -173.5q0 -57 15 -121.5t34.5 -126t24.5 -86.5h286q17 0 28 -11.5t11 -27.5v-22q0 -15 -11 -26t-28 -11h-266q15 -69 6.5 -198.5t-43.5 -221.5h457q15 0 26 -11t11 -28v-100q0 -15 -11 -27t-26 -12h-664q-15 0 -26.5 12t-11.5 27z" />
    <glyph glyph-name="currency" unicode="&#xa4;" horiz-adv-x="950" 
d="M201 344l-62 62q-11 10 -11 27t11 28l92 90q-32 62 -32 129t32 127l-90 92q-11 11 -11 28t11 27l62 60q11 10 28 10t27 -10l90 -90q59 33 127 33t129 -33l90 92q11 10 27.5 9.5t28.5 -11.5l59 -62q11 -11 11.5 -26.5t-9.5 -26.5l-90 -90q32 -60 32 -129.5t-32 -130.5
l90 -90q11 -11 11 -27t-11 -26l-61 -62q-11 -11 -27 -11.5t-27 9.5l-92 92q-60 -32 -129 -32t-129 34l-90 -92q-10 -10 -27 -10t-28 10zM477 551q54 0 91.5 37.5t37.5 91.5t-37.5 91.5t-91.5 37.5t-91.5 -37.5t-37.5 -91.5t37.5 -91.5t91.5 -37.5z" />
    <glyph glyph-name="yen" unicode="&#xa5;" horiz-adv-x="1277" 
d="M283 248q-15 0 -26 12t-11 27v20q0 15 11 27t26 12h247v148h-247q-15 0 -26 11.5t-11 26.5v21q0 15 11 27t26 12h247v98l-481 684q-12 20 -1.5 40t34.5 20h154q18 0 32 -19l371 -522l371 522q14 19 32 19h154q24 0 34.5 -20t-1.5 -40l-488 -682v-100h244q17 0 28 -11.5
t11 -27.5v-23q0 -15 -11 -25.5t-28 -10.5h-244v-148h244q17 0 28 -11.5t11 -27.5v-22q0 -15 -11 -26t-28 -11h-244v-209q0 -15 -12 -27t-27 -12h-133q-17 0 -28 11.5t-11 27.5v209h-247z" />
    <glyph glyph-name="brokenbar" unicode="&#xa6;" horiz-adv-x="681" 
d="M332 803q-15 0 -27 11t-12 26v678q0 17 11.5 27.5t27.5 10.5h20q15 0 26 -10.5t11 -27.5v-678q0 -15 -12 -26t-27 -11h-18zM293 100q0 17 11.5 28t27.5 11h20q15 0 26 -11t11 -28v-678q0 -15 -12 -25.5t-27 -10.5h-18q-15 0 -27 10.5t-12 25.5v678z" />
    <glyph glyph-name="section" unicode="&#xa7;" horiz-adv-x="1060" 
d="M139 -203q30 43 68 10l13 -10q12 -10 28.5 -21t40 -26t50.5 -28.5t57 -25.5t64 -19t66 -7q85 0 151.5 42.5t72.5 117.5q6 91 -67.5 159.5t-233.5 135.5q-169 71 -267 169t-98 238q0 28 6 55t14 48t21.5 43.5t24 36.5t27.5 31.5t25 24.5t23 19l15 13q-1 1 -12.5 11
t-18.5 17t-21 21.5t-24 28t-23.5 32t-22.5 38.5t-17.5 43t-12.5 49t-4 53q0 49 15.5 98t50 96t84.5 83.5t124.5 58.5t163.5 22q70 0 138.5 -16t117.5 -39t75.5 -38.5t39.5 -25.5q13 -8 19 -24t-5 -41l-57 -84q-24 -38 -68 -10l-10 6q-10 7 -18.5 11.5t-23.5 13t-29 15.5
t-32.5 15t-36.5 14t-37.5 11.5t-39.5 8.5t-39 3q-112 0 -170.5 -52t-58.5 -116q0 -74 63.5 -132.5t190.5 -109.5q80 -33 136.5 -60t117 -66t97 -80t60 -96.5t23.5 -119.5q0 -27 -6 -55t-14.5 -49.5t-23.5 -45t-26 -39t-28.5 -34t-25.5 -26.5t-23 -21l-15 -14
q162 -138 162 -305q0 -155 -129.5 -260t-317.5 -105q-69 0 -136 14.5t-112.5 33t-87.5 44t-61 40.5t-33 28q-12 11 -17.5 18t-5.5 21t13 30zM283 545q0 -30 7.5 -55.5t28 -48.5t39 -39t58 -37.5t65.5 -34.5t82 -38.5t88 -41.5q4 2 11.5 6.5t26 21t32.5 35.5t25.5 51t11.5 68
q0 42 -19 76t-64.5 65.5t-96.5 57t-138 61.5q-30 13 -59 23l-9 -7q-9 -6 -19 -14t-23 -23t-23 -32t-17 -42t-7 -52z" />
    <glyph glyph-name="dieresis" unicode="&#xa8;" horiz-adv-x="847" 
d="M647 1161q-47 0 -81 34t-34 81q0 49 33.5 83t81.5 34q49 0 83 -33.5t34 -83.5q0 -48 -34 -81.5t-83 -33.5zM244 1161q-47 0 -81 34t-34 81q0 49 33.5 83t81.5 34q49 0 82.5 -33.5t33.5 -83.5q0 -48 -33.5 -81.5t-82.5 -33.5z" />
    <glyph glyph-name="copyright" unicode="&#xa9;" horiz-adv-x="1662" 
d="M96 717q0 200 98.5 369.5t267.5 268.5t369 99q150 0 286.5 -58.5t235.5 -157.5t157.5 -235t58.5 -286q0 -120 -37.5 -232t-106 -202.5t-159 -158.5t-203 -105t-232.5 -37q-200 0 -369 98.5t-267.5 267.5t-98.5 369zM238 717q0 -121 47 -231t126 -189.5t189 -126.5
t231 -47q162 0 299 79.5t216 216.5t79 298q0 122 -47 232t-126 189t-189 126t-232 47q-161 0 -297.5 -79t-216 -216t-79.5 -299zM467 713q0 161 112 273t271 112q135 0 235 -78q14 -12 15.5 -28.5t-10.5 -30.5l-54 -58q-18 -26 -53 -4q-58 41 -131 41q-92 0 -153.5 -65
t-61.5 -156q0 -94 61 -157.5t154 -63.5q71 0 127 39q35 21 55 -5l58 -59q11 -12 10.5 -28.5t-12.5 -28.5q-102 -86 -240 -86q-158 0 -270.5 112.5t-112.5 270.5z" />
    <glyph glyph-name="ordfeminine" unicode="&#xaa;" horiz-adv-x="636" 
d="M250 821q-84 0 -138.5 56t-54.5 147q0 86 64 140.5t176 54.5q28 0 57 -4.5t44 -9.5l16 -5q0 76 -17 105.5t-73 29.5q-24 0 -52 -4t-45 -8t-42 -10.5t-29 -7.5q-26 -7 -33 26l-10 51q-6 26 16 35q7 4 33 12t76 16.5t100 8.5q67 0 110.5 -19t64 -58.5t27.5 -82.5t7 -108
v-320q0 -12 -9 -20t-20 -8h-45q-18 0 -27 20q-2 7 -7 21.5t-7 21.5q-25 -23 -42.5 -36.5t-56.5 -28.5t-83 -15zM276 934q42 0 80.5 24t53.5 52v90q-32 24 -109 24q-48 0 -81.5 -28t-33.5 -70q0 -39 25.5 -65.5t64.5 -26.5z" />
    <glyph glyph-name="guillemotleft" unicode="&#xab;" horiz-adv-x="907" 
d="M442 397q-17 23 0 49l224 304q14 24 36 24h72q26 0 34.5 -19t-3.5 -44l-146 -285l140 -301q11 -25 2.5 -43.5t-33.5 -18.5h-82q-18 0 -31 17zM285 80l-213 317q-17 23 0 49l223 304q14 24 37 24h71q26 0 34.5 -19t-3.5 -44l-145 -285l139 -301q11 -25 2.5 -43.5
t-33.5 -18.5h-82q-17 0 -30 17z" />
    <glyph glyph-name="logicalnot" unicode="&#xac;" horiz-adv-x="1046" 
d="M100 629q-15 0 -27 12t-12 27v86q0 15 12 27t27 12h791q16 0 27.5 -12.5t11.5 -26.5v-441q0 -15 -12 -26t-27 -11h-86q-15 0 -27 11t-12 26v316h-666z" />
    <glyph glyph-name="uni00AD" unicode="&#xad;" horiz-adv-x="710" 
d="M133 422q-17 0 -28 11t-11 26v88q0 17 11 28t28 11h442q17 0 28 -11t11 -28v-88q0 -15 -11 -26t-28 -11h-442z" />
    <glyph glyph-name="registered" unicode="&#xae;" horiz-adv-x="1667" 
d="M96 717q0 200 98.5 369.5t267.5 268.5t369 99q150 0 286.5 -58.5t235.5 -157.5t157.5 -235t58.5 -286q0 -120 -37.5 -232t-106 -202.5t-159 -158.5t-203 -105t-232.5 -37q-200 0 -369 98.5t-267.5 267.5t-98.5 369zM238 717q0 -121 47 -231t126 -189.5t189 -126.5
t231 -47q162 0 299 79.5t216 216.5t79 298q0 122 -47 232t-126 189t-189 126t-232 47q-161 0 -297.5 -79t-216 -216t-79.5 -299zM567 383v672q0 16 11 27.5t28 11.5h303q102 0 177 -65.5t75 -176.5q0 -167 -155 -225q6 -12 108 -228q10 -20 -1.5 -37.5t-33.5 -17.5h-92
q-11 0 -21.5 9t-15.5 20l-102 241h-127v-231q0 -16 -11 -27.5t-28 -11.5h-76q-17 0 -28 11.5t-11 27.5zM717 750h182q45 0 73.5 29t28.5 71q0 44 -28 72t-74 28h-182v-200z" />
    <glyph glyph-name="macron" unicode="&#xaf;" horiz-adv-x="847" 
d="M162 1180q-17 0 -28 11t-11 26v57q0 17 11 28t28 11h524q17 0 28 -11t11 -28v-57q0 -15 -11 -26t-28 -11h-524z" />
    <glyph glyph-name="degree" unicode="&#xb0;" horiz-adv-x="655" 
d="M328 901q-116 0 -196.5 80.5t-80.5 196.5q0 115 80.5 195.5t196.5 80.5q114 0 195 -80.5t81 -195.5t-81 -196t-195 -81zM328 1040q51 0 91 42t40 96q0 51 -40 91t-91 40q-54 0 -96 -40t-42 -91q0 -54 42 -96t96 -42z" />
    <glyph glyph-name="plusminus" unicode="&#xb1;" horiz-adv-x="1175" 
d="M506 539v225h-313q-15 0 -27 12t-12 27v86q0 15 12 27t27 12h313v303q0 15 12 26t27 11h86q15 0 27 -11t12 -26v-303h315q15 0 26 -12t11 -27v-86q0 -15 -11 -27t-26 -12h-315v-225q0 -15 -12 -26t-27 -11h-86q-15 0 -27 11t-12 26zM154 145v86q0 15 12 27t27 12h792
q15 0 26 -12t11 -27v-86q0 -15 -11 -27t-26 -12h-792q-15 0 -27 12t-12 27z" />
    <glyph glyph-name="twosuperior" unicode="&#xb2;" horiz-adv-x="598" 
d="M94 1032q-20 0 -20 19v30l241 267q60 63 60 108q0 34 -26.5 59t-74.5 25q-57 0 -108 -51q-14 -13 -29 2l-43 53q-14 22 4 33q5 5 12 11t27 20t40.5 24t52 18.5t63.5 8.5q102 0 160.5 -52t58.5 -134q0 -83 -88 -181l-137 -149h205q18 0 18 -21v-71q0 -19 -18 -19h-398z
" />
    <glyph glyph-name="threesuperior" unicode="&#xb3;" horiz-adv-x="571" 
d="M270 1012q-127 0 -202 75q-16 13 0 29l43 51q13 13 30 0l5 -4q6 -4 13.5 -8.5t19 -10t23 -10t27 -7.5t29.5 -3q44 0 74 21.5t30 56.5q0 36 -31 60t-91 24h-62q-26 0 -26 23v57q0 25 26 25h62q52 0 80 20.5t28 54.5t-27.5 56t-66.5 22q-52 0 -98 -41q-15 -12 -29 2l-45 49
q-6 6 -6 15.5t8 15.5q8 8 23 20.5t63.5 33t99.5 20.5q95 0 156 -46.5t61 -123.5q0 -50 -32 -89t-72 -54v-5q46 -18 84.5 -57.5t38.5 -95.5q0 -79 -66.5 -127.5t-169.5 -48.5z" />
    <glyph glyph-name="acute" unicode="&#xb4;" horiz-adv-x="618" 
d="M199 1112q-36 -18 -49 8l-29 60q-5 12 -1.5 23t13.5 16l322 186q8 7 27 6.5t26 -12.5l47 -90q7 -15 3.5 -29t-15.5 -20z" />
    <glyph glyph-name="mu" unicode="&#xb5;" horiz-adv-x="1050" 
d="M330 2v-577q0 -15 -12 -27t-27 -12h-115q-15 0 -27 12t-12 27v1355q0 15 12 27t27 12h117q15 0 27 -12t12 -27v-411q0 -99 44.5 -152t123.5 -53q80 0 138 48.5t64 86.5v481q0 23 11 31t35 8h106q15 0 27 -12t12 -27v-741q0 -15 -12 -27t-27 -12h-57q-26 0 -37 33l-21 59
l-10 -9q-10 -9 -17 -15.5t-22.5 -18t-30 -20t-36.5 -18.5t-44.5 -16t-51 -10.5t-58.5 -4.5q-78 0 -139 22z" />
    <glyph glyph-name="paragraph" unicode="&#xb6;" horiz-adv-x="1431" 
d="M469 575q-175 0 -300.5 125.5t-125.5 305.5q0 176 115.5 302t281.5 126l920 -2q15 0 27 -12t12 -27v-68q0 -17 -11.5 -28t-27.5 -11h-193v-1861q0 -16 -11 -27.5t-28 -11.5h-77q-15 0 -27 12t-12 27v1861h-299v-1861q0 -15 -12 -27t-27 -12h-76q-15 0 -27 12t-12 27v1150
h-90z" />
    <glyph glyph-name="periodcentered" unicode="&#xb7;" horiz-adv-x="485" 
d="M242 502q-61 0 -105.5 44.5t-44.5 104.5q0 64 44 109t106 45q63 0 107 -45t44 -109q0 -61 -44.5 -105t-106.5 -44z" />
    <glyph glyph-name="cedilla" unicode="&#xb8;" horiz-adv-x="505" 
d="M111 0h122v-109q95 -12 151 -67.5t56 -142.5q0 -89 -62 -151t-153 -62q-45 0 -86.5 19.5t-68.5 51.5q-12 14 -11 29t13 26l34 29q10 8 24.5 7.5t21.5 -9.5q27 -31 73 -31q35 0 57.5 25t22.5 61q0 97 -160 115q-34 7 -34 39v170z" />
    <glyph glyph-name="onesuperior" unicode="&#xb9;" horiz-adv-x="395" 
d="M176 1032q-9 0 -14.5 5.5t-5.5 13.5v411l-93 -14q-18 -4 -18 12l-8 49q0 13 10 23l148 106h81q8 0 13.5 -5.5t5.5 -12.5v-569q0 -7 -5.5 -13t-13.5 -6h-100z" />
    <glyph glyph-name="ordmasculine" unicode="&#xba;" horiz-adv-x="643" 
d="M322 809q-124 0 -191.5 84.5t-67.5 236.5q0 153 67.5 238.5t191.5 85.5t191 -85.5t67 -238.5q0 -152 -67 -236.5t-191 -84.5zM322 934q54 0 84 50.5t30 145.5t-30 147t-84 52t-83.5 -52t-29.5 -147t29.5 -145.5t83.5 -50.5z" />
    <glyph glyph-name="guillemotright" unicode="&#xbb;" horiz-adv-x="907" 
d="M477 125l139 301l-145 285q-12 25 -3.5 44t34.5 19h71q23 0 37 -24l224 -304q17 -26 0 -49l-213 -317q-13 -17 -31 -17h-82q-25 0 -33.5 18.5t2.5 43.5zM137 63q-25 0 -33.5 18.5t2.5 43.5l140 301l-146 285q-12 25 -3.5 44t34.5 19h72q23 0 37 -24l223 -304
q17 -26 0 -49l-213 -317q-13 -17 -31 -17h-82z" />
    <glyph glyph-name="onequarter" unicode="&#xbc;" horiz-adv-x="1327" 
d="M180 55l703 1358q14 21 35 21h67q23 0 34.5 -18t0.5 -38l-707 -1358q-3 -6 -15 -13t-19 -7h-64q-23 0 -34 17.5t-1 37.5zM197 827q-9 0 -15 5.5t-6 13.5v411l-92 -14q-18 -4 -18 12l-9 50q0 11 11 22l147 107h82q7 0 12.5 -5.5t5.5 -13.5v-569q0 -8 -5.5 -13.5
t-12.5 -5.5h-100zM682 135v82l342 383q6 6 16 6h64q8 0 14 -5.5t6 -12.5v-365h82q7 0 13 -5t6 -11v-70q0 -7 -5.5 -12.5t-13.5 -5.5h-82v-101q0 -7 -6 -12.5t-14 -5.5h-90q-8 0 -14.5 5.5t-6.5 12.5v101h-293q-7 0 -12.5 5t-5.5 11zM813 223h184v207z" />
    <glyph glyph-name="onehalf" unicode="&#xbd;" horiz-adv-x="1316" 
d="M180 55l703 1358q14 21 35 21h67q23 0 34.5 -18t0.5 -38l-707 -1358q-3 -6 -15 -13t-19 -7h-64q-23 0 -34 17.5t-1 37.5zM197 827q-9 0 -15 5.5t-6 13.5v411l-92 -14q-18 -4 -18 12l-9 50q0 11 11 22l147 107h82q7 0 12.5 -5.5t5.5 -13.5v-569q0 -8 -5.5 -13.5
t-12.5 -5.5h-100zM754 18v31l241 266q60 63 60 109q0 34 -26.5 59t-74.5 25q-57 0 -108 -51q-14 -13 -29 2l-43 53q-14 22 4 33q5 5 12 11t27 20t40.5 24t52 18.5t63.5 8.5q102 0 160.5 -52.5t58.5 -134.5t-88 -180l-137 -149h204q19 0 19 -21v-72q0 -18 -19 -18h-397
q-20 0 -20 18z" />
    <glyph glyph-name="threequarters" unicode="&#xbe;" horiz-adv-x="1411" 
d="M281 807q-127 0 -203 76q-16 12 0 28l43 52q14 14 31 0l6 -4q5 -4 12 -8.5t18.5 -10t23 -10t27 -7.5t29.5 -3q44 0 74.5 21.5t30.5 55.5q0 36 -31.5 60t-91.5 24h-62q-26 0 -26 23v57q0 25 26 25h62q52 0 80 21t28 55t-27.5 55.5t-66.5 21.5q-52 0 -98 -41q-15 -12 -29 2
l-45 50q-6 6 -6 15t8 15q8 8 23 20.5t64 33t100 20.5q95 0 156 -46.5t61 -123.5q0 -50 -32.5 -89t-72.5 -54v-4q45 -17 84 -57.5t39 -96.5q0 -79 -66.5 -127.5t-168.5 -48.5zM264 55l703 1358q14 21 34 21h68q23 0 34.5 -18t0.5 -38l-707 -1358q-3 -6 -15 -13t-20 -7h-63
q-23 0 -34 17.5t-1 37.5zM766 135v82l342 383q6 6 16 6h64q8 0 14 -5.5t6 -12.5v-365h82q7 0 13 -5t6 -11v-70q0 -7 -5.5 -12.5t-13.5 -5.5h-82v-101q0 -7 -6 -12.5t-14 -5.5h-90q-8 0 -14.5 5.5t-6.5 12.5v101h-293q-7 0 -12.5 5t-5.5 11zM897 223h184v207z" />
    <glyph glyph-name="questiondown" unicode="&#xbf;" horiz-adv-x="514" 
d="M274 555q-60 0 -101.5 41.5t-41.5 101.5q0 59 41.5 100.5t101.5 41.5q58 0 100 -42t42 -100q0 -60 -41.5 -101.5t-100.5 -41.5zM174 145v76q0 20 12 30.5t31 10.5h111q16 0 27.5 -11t11.5 -28v-86q0 -45 -16.5 -84t-42.5 -67.5t-57.5 -55t-63.5 -51t-58 -50t-42.5 -59
t-16.5 -71.5q0 -66 49 -112t135 -46q41 0 76.5 8.5t64 25.5t45.5 29.5t39.5 34t26.5 25.5q24 21 49 0l68 -65q24 -21 0 -54q-5 -7 -15.5 -19.5t-47 -43.5t-78 -54.5t-109 -43t-140.5 -19.5q-161 0 -268.5 92.5t-107.5 237.5q0 61 23.5 113t58.5 86.5t76.5 68t76.5 59
t58.5 57.5t23.5 66z" />
    <glyph glyph-name="Agrave" unicode="&#xc0;" horiz-adv-x="1355" 
d="M41 0q-23 0 -33.5 16.5t-1.5 36.5l629 1379q4 9 15.5 15.5t19.5 6.5h20q8 0 19.5 -6.5t15.5 -15.5l625 -1379q9 -20 -1.5 -36.5t-33.5 -16.5h-129q-33 0 -47 31l-127 280h-670q-21 -47 -63 -140t-62 -140q-13 -31 -47 -31h-129zM422 487h512l-252 562h-10zM819 1585
l-344 148q-12 6 -15.5 20t3.5 29l47 90q7 12 26 12.5t27 -6.5l322 -186q10 -5 13.5 -16t-1.5 -23l-29 -58q-11 -26 -49 -10z" />
    <glyph glyph-name="Aacute" unicode="&#xc1;" horiz-adv-x="1355" 
d="M41 0q-23 0 -33.5 16.5t-1.5 36.5l629 1379q4 9 15.5 15.5t19.5 6.5h20q8 0 19.5 -6.5t15.5 -15.5l625 -1379q9 -20 -1.5 -36.5t-33.5 -16.5h-129q-33 0 -47 31l-127 280h-670q-21 -47 -63 -140t-62 -140q-13 -31 -47 -31h-129zM422 487h512l-252 562h-10zM537 1585
q-38 -17 -50 10l-28 58q-5 13 -1 23.5t13 15.5l322 186q8 7 27 6.5t26 -12.5l47 -90q8 -15 4.5 -29t-16.5 -20z" />
    <glyph glyph-name="Acircumflex" unicode="&#xc2;" horiz-adv-x="1355" 
d="M41 0q-23 0 -33.5 16.5t-1.5 36.5l629 1379q4 9 15.5 15.5t19.5 6.5h20q8 0 19.5 -6.5t15.5 -15.5l625 -1379q9 -20 -1.5 -36.5t-33.5 -16.5h-129q-33 0 -47 31l-127 280h-670q-21 -47 -63 -140t-62 -140q-13 -31 -47 -31h-129zM422 487h512l-252 562h-10zM481 1573
q-19 -10 -28.5 -8.5t-18.5 14.5l-41 55q-6 11 -1.5 21.5t14.5 17.5l256 201q9 8 24 8t25 -8l256 -201q10 -7 14 -17.5t-2 -21.5l-41 -55q-10 -13 -18.5 -15t-28.5 9l-205 133z" />
    <glyph glyph-name="Atilde" unicode="&#xc3;" horiz-adv-x="1355" 
d="M41 0q-23 0 -33.5 16.5t-1.5 36.5l629 1379q4 9 15.5 15.5t19.5 6.5h20q8 0 19.5 -6.5t15.5 -15.5l625 -1379q9 -20 -1.5 -36.5t-33.5 -16.5h-129q-33 0 -47 31l-127 280h-670q-21 -47 -63 -140t-62 -140q-13 -31 -47 -31h-129zM422 487h512l-252 562h-10zM432 1622
l-47 31q-26 15 -12 47l16.5 33t26.5 42t40 48.5t51 33t66 15.5q40 0 75.5 -20.5t56.5 -45t46 -45t46 -20.5q16 0 30.5 9.5t21 18.5t18 29t14.5 25q21 35 51 18q5 -4 17 -11t21.5 -14t14.5 -14q11 -17 -6 -55q-10 -22 -23.5 -44t-37 -49t-58 -44t-74.5 -17q-35 0 -69.5 21
t-57 45.5t-48 45.5t-44.5 21q-51 0 -88 -84q-8 -19 -17 -24t-30 4z" />
    <glyph glyph-name="Adieresis" unicode="&#xc4;" horiz-adv-x="1355" 
d="M41 0q-23 0 -33.5 16.5t-1.5 36.5l629 1379q4 9 15.5 15.5t19.5 6.5h20q8 0 19.5 -6.5t15.5 -15.5l625 -1379q9 -20 -1.5 -36.5t-33.5 -16.5h-129q-33 0 -47 31l-127 280h-670q-21 -47 -63 -140t-62 -140q-13 -31 -47 -31h-129zM422 487h512l-252 562h-10zM909 1602
q-47 0 -80.5 34.5t-33.5 81.5t33.5 81t80.5 34t82 -34t35 -81t-35 -81.5t-82 -34.5zM440 1602q-47 0 -80.5 34.5t-33.5 81.5t33.5 81t80.5 34t82 -34t35 -81t-35 -81.5t-82 -34.5z" />
    <glyph glyph-name="Aring" unicode="&#xc5;" horiz-adv-x="1355" 
d="M41 0q-23 0 -33.5 16.5t-1.5 36.5l629 1379q4 9 15.5 15.5t19.5 6.5h20q8 0 19.5 -6.5t15.5 -15.5l625 -1379q9 -20 -1.5 -36.5t-33.5 -16.5h-129q-33 0 -47 31l-127 280h-670q-21 -47 -63 -140t-62 -140q-13 -31 -47 -31h-129zM422 487h512l-252 562h-10zM676 1548
q-95 0 -161 66.5t-66 161.5t66 161t161 66q94 0 160.5 -66t66.5 -161t-66.5 -161.5t-160.5 -66.5zM676 1661q44 0 76 35t32 80q0 44 -32 76t-76 32q-47 0 -81 -32t-34 -76q0 -45 33.5 -80t81.5 -35z" />
    <glyph glyph-name="AE" unicode="&#xc6;" horiz-adv-x="1837" 
d="M6 0q-23 0 -29.5 16.5t5.5 36.5l821 1317q2 3 7.5 11.5t7 11t6.5 9t7 8.5l7 7t8.5 6.5t9 4.5t10.5 3.5t12 1.5t15 1h795q17 0 27.5 -11.5t10.5 -27.5v-115q0 -16 -10.5 -27.5t-27.5 -11.5h-656v-418h555q15 0 27 -12t12 -27v-114q0 -17 -11.5 -28t-27.5 -11h-555v-441
h656q17 0 27.5 -11t10.5 -27v-113q0 -16 -10.5 -27.5t-27.5 -11.5h-822q-17 0 -28 11.5t-11 27.5v272h-454l-178 -284q-19 -27 -45 -27h-144zM479 487h348v562z" />
    <glyph glyph-name="Ccedilla" unicode="&#xc7;" horiz-adv-x="1429" 
d="M715 -10q-174 27 -315.5 128.5t-222.5 258.5t-81 338q0 202 99 372t269 268.5t372 98.5q150 0 268 -47.5t227 -142.5q13 -12 13.5 -29t-11.5 -29l-90 -92q-22 -29 -51 0q-73 64 -166.5 100.5t-187.5 36.5q-143 0 -262 -73t-185.5 -195t-66.5 -264t67 -264t186.5 -194.5
t262.5 -72.5q104 0 185.5 35t166.5 101q27 21 49 2l94 -93q11 -11 10 -27.5t-12 -27.5q-204 -198 -495 -198v-89q95 -12 150.5 -67.5t55.5 -142.5q0 -89 -62 -151t-153 -62q-45 0 -86.5 19.5t-68.5 51.5q-12 14 -11 29t13 26l35 29q10 8 24 7.5t21 -9.5q27 -31 73 -31
q35 0 57.5 25t22.5 61q0 97 -159 115q-35 7 -35 39v160z" />
    <glyph glyph-name="Egrave" unicode="&#xc8;" horiz-adv-x="1206" 
d="M199 39v1356q0 16 11 27.5t28 11.5h819q17 0 28 -11.5t11 -27.5v-115q0 -16 -11 -27.5t-28 -11.5h-647v-418h546q15 0 27 -12t12 -27v-114q0 -17 -11.5 -28t-27.5 -11h-546v-441h647q17 0 28 -11.5t11 -26.5v-113q0 -16 -11 -27.5t-28 -11.5h-819q-17 0 -28 11.5
t-11 27.5zM782 1585l-344 148q-12 6 -15.5 20t3.5 29l47 90q7 12 26 12.5t27 -6.5l322 -186q10 -5 13.5 -16t-1.5 -23l-29 -58q-11 -26 -49 -10z" />
    <glyph glyph-name="Eacute" unicode="&#xc9;" horiz-adv-x="1206" 
d="M199 39v1356q0 16 11 27.5t28 11.5h819q17 0 28 -11.5t11 -27.5v-115q0 -16 -11 -27.5t-28 -11.5h-647v-418h546q15 0 27 -12t12 -27v-114q0 -17 -11.5 -28t-27.5 -11h-546v-441h647q17 0 28 -11.5t11 -26.5v-113q0 -16 -11 -27.5t-28 -11.5h-819q-17 0 -28 11.5
t-11 27.5zM502 1585q-37 -17 -49 10l-29 58q-5 13 -1 23.5t13 15.5l322 186q8 7 27 6.5t26 -12.5l47 -90q8 -15 4.5 -29t-16.5 -20z" />
    <glyph glyph-name="Ecircumflex" unicode="&#xca;" horiz-adv-x="1206" 
d="M199 39v1356q0 16 11 27.5t28 11.5h819q17 0 28 -11.5t11 -27.5v-115q0 -16 -11 -27.5t-28 -11.5h-647v-418h546q15 0 27 -12t12 -27v-114q0 -17 -11.5 -28t-27.5 -11h-546v-441h647q17 0 28 -11.5t11 -26.5v-113q0 -16 -11 -27.5t-28 -11.5h-819q-17 0 -28 11.5
t-11 27.5zM432 1575q-19 -10 -28.5 -8.5t-18.5 14.5l-41 55q-6 11 -2 21.5t14 17.5l256 201q9 8 24.5 8t25.5 -8l256 -201q10 -7 14 -17.5t-2 -21.5l-41 -55q-10 -13 -18.5 -15t-28.5 9l-205 133z" />
    <glyph glyph-name="Edieresis" unicode="&#xcb;" horiz-adv-x="1206" 
d="M199 39v1356q0 16 11 27.5t28 11.5h819q17 0 28 -11.5t11 -27.5v-115q0 -16 -11 -27.5t-28 -11.5h-647v-418h546q15 0 27 -12t12 -27v-114q0 -17 -11.5 -28t-27.5 -11h-546v-441h647q17 0 28 -11.5t11 -26.5v-113q0 -16 -11 -27.5t-28 -11.5h-819q-17 0 -28 11.5
t-11 27.5zM879 1602q-47 0 -81 34.5t-34 81.5t34 81t81 34t81.5 -34t34.5 -81t-34.5 -81.5t-81.5 -34.5zM410 1602q-47 0 -81 34.5t-34 81.5t34 81t81 34t81.5 -34t34.5 -81t-34.5 -81.5t-81.5 -34.5z" />
    <glyph glyph-name="Igrave" unicode="&#xcc;" horiz-adv-x="610" 
d="M199 39v1356q0 15 12 27t27 12h135q15 0 27 -12t12 -27v-1356q0 -15 -12 -27t-27 -12h-135q-15 0 -27 12t-12 27zM444 1585l-344 148q-12 6 -15.5 20t3.5 29l47 90q7 12 26 12.5t27 -6.5l322 -186q10 -5 13.5 -16t-1.5 -23l-28 -58q-12 -26 -50 -10z" />
    <glyph glyph-name="Iacute" unicode="&#xcd;" horiz-adv-x="610" 
d="M199 39v1356q0 15 12 27t27 12h135q15 0 27 -12t12 -27v-1356q0 -15 -12 -27t-27 -12h-135q-15 0 -27 12t-12 27zM164 1585q-37 -17 -49 10l-29 58q-5 13 -1 23.5t13 15.5l322 186q8 7 27 6.5t26 -12.5l47 -90q8 -15 4.5 -29t-16.5 -20z" />
    <glyph glyph-name="Icircumflex" unicode="&#xce;" horiz-adv-x="610" 
d="M199 39v1356q0 15 12 27t27 12h135q15 0 27 -12t12 -27v-1356q0 -15 -12 -27t-27 -12h-135q-15 0 -27 12t-12 27zM98 1575q-19 -10 -28.5 -8.5t-18.5 14.5l-41 55q-6 11 -1.5 21.5t14.5 17.5l256 201q9 8 23.5 8t25.5 -8l256 -201q10 -7 14 -17.5t-2 -21.5l-41 -55
q-10 -13 -18.5 -15t-28.5 9l-205 133z" />
    <glyph glyph-name="Idieresis" unicode="&#xcf;" horiz-adv-x="610" 
d="M199 39v1356q0 15 12 27t27 12h135q15 0 27 -12t12 -27v-1356q0 -15 -12 -27t-27 -12h-135q-15 0 -27 12t-12 27zM541 1602q-47 0 -81 34.5t-34 81.5t34 81t81 34t81.5 -34t34.5 -81t-34.5 -81.5t-81.5 -34.5zM72 1602q-47 0 -81 34.5t-34 81.5t34 81t81 34t81.5 -34
t34.5 -81t-34.5 -81.5t-81.5 -34.5z" />
    <glyph glyph-name="Eth" unicode="&#xd0;" horiz-adv-x="1529" 
d="M207 39v620h-60q-15 0 -25.5 12t-10.5 27v21q0 15 10.5 27t25.5 12h60v637q0 15 11 27t26 12h471q145 0 278.5 -57t230 -153t153.5 -228t57 -277q0 -117 -36.5 -227t-103 -198t-155 -154.5t-198 -103t-226.5 -36.5h-471q-15 0 -26 12t-11 27zM416 195h270
q226 0 373 148.5t147 375.5q0 226 -147 373t-373 147h-270v-481h385q17 0 28 -11.5t11 -27.5v-23q0 -15 -11 -26t-28 -11h-385v-464z" />
    <glyph glyph-name="Ntilde" unicode="&#xd1;" horiz-adv-x="1587" 
d="M199 39v1378q0 15 12 26t27 11h51l889 -1028h2v969q0 16 11 27.5t28 11.5h131q15 0 27 -12t12 -27v-1379q0 -15 -12 -25.5t-27 -10.5h-54l-888 1056h-2v-997q0 -16 -11 -27.5t-28 -11.5h-129q-15 0 -27 12t-12 27zM553 1622l-47 31q-26 15 -12 47l16.5 33t26.5 42
t40 48.5t51 33t66 15.5q40 0 75.5 -20.5t56.5 -45t46 -45t46 -20.5q16 0 30 9.5t21 19t18 29t14 24.5q21 35 52 18q5 -4 17 -11t21.5 -14t14.5 -14q11 -17 -6 -55q-10 -22 -23.5 -44t-37 -49t-58 -44t-74.5 -17q-35 0 -69.5 21t-57 45.5t-48 45.5t-44.5 21q-51 0 -88 -84
q-8 -19 -17 -24t-30 4z" />
    <glyph glyph-name="Ograve" unicode="&#xd2;" horiz-adv-x="1660" 
d="M94 715q0 101 26 197t73 177t114.5 149t148.5 115.5t176.5 74t196.5 26.5q202 0 371.5 -98.5t268 -268.5t98.5 -372t-98.5 -371t-268 -266.5t-371.5 -97.5q-151 0 -287.5 57.5t-234.5 155.5t-155.5 234.5t-57.5 287.5zM299 715q0 -144 71.5 -266.5t193.5 -193.5t265 -71
q108 0 206.5 42t170 113t114 169.5t42.5 206.5q0 143 -71.5 266t-194.5 195.5t-267 72.5q-143 0 -265.5 -72.5t-193.5 -195.5t-71 -266zM971 1585l-344 148q-12 6 -16 20t3 29l48 90q7 12 26 12.5t27 -6.5l321 -186q10 -5 14 -16t-1 -23l-29 -58q-11 -26 -49 -10z" />
    <glyph glyph-name="Oacute" unicode="&#xd3;" horiz-adv-x="1660" 
d="M94 715q0 101 26 197t73 177t114.5 149t148.5 115.5t176.5 74t196.5 26.5q202 0 371.5 -98.5t268 -268.5t98.5 -372t-98.5 -371t-268 -266.5t-371.5 -97.5q-151 0 -287.5 57.5t-234.5 155.5t-155.5 234.5t-57.5 287.5zM299 715q0 -144 71.5 -266.5t193.5 -193.5t265 -71
q108 0 206.5 42t170 113t114 169.5t42.5 206.5q0 143 -71.5 266t-194.5 195.5t-267 72.5q-143 0 -265.5 -72.5t-193.5 -195.5t-71 -266zM692 1585q-37 -17 -49 10l-29 58q-5 13 -0.5 23.5t13.5 15.5l321 186q8 7 27 6.5t26 -12.5l48 -90q8 -15 4 -29t-17 -20z" />
    <glyph glyph-name="Ocircumflex" unicode="&#xd4;" horiz-adv-x="1660" 
d="M94 715q0 101 26 197t73 177t114.5 149t148.5 115.5t176.5 74t196.5 26.5q202 0 371.5 -98.5t268 -268.5t98.5 -372t-98.5 -371t-268 -266.5t-371.5 -97.5q-151 0 -287.5 57.5t-234.5 155.5t-155.5 234.5t-57.5 287.5zM299 715q0 -144 71.5 -266.5t193.5 -193.5t265 -71
q108 0 206.5 42t170 113t114 169.5t42.5 206.5q0 143 -71.5 266t-194.5 195.5t-267 72.5q-143 0 -265.5 -72.5t-193.5 -195.5t-71 -266zM623 1575q-31 -17 -48 6l-40 55q-6 11 -2 21.5t14 17.5l256 201q9 8 23.5 8t25.5 -8l256 -201q10 -7 14 -17.5t-2 -21.5l-41 -55
q-10 -13 -18.5 -15t-28.5 9l-205 133z" />
    <glyph glyph-name="Otilde" unicode="&#xd5;" horiz-adv-x="1660" 
d="M94 715q0 101 26 197t73 177t114.5 149t148.5 115.5t176.5 74t196.5 26.5q202 0 371.5 -98.5t268 -268.5t98.5 -372t-98.5 -371t-268 -266.5t-371.5 -97.5q-151 0 -287.5 57.5t-234.5 155.5t-155.5 234.5t-57.5 287.5zM299 715q0 -144 71.5 -266.5t193.5 -193.5t265 -71
q108 0 206.5 42t170 113t114 169.5t42.5 206.5q0 143 -71.5 266t-194.5 195.5t-267 72.5q-143 0 -265.5 -72.5t-193.5 -195.5t-71 -266zM580 1622l-48 31q-26 15 -12 47q13 27 23.5 44.5t37 53t62.5 55t78 19.5q40 0 75.5 -20.5t56 -45t45.5 -45t46 -20.5q16 0 30.5 9.5
t21 18.5t18 29t14.5 25q21 35 51 18q1 -1 24 -15t30 -24q10 -16 -7 -55q-10 -23 -23.5 -44t-37 -48.5t-57.5 -44.5t-74 -17q-35 0 -69.5 21t-57 45.5t-48 45.5t-44.5 21q-51 0 -88 -84q-8 -19 -17 -24t-30 4z" />
    <glyph glyph-name="Odieresis" unicode="&#xd6;" horiz-adv-x="1660" 
d="M94 715q0 101 26 197t73 177t114.5 149t148.5 115.5t176.5 74t196.5 26.5q202 0 371.5 -98.5t268 -268.5t98.5 -372t-98.5 -371t-268 -266.5t-371.5 -97.5q-151 0 -287.5 57.5t-234.5 155.5t-155.5 234.5t-57.5 287.5zM299 715q0 -144 71.5 -266.5t193.5 -193.5t265 -71
q108 0 206.5 42t170 113t114 169.5t42.5 206.5q0 143 -71.5 266t-194.5 195.5t-267 72.5q-143 0 -265.5 -72.5t-193.5 -195.5t-71 -266zM1065 1602q-47 0 -81 34.5t-34 81.5t34 81t81 34t82 -34t35 -81t-35 -81.5t-82 -34.5zM596 1602q-47 0 -81 34.5t-34 81.5t34 81t81 34
t82 -34t35 -81t-35 -81.5t-82 -34.5z" />
    <glyph glyph-name="multiply" unicode="&#xd7;" horiz-adv-x="964" 
d="M207 373l-62 61q-11 10 -11 26t11 27l222 224l-222 221q-11 10 -11 27t11 28l60 62q11 11 28 11t27 -11l221 -222l224 224q11 10 26.5 9.5t26.5 -11.5l61 -62q11 -11 11.5 -26.5t-9.5 -26.5l-223 -223l223 -224q10 -12 9.5 -28t-11.5 -27l-61 -59q-11 -11 -26.5 -11.5
t-26.5 9.5l-224 225l-221 -223q-10 -11 -26 -11t-27 11z" />
    <glyph glyph-name="Oslash" unicode="&#xd8;" horiz-adv-x="1660" 
d="M147 45q-11 11 -11.5 26.5t9.5 26.5l129 129q-86 98 -133 223.5t-47 264.5q0 101 26 197t73 177t114.5 149t148.5 115.5t176.5 74t196.5 26.5q137 0 263 -48.5t225 -135.5l135 133q10 11 26 11t27 -11l15 -14q10 -11 10 -27t-10 -27l-134 -135q85 -99 133 -224t48 -261
q0 -202 -98.5 -371t-268 -266.5t-371.5 -97.5q-282 0 -485 178l-129 -129q-11 -10 -26.5 -9.5t-26.5 11.5zM424 375l747 749q-151 125 -342 125q-143 0 -265.5 -72.5t-193.5 -195.5t-71 -266q0 -193 125 -340zM492 305q146 -121 337 -121q144 0 267 71.5t194.5 194
t71.5 265.5q0 196 -123 338z" />
    <glyph glyph-name="Ugrave" unicode="&#xd9;" horiz-adv-x="1476" 
d="M182 535v860q0 15 12 27t27 12h137q17 0 28 -11.5t11 -27.5v-846q0 -157 93 -261t247 -104q155 0 249.5 102.5t94.5 258.5v850q0 16 11 27.5t28 11.5h137q15 0 27 -12t12 -27v-860q0 -154 -71.5 -281t-200 -200.5t-287.5 -73.5q-158 0 -285.5 73.5t-198.5 200.5t-71 281z
M874 1585l-344 148q-12 6 -15.5 20t3.5 29l47 90q7 12 26 12.5t27 -6.5l322 -186q10 -5 13.5 -16t-1.5 -23l-28 -58q-12 -26 -50 -10z" />
    <glyph glyph-name="Uacute" unicode="&#xda;" horiz-adv-x="1476" 
d="M182 535v860q0 15 12 27t27 12h137q17 0 28 -11.5t11 -27.5v-846q0 -157 93 -261t247 -104q155 0 249.5 102.5t94.5 258.5v850q0 16 11 27.5t28 11.5h137q15 0 27 -12t12 -27v-860q0 -154 -71.5 -281t-200 -200.5t-287.5 -73.5q-158 0 -285.5 73.5t-198.5 200.5t-71 281z
M596 1585q-37 -17 -49 10l-29 58q-5 13 -1 23.5t13 15.5l322 186q8 7 27 6.5t26 -12.5l47 -90q8 -15 4.5 -29t-16.5 -20z" />
    <glyph glyph-name="Ucircumflex" unicode="&#xdb;" horiz-adv-x="1476" 
d="M182 535v860q0 15 12 27t27 12h137q17 0 28 -11.5t11 -27.5v-846q0 -157 93 -261t247 -104q155 0 249.5 102.5t94.5 258.5v850q0 16 11 27.5t28 11.5h137q15 0 27 -12t12 -27v-860q0 -154 -71.5 -281t-200 -200.5t-287.5 -73.5q-158 0 -285.5 73.5t-198.5 200.5t-71 281z
M535 1575q-31 -17 -48 6l-41 55q-6 11 -1.5 21.5t14.5 17.5l256 201q9 8 24 8t25 -8l256 -201q10 -7 14 -17.5t-2 -21.5l-41 -55q-10 -13 -18.5 -15t-28.5 9l-205 133z" />
    <glyph glyph-name="Udieresis" unicode="&#xdc;" horiz-adv-x="1476" 
d="M182 535v860q0 15 12 27t27 12h137q17 0 28 -11.5t11 -27.5v-846q0 -157 93 -261t247 -104q155 0 249.5 102.5t94.5 258.5v850q0 16 11 27.5t28 11.5h137q15 0 27 -12t12 -27v-860q0 -154 -71.5 -281t-200 -200.5t-287.5 -73.5q-158 0 -285.5 73.5t-198.5 200.5t-71 281z
M979 1602q-47 0 -81 34.5t-34 81.5t34 81t81 34t82 -34t35 -81t-35 -81.5t-82 -34.5zM510 1602q-47 0 -81 34.5t-34 81.5t34 81t81 34t82 -34t35 -81t-35 -81.5t-82 -34.5z" />
    <glyph glyph-name="Yacute" unicode="&#xdd;" horiz-adv-x="1175" 
d="M479 39v651l-479 684q-12 20 -1.5 40t34.5 20h151q19 0 33 -19l371 -522l370 522q14 19 33 19h154q24 0 34.5 -20t-1.5 -40l-486 -682v-653q0 -15 -12 -27t-27 -12h-135q-17 0 -28 11.5t-11 27.5zM446 1585q-37 -17 -49 10l-28 58q-5 13 -1 23.5t13 15.5l321 186
q8 7 27.5 6.5t26.5 -12.5l47 -90q8 -15 4.5 -29t-16.5 -20z" />
    <glyph glyph-name="Thorn" unicode="&#xde;" horiz-adv-x="1216" 
d="M199 39v1356q0 16 11 27.5t28 11.5h133q15 0 27 -12t12 -27v-221h295q124 1 229.5 -60t167 -166t61.5 -227q0 -125 -61.5 -231t-166.5 -168t-228 -62h-297v-221q0 -15 -12 -27t-27 -12h-133q-17 0 -28 11.5t-11 27.5zM410 461h282q107 0 183.5 76.5t76.5 187.5
q0 103 -76.5 174.5t-183.5 71.5h-282v-510z" />
    <glyph glyph-name="germandbls" unicode="&#xdf;" horiz-adv-x="1062" 
d="M133 39v803q0 301 120 456.5t337 155.5q67 0 127 -18.5t109.5 -55.5t78.5 -99t29 -142q0 -64 -27 -132t-59 -114t-59 -94.5t-27 -79.5q0 -17 24 -44.5t58 -61.5t67.5 -75t57.5 -100t24 -123q0 -139 -94.5 -237t-257.5 -98q-47 0 -90 6q-31 3 -31 43v94q0 36 39 33
q4 0 32 -4.5t50 -4.5q69 0 110.5 45.5t41.5 120.5q0 46 -24.5 90t-60 78.5t-71 68t-60 71.5t-24.5 75q0 44 28 105t62 111.5t62 111.5t28 106q0 68 -46.5 109t-111.5 41q-112 0 -178.5 -108.5t-66.5 -331.5v-801q0 -15 -12 -27t-27 -12h-119q-15 0 -27 12t-12 27z" />
    <glyph glyph-name="agrave" unicode="&#xe0;" horiz-adv-x="864" 
d="M74 254q0 116 87 190t240 74q38 0 78.5 -6t62.5 -12l21 -6q2 100 -24.5 140t-102.5 40q-96 0 -229 -37q-34 -8 -45 33l-17 75q-8 36 27 48q14 6 45.5 15t100.5 20.5t137 11.5q55 0 98 -10t73 -26t51.5 -43.5t33.5 -55.5t19 -68.5t9 -76.5t2 -85v-436q0 -15 -12 -27
t-27 -12h-57q-23 0 -35 29l-20 55q-109 -104 -252 -104q-117 0 -190.5 74t-73.5 200zM252 256q0 -57 34.5 -94t90.5 -37t109 33t75 69v131q-15 10 -55 21.5t-88 11.5q-74 0 -120 -36.5t-46 -98.5zM598 1112l-344 148q-12 6 -15.5 20t3.5 29l47 90q7 12 26 12.5t27 -6.5
l322 -186q10 -5 13.5 -16t-1.5 -23l-29 -60q-13 -26 -49 -8z" />
    <glyph glyph-name="aacute" unicode="&#xe1;" horiz-adv-x="864" 
d="M74 254q0 116 87 190t240 74q38 0 78.5 -6t62.5 -12l21 -6q2 100 -24.5 140t-102.5 40q-96 0 -229 -37q-34 -8 -45 33l-17 75q-8 36 27 48q14 6 45.5 15t100.5 20.5t137 11.5q55 0 98 -10t73 -26t51.5 -43.5t33.5 -55.5t19 -68.5t9 -76.5t2 -85v-436q0 -15 -12 -27
t-27 -12h-57q-23 0 -35 29l-20 55q-109 -104 -252 -104q-117 0 -190.5 74t-73.5 200zM252 256q0 -57 34.5 -94t90.5 -37t109 33t75 69v131q-15 10 -55 21.5t-88 11.5q-74 0 -120 -36.5t-46 -98.5zM285 1112q-36 -18 -49 8l-29 60q-5 12 -1.5 23t13.5 16l322 186q8 7 27 6.5
t26 -12.5l47 -90q7 -15 3.5 -29t-15.5 -20z" />
    <glyph glyph-name="acircumflex" unicode="&#xe2;" horiz-adv-x="864" 
d="M74 254q0 116 87 190t240 74q38 0 78.5 -6t62.5 -12l21 -6q2 100 -24.5 140t-102.5 40q-96 0 -229 -37q-34 -8 -45 33l-17 75q-8 36 27 48q14 6 45.5 15t100.5 20.5t137 11.5q55 0 98 -10t73 -26t51.5 -43.5t33.5 -55.5t19 -68.5t9 -76.5t2 -85v-436q0 -15 -12 -27
t-27 -12h-57q-23 0 -35 29l-20 55q-109 -104 -252 -104q-117 0 -190.5 74t-73.5 200zM252 256q0 -57 34.5 -94t90.5 -37t109 33t75 69v131q-15 10 -55 21.5t-88 11.5q-74 0 -120 -36.5t-46 -98.5zM184 1110l-41 55q-6 11 -1.5 21.5t14.5 17.5l256 201q9 7 23.5 7t25.5 -7
l256 -201q10 -7 14 -17.5t-2 -21.5l-41 -55q-10 -13 -18.5 -15t-28.5 9l-205 133l-205 -133q-19 -10 -28.5 -8.5t-18.5 14.5z" />
    <glyph glyph-name="atilde" unicode="&#xe3;" horiz-adv-x="864" 
d="M74 254q0 116 87 190t240 74q38 0 78.5 -6t62.5 -12l21 -6q2 100 -24.5 140t-102.5 40q-96 0 -229 -37q-34 -8 -45 33l-17 75q-8 36 27 48q14 6 45.5 15t100.5 20.5t137 11.5q55 0 98 -10t73 -26t51.5 -43.5t33.5 -55.5t19 -68.5t9 -76.5t2 -85v-436q0 -15 -12 -27
t-27 -12h-57q-23 0 -35 29l-20 55q-109 -104 -252 -104q-117 0 -190.5 74t-73.5 200zM252 256q0 -57 34.5 -94t90.5 -37t109 33t75 69v131q-15 10 -55 21.5t-88 11.5q-74 0 -120 -36.5t-46 -98.5zM186 1163l-47 31q-26 15 -12 47q13 27 23.5 44.5t37 53t62.5 55t78 19.5
q40 0 75.5 -20.5t56 -45t45.5 -45t46 -20.5q16 0 30.5 9.5t21 18.5t18 29t14.5 25q21 35 51 18q5 -4 17 -11t21.5 -14t14.5 -14q11 -17 -6 -55q-10 -22 -23.5 -43.5t-37 -49t-57.5 -44t-74 -16.5q-35 0 -69.5 21t-57 45.5t-48 45.5t-44.5 21q-52 0 -89 -84q-8 -19 -17 -24
t-30 3z" />
    <glyph glyph-name="adieresis" unicode="&#xe4;" horiz-adv-x="864" 
d="M74 254q0 116 87 190t240 74q38 0 78.5 -6t62.5 -12l21 -6q2 100 -24.5 140t-102.5 40q-96 0 -229 -37q-34 -8 -45 33l-17 75q-8 36 27 48q14 6 45.5 15t100.5 20.5t137 11.5q55 0 98 -10t73 -26t51.5 -43.5t33.5 -55.5t19 -68.5t9 -76.5t2 -85v-436q0 -15 -12 -27
t-27 -12h-57q-23 0 -35 29l-20 55q-109 -104 -252 -104q-117 0 -190.5 74t-73.5 200zM252 256q0 -57 34.5 -94t90.5 -37t109 33t75 69v131q-15 10 -55 21.5t-88 11.5q-74 0 -120 -36.5t-46 -98.5zM649 1161q-47 0 -80.5 34t-33.5 81q0 49 33.5 83t80.5 34q49 0 83 -33.5
t34 -83.5q0 -48 -34 -81.5t-83 -33.5zM246 1161q-47 0 -81 34t-34 81q0 49 33.5 83t81.5 34q49 0 82.5 -33.5t33.5 -83.5q0 -48 -33.5 -81.5t-82.5 -33.5z" />
    <glyph glyph-name="aring" unicode="&#xe5;" horiz-adv-x="864" 
d="M74 254q0 116 87 190t240 74q38 0 78.5 -6t62.5 -12l21 -6q2 100 -24.5 140t-102.5 40q-96 0 -229 -37q-34 -8 -45 33l-17 75q-8 36 27 48q14 6 45.5 15t100.5 20.5t137 11.5q55 0 98 -10t73 -26t51.5 -43.5t33.5 -55.5t19 -68.5t9 -76.5t2 -85v-436q0 -15 -12 -27
t-27 -12h-57q-23 0 -35 29l-20 55q-109 -104 -252 -104q-117 0 -190.5 74t-73.5 200zM252 256q0 -57 34.5 -94t90.5 -37t109 33t75 69v131q-15 10 -55 21.5t-88 11.5q-74 0 -120 -36.5t-46 -98.5zM444 999q-95 0 -161 66.5t-66 161.5t66 161t161 66q94 0 161 -66t67 -161
t-67 -161.5t-161 -66.5zM444 1112q44 0 76.5 35t32.5 80q0 44 -32.5 76t-76.5 32q-50 0 -82 -31.5t-32 -76.5q0 -46 32.5 -80.5t81.5 -34.5z" />
    <glyph glyph-name="ae" unicode="&#xe6;" horiz-adv-x="1386" 
d="M74 256q0 116 83.5 189t227.5 73q43 0 86 -3t65 -6l21 -3q-2 102 -24 140t-91 38q-94 0 -241 -41q-15 -3 -28.5 6.5t-16.5 24.5l-15 82q-3 30 33 41q142 43 283 43q180 0 239 -97q112 97 250 97q158 0 267.5 -106.5t109.5 -272.5q0 -19 -1 -31.5t-5 -27.5t-13 -23t-24 -8
h-563q5 -89 72 -155t169 -66q95 0 183 55q15 8 23 11.5t16.5 2t15.5 -11.5q10 -12 29.5 -36t29.5 -36q23 -31 -6 -53q-50 -43 -129 -72.5t-174 -29.5q-192 0 -301 139q-41 -53 -120 -96t-175 -43q-124 0 -200 75.5t-76 200.5zM727 502h406q-3 76 -58.5 128t-132.5 52
q-82 0 -144 -52t-71 -128zM252 258q0 -61 40.5 -95t98.5 -34q40 0 78.5 19.5t57.5 38t32 36.5v148q-57 20 -149 20q-66 0 -112 -36t-46 -97z" />
    <glyph glyph-name="ccedilla" unicode="&#xe7;" horiz-adv-x="888" 
d="M379 -2q-134 38 -220.5 150t-86.5 260q0 118 60 218t159 157t211 57q179 0 297 -146q10 -14 8 -30t-16 -27l-68 -62q-5 -5 -9.5 -8t-9.5 -3h-8t-8 3.5t-6.5 4.5t-7 6t-6.5 6q-70 78 -164 78q-99 0 -168.5 -73.5t-69.5 -178.5q0 -106 68.5 -180t167.5 -74q22 0 40.5 2.5
t36 10t27.5 11t26.5 17t20.5 16.5t21 20l18 17q27 27 56 4l55 -45q35 -28 14 -57q-51 -80 -132 -125.5t-183 -46.5v-89q95 -12 151 -67.5t56 -142.5q0 -89 -62 -151t-153 -62q-45 0 -87 19.5t-69 51.5q-12 14 -11 29t13 26l35 29q10 8 24 7.5t21 -9.5q27 -31 74 -31
q35 0 57 25t22 61q0 97 -159 115q-35 7 -35 39v168z" />
    <glyph glyph-name="egrave" unicode="&#xe8;" horiz-adv-x="923" 
d="M74 410q0 178 114.5 304t294.5 126q161 0 269 -108t108 -271q0 -27 -4 -55q-1 -15 -12 -25t-25 -10h-557q5 -87 72 -153t164 -66q92 0 182 59q16 9 23 12t15.5 1.5t16.5 -11.5l58 -78q25 -29 -5 -53q-50 -43 -129 -72.5t-174 -29.5q-182 0 -296.5 124.5t-114.5 305.5z
M272 500h398q-5 74 -60 128t-129 54q-82 0 -141 -52t-68 -130zM621 1112l-345 148q-12 6 -15.5 20t3.5 29l47 90q7 12 26.5 12.5t27.5 -6.5l321 -186q10 -5 13.5 -16t-1.5 -23l-28 -60q-13 -26 -49 -8z" />
    <glyph glyph-name="eacute" unicode="&#xe9;" horiz-adv-x="923" 
d="M74 410q0 178 114.5 304t294.5 126q161 0 269 -108t108 -271q0 -27 -4 -55q-1 -15 -12 -25t-25 -10h-557q5 -87 72 -153t164 -66q92 0 182 59q16 9 23 12t15.5 1.5t16.5 -11.5l58 -78q25 -29 -5 -53q-50 -43 -129 -72.5t-174 -29.5q-182 0 -296.5 124.5t-114.5 305.5z
M272 500h398q-5 74 -60 128t-129 54q-82 0 -141 -52t-68 -130zM338 1112q-36 -18 -49 8l-29 60q-5 12 -1.5 23t13.5 16l322 186q8 7 27 6.5t26 -12.5l47 -90q7 -15 3.5 -29t-15.5 -20z" />
    <glyph glyph-name="ecircumflex" unicode="&#xea;" horiz-adv-x="923" 
d="M74 410q0 178 114.5 304t294.5 126q161 0 269 -108t108 -271q0 -27 -4 -55q-1 -15 -12 -25t-25 -10h-557q5 -87 72 -153t164 -66q92 0 182 59q16 9 23 12t15.5 1.5t16.5 -11.5l58 -78q25 -29 -5 -53q-50 -43 -129 -72.5t-174 -29.5q-182 0 -296.5 124.5t-114.5 305.5z
M272 500h398q-5 74 -60 128t-129 54q-82 0 -141 -52t-68 -130zM231 1110l-41 55q-6 11 -1.5 21.5t14.5 17.5l256 201q9 7 24 7t25 -7l256 -201q10 -7 14 -17.5t-2 -21.5l-41 -55q-10 -13 -18.5 -15t-28.5 9l-205 133l-204 -133q-31 -17 -48 6z" />
    <glyph glyph-name="edieresis" unicode="&#xeb;" horiz-adv-x="923" 
d="M74 410q0 178 114.5 304t294.5 126q161 0 269 -108t108 -271q0 -27 -4 -55q-1 -15 -12 -25t-25 -10h-557q5 -87 72 -153t164 -66q92 0 182 59q16 9 23 12t15.5 1.5t16.5 -11.5l58 -78q25 -29 -5 -53q-50 -43 -129 -72.5t-174 -29.5q-182 0 -296.5 124.5t-114.5 305.5z
M272 500h398q-5 74 -60 128t-129 54q-82 0 -141 -52t-68 -130zM678 1161q-47 0 -81 34t-34 81q0 49 33.5 83t81.5 34q50 0 83.5 -33.5t33.5 -83.5q0 -48 -34 -81.5t-83 -33.5zM274 1161q-47 0 -80.5 34t-33.5 81q0 49 33.5 83t80.5 34q50 0 83.5 -33.5t33.5 -83.5
q0 -48 -34 -81.5t-83 -33.5z" />
    <glyph glyph-name="igrave" unicode="&#xec;" horiz-adv-x="460" 
d="M367 1112l-344 148q-12 6 -16 20t3 29l47 90q7 12 26.5 12.5t27.5 -6.5l321 -186q10 -5 13.5 -16t-1.5 -23l-28 -60q-13 -26 -49 -8zM133 39v741q0 15 12 27t27 12h117q15 0 27 -12t12 -27v-741q0 -15 -12 -27t-27 -12h-117q-15 0 -27 12t-12 27z" />
    <glyph glyph-name="iacute" unicode="&#xed;" horiz-adv-x="460" 
d="M86 1112q-36 -18 -49 8l-29 60q-5 12 -1.5 23t13.5 16l322 186q8 7 27 6.5t26 -12.5l47 -90q7 -15 3.5 -29t-15.5 -20zM133 39v741q0 15 12 27t27 12h117q15 0 27 -12t12 -27v-741q0 -15 -12 -27t-27 -12h-117q-15 0 -27 12t-12 27z" />
    <glyph glyph-name="icircumflex" unicode="&#xee;" horiz-adv-x="460" 
d="M133 39v741q0 15 12 27t27 12h117q15 0 27 -12t12 -27v-741q0 -15 -12 -27t-27 -12h-117q-15 0 -27 12t-12 27zM-23 1110l-40 55q-6 11 -2 21.5t14 17.5l256 201q9 7 24 7t25 -7l256 -201q10 -7 14 -17.5t-2 -21.5l-41 -55q-10 -13 -18.5 -15t-28.5 9l-205 133l-204 -133
q-31 -17 -48 6z" />
    <glyph glyph-name="idieresis" unicode="&#xef;" horiz-adv-x="460" 
d="M430 1161q-47 0 -81 34t-34 81q0 49 33.5 83t81.5 34q50 0 83.5 -33.5t33.5 -83.5q0 -48 -34 -81.5t-83 -33.5zM27 1161q-47 0 -81 34t-34 81q0 49 33.5 83t81.5 34q49 0 82.5 -33.5t33.5 -83.5q0 -48 -33.5 -81.5t-82.5 -33.5zM133 39v741q0 15 12 27t27 12h117
q15 0 27 -12t12 -27v-741q0 -15 -12 -27t-27 -12h-117q-15 0 -27 12t-12 27z" />
    <glyph glyph-name="eth" unicode="&#xf0;" horiz-adv-x="1095" 
d="M70 449q0 103 36.5 188.5t96.5 140.5t137 85t160 30q135 0 272 -76q-46 165 -240 311l-182 -104q-14 -7 -28.5 -3.5t-22.5 15.5l-10 21q-8 12 -4.5 28t16.5 23l141 82q-99 58 -170 84q-42 16 -26 55l37 88q13 33 49 21q144 -54 282 -148l142 82q15 7 30 2.5t23 -18.5
l12 -19q8 -12 3.5 -28t-17.5 -23l-109 -63q139 -118 225.5 -284.5t86.5 -385.5q0 -120 -30 -222.5t-88 -181.5t-151.5 -124t-212.5 -45q-123 0 -228.5 63t-167.5 171t-62 235zM258 446q0 -116 79 -199t191 -83q64 0 116.5 25.5t85 67.5t53.5 95.5t27.5 108.5t0.5 108
q-4 16 -25.5 40.5t-56.5 51t-88.5 45.5t-110.5 19q-114 0 -193 -81.5t-79 -197.5z" />
    <glyph glyph-name="ntilde" unicode="&#xf1;" horiz-adv-x="1038" 
d="M133 39v741q0 15 12 27t27 12h59q26 0 33 -24l25 -70q9 10 29 25.5t56.5 37.5t90 37t110.5 15q91 0 158.5 -30.5t107 -85t58.5 -122.5t19 -151v-412q0 -15 -12 -27t-27 -12h-117q-17 0 -28 11.5t-11 27.5v420q0 97 -45 150t-125 53q-85 0 -150.5 -45t-76.5 -78v-500
q0 -21 -10.5 -30t-36.5 -9h-107q-15 0 -27 12t-12 27zM285 1163l-47 31q-26 16 -13 47q13 27 23.5 44.5t37 53t62.5 55t78 19.5q40 0 75.5 -20.5t56 -45t45.5 -45t46 -20.5q16 0 30.5 9.5t21 18.5t18 29t14.5 25q21 35 51 18q2 -1 24.5 -15t29.5 -24q10 -16 -7 -55
q-10 -22 -23.5 -43.5t-37 -49t-57.5 -44t-74 -16.5q-35 0 -69.5 21t-57 45.5t-48 45.5t-44.5 21q-51 0 -88 -84q-8 -19 -17 -24t-30 3z" />
    <glyph glyph-name="ograve" unicode="&#xf2;" horiz-adv-x="970" 
d="M72 412q0 174 121 301t292 127t292.5 -127t121.5 -301q0 -178 -121.5 -305t-292.5 -127t-292 127t-121 305zM254 412q0 -106 67.5 -181t163.5 -75q97 0 164.5 75t67.5 181q0 103 -68 176.5t-164 73.5t-163.5 -73.5t-67.5 -176.5zM627 1112l-344 148q-12 6 -16 20t3 29
l47 90q7 12 26.5 12.5t27.5 -6.5l321 -186q10 -5 14 -16t-1 -23l-29 -60q-13 -26 -49 -8z" />
    <glyph glyph-name="oacute" unicode="&#xf3;" horiz-adv-x="970" 
d="M72 412q0 174 121 301t292 127t292.5 -127t121.5 -301q0 -178 -121.5 -305t-292.5 -127t-292 127t-121 305zM254 412q0 -106 67.5 -181t163.5 -75q97 0 164.5 75t67.5 181q0 103 -68 176.5t-164 73.5t-163.5 -73.5t-67.5 -176.5zM344 1112q-36 -18 -49 8l-29 60
q-5 12 -1 23t14 16l321 186q8 7 27 6.5t26 -12.5l47 -90q7 -15 3.5 -29t-15.5 -20z" />
    <glyph glyph-name="ocircumflex" unicode="&#xf4;" horiz-adv-x="970" 
d="M72 412q0 174 121 301t292 127t292.5 -127t121.5 -301q0 -178 -121.5 -305t-292.5 -127t-292 127t-121 305zM254 412q0 -106 67.5 -181t163.5 -75q97 0 164.5 75t67.5 181q0 103 -68 176.5t-164 73.5t-163.5 -73.5t-67.5 -176.5zM231 1110l-41 55q-6 11 -1.5 21.5
t14.5 17.5l256 201q9 7 24 7t25 -7l256 -201q10 -7 14 -17.5t-2 -21.5l-41 -55q-10 -13 -18.5 -15t-28.5 9l-205 133l-204 -133q-31 -17 -48 6z" />
    <glyph glyph-name="otilde" unicode="&#xf5;" horiz-adv-x="970" 
d="M72 412q0 174 121 301t292 127t292.5 -127t121.5 -301q0 -178 -121.5 -305t-292.5 -127t-292 127t-121 305zM254 412q0 -106 67.5 -181t163.5 -75q97 0 164.5 75t67.5 181q0 103 -68 176.5t-164 73.5t-163.5 -73.5t-67.5 -176.5zM236 1163l-48 31q-26 15 -12 47
q13 27 23.5 44.5t37 53t62.5 55t78 19.5q40 0 75.5 -20.5t56 -45t45.5 -45t46 -20.5q16 0 30.5 9.5t21 18.5t18 29t14.5 25q21 35 51 18q5 -4 17 -11t21.5 -14t14.5 -14q11 -17 -6 -55q-10 -22 -23.5 -43.5t-37 -49t-57.5 -44t-74 -16.5q-35 0 -69.5 21t-57 45.5t-48 45.5
t-44.5 21q-51 0 -88 -84q-8 -19 -17 -24t-30 3z" />
    <glyph glyph-name="odieresis" unicode="&#xf6;" horiz-adv-x="970" 
d="M72 412q0 174 121 301t292 127t292.5 -127t121.5 -301q0 -178 -121.5 -305t-292.5 -127t-292 127t-121 305zM254 412q0 -106 67.5 -181t163.5 -75q97 0 164.5 75t67.5 181q0 103 -68 176.5t-164 73.5t-163.5 -73.5t-67.5 -176.5zM684 1161q-47 0 -81 34t-34 81
q0 49 33.5 83t81.5 34q50 0 83.5 -33.5t33.5 -83.5q0 -48 -34 -81.5t-83 -33.5zM281 1161q-47 0 -81 34t-34 81q0 49 33.5 83t81.5 34q49 0 82.5 -33.5t33.5 -83.5q0 -48 -33.5 -81.5t-82.5 -33.5z" />
    <glyph glyph-name="divide" unicode="&#xf7;" horiz-adv-x="1060" 
d="M524 965q-52 0 -90.5 38.5t-38.5 90.5q0 54 38 91.5t91 37.5q54 0 91.5 -37.5t37.5 -91.5q0 -53 -37.5 -91t-91.5 -38zM135 627q-15 0 -27 12t-12 27v86q0 15 12 27t27 12h793q15 0 26 -12t11 -27v-86q0 -15 -11 -27t-26 -12h-793zM395 338q0 54 37.5 91.5t91.5 37.5
t91.5 -37.5t37.5 -91.5q0 -53 -37.5 -91t-91.5 -38t-91.5 38t-37.5 91z" />
    <glyph glyph-name="oslash" unicode="&#xf8;" horiz-adv-x="968" 
d="M121 53q-12 10 -12.5 26.5t10.5 26.5l39 39q-84 117 -84 269q0 174 120 300t291 126q143 0 260 -99l50 47q11 12 27 12t26 -12l16 -14q12 -11 12 -26.5t-12 -26.5l-51 -51q84 -114 84 -256q0 -178 -120.5 -306t-291.5 -128q-148 0 -260 94l-37 -37q-11 -10 -27 -9.5
t-28 11.5zM287 279l331 335q-57 48 -133 48q-96 0 -162.5 -72.5t-66.5 -175.5q0 -78 31 -135zM352 201q57 -45 133 -45q96 0 163 76t67 182q0 68 -31 125z" />
    <glyph glyph-name="ugrave" unicode="&#xf9;" horiz-adv-x="1011" 
d="M123 367v413q0 15 12 27t27 12h117q15 0 26.5 -12t11.5 -27v-420q0 -99 44.5 -151.5t123.5 -52.5q80 0 138.5 48.5t64.5 86.5v489q0 23 10.5 31t34.5 8h107q15 0 27 -12t12 -27v-741q0 -15 -12 -27t-27 -12h-58q-26 0 -37 33l-20 59l-10 -9q-10 -9 -17 -15.5t-22.5 -18
t-30 -20t-36.5 -18.5t-44.5 -16t-51 -10.5t-58.5 -4.5q-89 0 -155 30t-103.5 84t-55.5 122t-18 151zM647 1112l-344 148q-12 6 -15.5 20t3.5 29l47 90q7 12 26 12.5t27 -6.5l322 -186q10 -5 13.5 -16t-1.5 -23l-29 -60q-13 -26 -49 -8z" />
    <glyph glyph-name="uacute" unicode="&#xfa;" horiz-adv-x="1011" 
d="M123 367v413q0 15 12 27t27 12h117q15 0 26.5 -12t11.5 -27v-420q0 -99 44.5 -151.5t123.5 -52.5q80 0 138.5 48.5t64.5 86.5v489q0 23 10.5 31t34.5 8h107q15 0 27 -12t12 -27v-741q0 -15 -12 -27t-27 -12h-58q-26 0 -37 33l-20 59l-10 -9q-10 -9 -17 -15.5t-22.5 -18
t-30 -20t-36.5 -18.5t-44.5 -16t-51 -10.5t-58.5 -4.5q-89 0 -155 30t-103.5 84t-55.5 122t-18 151zM371 1112q-36 -18 -49 8l-29 60q-5 12 -1.5 23t13.5 16l322 186q8 7 27 6.5t26 -12.5l47 -90q7 -15 3.5 -29t-15.5 -20z" />
    <glyph glyph-name="ucircumflex" unicode="&#xfb;" horiz-adv-x="1011" 
d="M123 367v413q0 15 12 27t27 12h117q15 0 26.5 -12t11.5 -27v-420q0 -99 44.5 -151.5t123.5 -52.5q80 0 138.5 48.5t64.5 86.5v489q0 23 10.5 31t34.5 8h107q15 0 27 -12t12 -27v-741q0 -15 -12 -27t-27 -12h-58q-26 0 -37 33l-20 59l-10 -9q-10 -9 -17 -15.5t-22.5 -18
t-30 -20t-36.5 -18.5t-44.5 -16t-51 -10.5t-58.5 -4.5q-89 0 -155 30t-103.5 84t-55.5 122t-18 151zM258 1110l-41 55q-6 11 -2 21.5t14 17.5l256 201q9 7 24 7t26 -7l256 -201q10 -7 14 -17.5t-2 -21.5l-41 -55q-10 -13 -18.5 -15t-28.5 9l-205 133l-205 -133
q-19 -10 -28.5 -8.5t-18.5 14.5z" />
    <glyph glyph-name="udieresis" unicode="&#xfc;" horiz-adv-x="1011" 
d="M123 367v413q0 15 12 27t27 12h117q15 0 26.5 -12t11.5 -27v-420q0 -99 44.5 -151.5t123.5 -52.5q80 0 138.5 48.5t64.5 86.5v489q0 23 10.5 31t34.5 8h107q15 0 27 -12t12 -27v-741q0 -15 -12 -27t-27 -12h-58q-26 0 -37 33l-20 59l-10 -9q-10 -9 -17 -15.5t-22.5 -18
t-30 -20t-36.5 -18.5t-44.5 -16t-51 -10.5t-58.5 -4.5q-89 0 -155 30t-103.5 84t-55.5 122t-18 151zM715 1161q-47 0 -81 34t-34 81q0 49 33.5 83t81.5 34q49 0 82.5 -33.5t33.5 -83.5q0 -48 -33.5 -81.5t-82.5 -33.5zM311 1161q-47 0 -80.5 34t-33.5 81q0 49 33.5 83
t80.5 34q49 0 83 -33.5t34 -83.5q0 -48 -34 -81.5t-83 -33.5z" />
    <glyph glyph-name="yacute" unicode="&#xfd;" horiz-adv-x="948" 
d="M379 29l-356 737q-9 21 1 37t33 16h136q23 0 34 -22l254 -545h2l246 545q10 22 43 22h117q25 0 35.5 -16.5t-0.5 -36.5l-627 -1356q-12 -24 -35 -24h-123q-23 0 -34 16.5t-1 38.5zM342 1112q-36 -18 -49 8l-29 60q-5 12 -1.5 23t13.5 16l322 186q8 7 27 6.5t26 -12.5
l47 -90q7 -15 3.5 -29t-15.5 -20z" />
    <glyph glyph-name="thorn" unicode="&#xfe;" horiz-adv-x="1005" 
d="M332 35v-613q0 -15 -12 -26.5t-27 -11.5h-119q-15 0 -27 11.5t-12 26.5v1973q0 15 12 27t27 12h119q15 0 27 -12t12 -27v-625q1 1 10 7t17.5 11.5t23 13.5t31 14t36 12t43 9t48.5 3q167 0 279 -126.5t112 -305.5q0 -181 -117 -304.5t-287 -123.5q-18 0 -37 2t-34.5 5.5
t-31.5 8t-27.5 9t-23.5 10t-18.5 8.5t-14.5 7.5t-9 4.5zM332 219q11 -16 62.5 -37.5t113.5 -21.5q102 0 167.5 71.5t65.5 178.5q0 105 -62 179.5t-163 74.5q-68 0 -120 -36.5t-64 -64.5v-344z" />
    <glyph glyph-name="ydieresis" unicode="&#xff;" horiz-adv-x="948" 
d="M379 29l-356 737q-9 21 1 37t33 16h136q23 0 34 -22l254 -545h2l246 545q10 22 43 22h117q25 0 35.5 -16.5t-0.5 -36.5l-627 -1356q-12 -24 -35 -24h-123q-23 0 -34 16.5t-1 38.5zM684 1161q-47 0 -81 34t-34 81q0 49 33.5 83t81.5 34q50 0 83.5 -33.5t33.5 -83.5
q0 -48 -34 -81.5t-83 -33.5zM281 1161q-47 0 -81 34t-34 81q0 49 33.5 83t81.5 34q49 0 82.5 -33.5t33.5 -83.5q0 -48 -33.5 -81.5t-82.5 -33.5z" />
    <glyph glyph-name="Amacron" unicode="&#x100;" horiz-adv-x="1355" 
d="M41 0q-23 0 -33.5 16.5t-1.5 36.5l629 1379q4 9 15.5 15.5t19.5 6.5h20q8 0 19.5 -6.5t15.5 -15.5l625 -1379q9 -20 -1.5 -36.5t-33.5 -16.5h-129q-33 0 -47 31l-127 280h-670q-21 -47 -63 -140t-62 -140q-13 -31 -47 -31h-129zM422 487h512l-252 562h-10zM414 1667
q-17 0 -28 11t-11 26v57q0 17 11 28t28 11h524q17 0 28 -11t11 -28v-57q0 -15 -11 -26t-28 -11h-524z" />
    <glyph glyph-name="amacron" unicode="&#x101;" horiz-adv-x="864" 
d="M74 254q0 116 87 190t240 74q38 0 78.5 -6t62.5 -12l21 -6q2 100 -24.5 140t-102.5 40q-96 0 -229 -37q-34 -8 -45 33l-17 75q-8 36 27 48q14 6 45.5 15t100.5 20.5t137 11.5q55 0 98 -10t73 -26t51.5 -43.5t33.5 -55.5t19 -68.5t9 -76.5t2 -85v-436q0 -15 -12 -27
t-27 -12h-57q-23 0 -35 29l-20 55q-109 -104 -252 -104q-117 0 -190.5 74t-73.5 200zM252 256q0 -57 34.5 -94t90.5 -37t109 33t75 69v131q-15 10 -55 21.5t-88 11.5q-74 0 -120 -36.5t-46 -98.5zM180 1180q-17 0 -28 11t-11 26v57q0 17 11 28t28 11h525q17 0 27.5 -11
t10.5 -28v-57q0 -15 -10.5 -26t-27.5 -11h-525z" />
    <glyph glyph-name="Abreve" unicode="&#x102;" horiz-adv-x="1355" 
d="M41 0q-23 0 -33.5 16.5t-1.5 36.5l629 1379q4 9 15.5 15.5t19.5 6.5h20q8 0 19.5 -6.5t15.5 -15.5l625 -1379q9 -20 -1.5 -36.5t-33.5 -16.5h-129q-33 0 -47 31l-127 280h-670q-21 -47 -63 -140t-62 -140q-13 -31 -47 -31h-129zM422 487h512l-252 562h-10zM678 1573
q-109 0 -188.5 67.5t-94.5 169.5q-3 18 6 30.5t27 12.5h59q29 0 37 -32q18 -54 58 -86.5t96 -32.5q49 0 90 35t57 84q10 32 37 32h64q18 0 26.5 -12.5t5.5 -30.5q-17 -102 -95.5 -169.5t-184.5 -67.5z" />
    <glyph glyph-name="abreve" unicode="&#x103;" horiz-adv-x="864" 
d="M74 254q0 116 87 190t240 74q38 0 78.5 -6t62.5 -12l21 -6q2 100 -24.5 140t-102.5 40q-96 0 -229 -37q-34 -8 -45 33l-17 75q-8 36 27 48q14 6 45.5 15t100.5 20.5t137 11.5q55 0 98 -10t73 -26t51.5 -43.5t33.5 -55.5t19 -68.5t9 -76.5t2 -85v-436q0 -15 -12 -27
t-27 -12h-57q-23 0 -35 29l-20 55q-109 -104 -252 -104q-117 0 -190.5 74t-73.5 200zM252 256q0 -57 34.5 -94t90.5 -37t109 33t75 69v131q-15 10 -55 21.5t-88 11.5q-74 0 -120 -36.5t-46 -98.5zM436 1083q-109 0 -188 68t-94 170q-3 19 5.5 31t26.5 12h60q29 0 37 -31
q18 -56 57.5 -88.5t95.5 -32.5q50 0 91.5 35t56.5 86q10 31 37 31h63q18 0 27 -12t6 -31q-17 -102 -96 -170t-185 -68z" />
    <glyph glyph-name="Aogonek" unicode="&#x104;" horiz-adv-x="1355" 
d="M41 0q-23 0 -33.5 16.5t-1.5 36.5l629 1379q4 9 15.5 15.5t19.5 6.5h20q8 0 19.5 -6.5t15.5 -15.5l625 -1379q9 -20 -1.5 -36.5t-33.5 -16.5h-78q-96 -96 -96 -201q0 -53 35.5 -88t91.5 -35q40 0 102 25q15 6 27 -3t12 -28v-57q0 -20 -29 -37q-58 -25 -139 -25
q-102 0 -169.5 55.5t-67.5 162.5q0 52 18 99.5t46 81t43.5 48t29.5 25.5l-129 288h-670l-125 -280q-13 -31 -47 -31h-129zM422 487h512l-252 562h-10z" />
    <glyph glyph-name="aogonek" unicode="&#x105;" horiz-adv-x="866" 
d="M74 254q0 116 87 190t240 74q38 0 78.5 -6t62.5 -12l21 -6q2 102 -25 147t-102 45q-82 0 -229 -41q-34 -8 -45 33l-17 67q-8 36 27 48q14 6 45.5 15t100.5 20.5t137 11.5q55 0 98 -10t73 -26t51.5 -43.5t33.5 -55.5t19 -68.5t9 -76.5t2 -85v-436q0 -15 -12 -27t-27 -12
q-98 -93 -98 -201q0 -53 35.5 -88t91.5 -35q41 0 103 25q15 6 26.5 -3t11.5 -28v-57q0 -21 -28 -37q-58 -25 -139 -25q-102 0 -170 55.5t-68 162.5q0 45 14.5 87.5t35.5 72t42.5 52t36.5 33.5l14 11l-20 59q-109 -104 -252 -104q-117 0 -190.5 74t-73.5 200zM252 256
q0 -57 34.5 -94t90.5 -37t109 33t75 69v131q-15 10 -55 21.5t-88 11.5q-74 0 -120 -36.5t-46 -98.5z" />
    <glyph glyph-name="Cacute" unicode="&#x106;" horiz-adv-x="1425" 
d="M94 715q0 202 99 372t269 268.5t372 98.5q150 0 268 -47.5t227 -142.5q13 -12 13.5 -29t-11.5 -29l-90 -92q-22 -29 -51 0q-73 64 -166.5 100.5t-187.5 36.5q-143 0 -262 -73t-185.5 -195t-66.5 -264t67 -264t186.5 -194.5t262.5 -72.5q104 0 185.5 35t166.5 101
q27 21 49 2l94 -93q11 -11 10 -27.5t-12 -27.5q-204 -198 -497 -198q-202 0 -372 97.5t-269 266.5t-99 371zM688 1585q-37 -17 -49 10l-29 58q-5 13 -0.5 23.5t13.5 15.5l321 186q8 7 27 6.5t26 -12.5l47 -90q8 -15 4.5 -29t-16.5 -20z" />
    <glyph glyph-name="cacute" unicode="&#x107;" horiz-adv-x="888" 
d="M72 408q0 118 60 218t159 157t211 57q179 0 297 -146q10 -14 8 -30t-16 -27l-68 -62q-5 -5 -9.5 -8t-9.5 -3h-8t-8 3.5t-6.5 4.5t-7 6t-6.5 6q-70 78 -164 78q-99 0 -168.5 -73.5t-69.5 -178.5q0 -106 68.5 -180t167.5 -74q22 0 40.5 2.5t36 10t27.5 11t26.5 17
t20.5 16.5t21 20l18 17q27 27 56 4l55 -45q35 -28 14 -57q-51 -80 -132.5 -126t-184.5 -46q-114 0 -212 55t-157 154t-59 219zM362 1112q-36 -18 -49 8l-28 60q-5 12 -1.5 23t13.5 16l321 186q8 7 27.5 6.5t26.5 -12.5l47 -90q7 -15 3.5 -29t-15.5 -20z" />
    <glyph glyph-name="Ccircumflex" unicode="&#x108;" horiz-adv-x="1425" 
d="M94 715q0 202 99 372t269 268.5t372 98.5q150 0 268 -47.5t227 -142.5q13 -12 13.5 -29t-11.5 -29l-90 -92q-22 -29 -51 0q-73 64 -166.5 100.5t-187.5 36.5q-143 0 -262 -73t-185.5 -195t-66.5 -264t67 -264t186.5 -194.5t262.5 -72.5q104 0 185.5 35t166.5 101
q27 21 49 2l94 -93q11 -11 10 -27.5t-12 -27.5q-204 -198 -497 -198q-202 0 -372 97.5t-269 266.5t-99 371zM627 1575q-19 -10 -28.5 -8.5t-18.5 14.5l-41 55q-6 11 -2 21.5t14 17.5l256 201q9 8 24 8t25 -8l256 -201q10 -7 14 -17.5t-2 -21.5l-41 -55q-10 -13 -18.5 -15
t-28.5 9l-205 133z" />
    <glyph glyph-name="ccircumflex" unicode="&#x109;" horiz-adv-x="888" 
d="M72 408q0 118 60 218t159 157t211 57q179 0 297 -146q10 -14 8 -30t-16 -27l-68 -62q-5 -5 -9.5 -8t-9.5 -3h-8t-8 3.5t-6.5 4.5t-7 6t-6.5 6q-70 78 -164 78q-99 0 -168.5 -73.5t-69.5 -178.5q0 -106 68.5 -180t167.5 -74q22 0 40.5 2.5t36 10t27.5 11t26.5 17
t20.5 16.5t21 20l18 17q27 27 56 4l55 -45q35 -28 14 -57q-51 -80 -132.5 -126t-184.5 -46q-114 0 -212 55t-157 154t-59 219zM250 1110l-41 55q-6 11 -2 21.5t14 17.5l256 201q9 7 24 7t25 -7l256 -201q10 -7 14.5 -17.5t-1.5 -21.5l-41 -55q-10 -13 -18.5 -15t-28.5 9
l-205 133l-205 -133q-19 -10 -28.5 -8.5t-18.5 14.5z" />
    <glyph glyph-name="Cdotaccent" unicode="&#x10a;" horiz-adv-x="1425" 
d="M94 715q0 202 99 372t269 268.5t372 98.5q150 0 268 -47.5t227 -142.5q13 -12 13.5 -29t-11.5 -29l-90 -92q-22 -29 -51 0q-73 64 -166.5 100.5t-187.5 36.5q-143 0 -262 -73t-185.5 -195t-66.5 -264t67 -264t186.5 -194.5t262.5 -72.5q104 0 185.5 35t166.5 101
q27 21 49 2l94 -93q11 -11 10 -27.5t-12 -27.5q-204 -198 -497 -198q-202 0 -372 97.5t-269 266.5t-99 371zM834 1614q-54 0 -93 39t-39 94t39 93t93 38q56 0 94.5 -38t38.5 -93t-38.5 -94t-94.5 -39z" />
    <glyph glyph-name="cdotaccent" unicode="&#x10b;" horiz-adv-x="888" 
d="M72 408q0 118 60 218t159 157t211 57q179 0 297 -146q10 -14 8 -30t-16 -27l-68 -62q-5 -5 -9.5 -8t-9.5 -3h-8t-8 3.5t-6.5 4.5t-7 6t-6.5 6q-70 78 -164 78q-99 0 -168.5 -73.5t-69.5 -178.5q0 -106 68.5 -180t167.5 -74q22 0 40.5 2.5t36 10t27.5 11t26.5 17
t20.5 16.5t21 20l18 17q27 27 56 4l55 -45q35 -28 14 -57q-51 -80 -132.5 -126t-184.5 -46q-114 0 -212 55t-157 154t-59 219zM502 1128q-54 0 -92.5 39t-38.5 93q0 55 38.5 94t92.5 39q56 0 94.5 -38.5t38.5 -94.5q0 -54 -39 -93t-94 -39z" />
    <glyph glyph-name="Ccaron" unicode="&#x10c;" horiz-adv-x="1425" 
d="M94 715q0 202 99 372t269 268.5t372 98.5q150 0 268 -47.5t227 -142.5q13 -12 13.5 -29t-11.5 -29l-90 -92q-22 -29 -51 0q-73 64 -166.5 100.5t-187.5 36.5q-143 0 -262 -73t-185.5 -195t-66.5 -264t67 -264t186.5 -194.5t262.5 -72.5q104 0 185.5 35t166.5 101
q27 21 49 2l94 -93q11 -11 10 -27.5t-12 -27.5q-204 -198 -497 -198q-202 0 -372 97.5t-269 266.5t-99 371zM807 1573l-256 201q-10 7 -14 17t2 21l41 56q9 13 18.5 14.5t28.5 -8.5l204 -133l205 133q20 11 28.5 9t18.5 -15l41 -56q6 -11 2 -21t-14 -17l-256 -201
q-10 -7 -25 -7t-24 7z" />
    <glyph glyph-name="ccaron" unicode="&#x10d;" horiz-adv-x="888" 
d="M72 408q0 118 60 218t159 157t211 57q179 0 297 -146q10 -14 8 -30t-16 -27l-68 -62q-5 -5 -9.5 -8t-9.5 -3h-8t-8 3.5t-6.5 4.5t-7 6t-6.5 6q-70 78 -164 78q-99 0 -168.5 -73.5t-69.5 -178.5q0 -106 68.5 -180t167.5 -74q22 0 40.5 2.5t36 10t27.5 11t26.5 17
t20.5 16.5t21 20l18 17q27 27 56 4l55 -45q35 -28 14 -57q-51 -80 -132.5 -126t-184.5 -46q-114 0 -212 55t-157 154t-59 219zM477 1096l-256 200q-10 7 -14 17.5t2 21.5l41 56q9 13 18.5 14.5t28.5 -8.5l205 -133l205 133q20 11 28.5 9t18.5 -15l41 -56q6 -11 1.5 -21.5
t-14.5 -17.5l-256 -200q-10 -8 -25 -8t-24 8z" />
    <glyph glyph-name="Dcaron" unicode="&#x10e;" horiz-adv-x="1521" 
d="M199 39v1356q0 15 11 27t26 12h471q145 0 278 -57t229.5 -153t153.5 -228t57 -277q0 -146 -57 -279.5t-153.5 -229.5t-229 -153t-278.5 -57h-471q-15 0 -26 12t-11 27zM408 195h270q226 0 373 148.5t147 375.5q0 226 -147 373t-373 147h-270v-1044zM662 1573l-256 201
q-27 18 -13 38l41 56q9 13 18.5 14.5t28.5 -8.5l205 -133l205 133q20 11 28.5 9t18.5 -15l41 -56q6 -11 2 -21t-14 -17l-256 -201q-11 -7 -25.5 -7t-23.5 7z" />
    <glyph glyph-name="dcaron" unicode="&#x10f;" horiz-adv-x="1064" 
d="M74 410q0 180 116.5 305t286.5 125q29 0 58 -4t52 -10.5t39.5 -12t31 -11.5t16.5 -7v600q0 15 12 27t27 12h118q15 0 27 -12t12 -27v-1356q0 -15 -12 -27t-27 -12h-61q-26 0 -37 35l-16 59q-4 -5 -11.5 -12.5t-33 -27t-54 -34.5t-72.5 -27.5t-89 -12.5q-162 0 -272.5 126
t-110.5 304zM264 410q0 -106 60.5 -180t156.5 -74q43 0 80.5 15.5t61 38t36 39.5t17.5 30v333q-8 6 -23 14t-61.5 22t-93.5 14q-101 0 -167.5 -73t-66.5 -179zM1128 877l-28 28q-20 21 8 49q16 12 31 27.5t42 49t43.5 80t16.5 97.5q-12 -6 -43 -6q-53 0 -90 36.5t-37 88.5
q0 54 37.5 90.5t93.5 36.5q63 0 108.5 -46.5t45.5 -154.5q0 -65 -18.5 -128t-49 -110.5t-57 -79.5t-53.5 -56q-28 -24 -50 -2z" />
    <glyph glyph-name="Dcroat" unicode="&#x110;" horiz-adv-x="1529" 
d="M207 39v620h-60q-15 0 -25.5 12t-10.5 27v21q0 15 10.5 27t25.5 12h60v637q0 15 11 27t26 12h471q145 0 278.5 -57t230 -153t153.5 -228t57 -277q0 -117 -36.5 -227t-103 -198t-155 -154.5t-198 -103t-226.5 -36.5h-471q-15 0 -26 12t-11 27zM416 195h270
q226 0 373 148.5t147 375.5q0 226 -147 373t-373 147h-270v-481h385q17 0 28 -11.5t11 -27.5v-23q0 -15 -11 -26t-28 -11h-385v-464z" />
    <glyph glyph-name="dcroat" unicode="&#x111;" 
d="M74 410q0 180 116.5 305t286.5 125q29 0 58 -4t52 -10.5t39.5 -12t31 -11.5t16.5 -7v299h-277q-17 0 -28 10.5t-11 25.5v23q0 16 11 27.5t28 11.5h277v203q0 15 12 27t27 12h118q15 0 27 -12t12 -27v-203h68q15 0 26 -12t11 -27v-20q0 -15 -11 -27t-26 -12h-68v-1055
q0 -15 -12 -27t-27 -12h-61q-26 0 -37 35l-16 59q-4 -5 -11.5 -12.5t-33 -27t-54 -34.5t-72.5 -27.5t-89 -12.5q-162 0 -272.5 126t-110.5 304zM264 410q0 -106 60.5 -181t156.5 -75q43 0 80.5 15.5t61 39t35.5 40.5t18 30v331q-8 5 -23 13t-61.5 21t-93.5 13
q-102 0 -168 -71t-66 -176z" />
    <glyph glyph-name="Emacron" unicode="&#x112;" horiz-adv-x="1206" 
d="M199 39v1356q0 16 11 27.5t28 11.5h819q17 0 28 -11.5t11 -27.5v-115q0 -16 -11 -27.5t-28 -11.5h-647v-418h546q15 0 27 -12t12 -27v-114q0 -17 -11.5 -28t-27.5 -11h-546v-441h647q17 0 28 -11.5t11 -26.5v-113q0 -16 -11 -27.5t-28 -11.5h-819q-17 0 -28 11.5
t-11 27.5zM381 1667q-17 0 -28 11t-11 26v57q0 17 11 28t28 11h524q17 0 28 -11t11 -28v-57q0 -15 -11 -26t-28 -11h-524z" />
    <glyph glyph-name="emacron" unicode="&#x113;" horiz-adv-x="923" 
d="M74 410q0 178 114.5 304t294.5 126q161 0 269 -108t108 -271q0 -27 -4 -55q-1 -15 -12 -25t-25 -10h-557q5 -87 72 -153t164 -66q92 0 182 59q16 9 23 12t15.5 1.5t16.5 -11.5l58 -78q25 -29 -5 -53q-50 -43 -129 -72.5t-174 -29.5q-182 0 -296.5 124.5t-114.5 305.5z
M272 500h398q-5 74 -60 128t-129 54q-82 0 -141 -52t-68 -130zM221 1180q-17 0 -28 11t-11 26v57q0 17 11 28t28 11h524q17 0 28 -11t11 -28v-57q0 -15 -11 -26t-28 -11h-524z" />
    <glyph glyph-name="Ebreve" unicode="&#x114;" horiz-adv-x="1206" 
d="M199 39v1356q0 16 11 27.5t28 11.5h819q17 0 28 -11.5t11 -27.5v-115q0 -16 -11 -27.5t-28 -11.5h-647v-418h546q15 0 27 -12t12 -27v-114q0 -17 -11.5 -28t-27.5 -11h-546v-441h647q17 0 28 -11.5t11 -26.5v-113q0 -16 -11 -27.5t-28 -11.5h-819q-17 0 -28 11.5
t-11 27.5zM643 1573q-109 0 -188.5 67.5t-94.5 169.5q-3 18 6 30.5t27 12.5h60q28 0 36 -32q18 -54 58 -86.5t96 -32.5q49 0 90.5 35t57.5 84q10 32 36 32h64q18 0 27 -12.5t6 -30.5q-17 -102 -96 -169.5t-185 -67.5z" />
    <glyph glyph-name="ebreve" unicode="&#x115;" horiz-adv-x="923" 
d="M74 410q0 178 114.5 304t294.5 126q161 0 269 -108t108 -271q0 -27 -4 -55q-1 -15 -12 -25t-25 -10h-557q5 -87 72 -153t164 -66q92 0 182 59q16 9 23 12t15.5 1.5t16.5 -11.5l58 -78q25 -29 -5 -53q-50 -43 -129 -72.5t-174 -29.5q-182 0 -296.5 124.5t-114.5 305.5z
M272 500h398q-5 74 -60 128t-129 54q-82 0 -141 -52t-68 -130zM485 1083q-109 0 -188 68t-94 170q-3 19 6 31t27 12h59q29 0 37 -31q18 -56 57.5 -88.5t95.5 -32.5q50 0 91.5 35t56.5 86q10 31 37 31h63q18 0 27 -12t6 -31q-17 -102 -96 -170t-185 -68z" />
    <glyph glyph-name="Edotaccent" unicode="&#x116;" horiz-adv-x="1206" 
d="M199 39v1356q0 16 11 27.5t28 11.5h819q17 0 28 -11.5t11 -27.5v-115q0 -16 -11 -27.5t-28 -11.5h-647v-418h546q15 0 27 -12t12 -27v-114q0 -17 -11.5 -28t-27.5 -11h-546v-441h647q17 0 28 -11.5t11 -26.5v-113q0 -16 -11 -27.5t-28 -11.5h-819q-17 0 -28 11.5
t-11 27.5zM651 1614q-54 0 -92.5 39t-38.5 94t38.5 93t92.5 38q56 0 94.5 -38t38.5 -93t-39 -94t-94 -39z" />
    <glyph glyph-name="edotaccent" unicode="&#x117;" horiz-adv-x="923" 
d="M74 410q0 178 114.5 304t294.5 126q161 0 269 -108t108 -271q0 -27 -4 -55q-1 -15 -12 -25t-25 -10h-557q5 -87 72 -153t164 -66q92 0 182 59q16 9 23 12t15.5 1.5t16.5 -11.5l58 -78q25 -29 -5 -53q-50 -43 -129 -72.5t-174 -29.5q-182 0 -296.5 124.5t-114.5 305.5z
M272 500h398q-5 74 -60 128t-129 54q-82 0 -141 -52t-68 -130zM485 1128q-54 0 -92.5 39t-38.5 93q0 55 38.5 94t92.5 39q55 0 94 -38.5t39 -94.5q0 -54 -39 -93t-94 -39z" />
    <glyph glyph-name="Eogonek" unicode="&#x118;" horiz-adv-x="1206" 
d="M199 39v1356q0 16 11 27.5t28 11.5h819q17 0 28 -11.5t11 -27.5v-115q0 -16 -11 -27.5t-28 -11.5h-647v-418h546q15 0 27 -12t12 -27v-114q0 -17 -11.5 -28t-27.5 -11h-546v-441h647q17 0 28 -11.5t11 -26.5v-113q0 -16 -11 -27.5t-28 -11.5q-96 -96 -96 -201
q0 -53 35 -88t91 -35q41 0 103 25q15 6 27 -3t12 -28v-57q0 -20 -29 -37q-58 -25 -139 -25q-102 0 -170 55.5t-68 162.5q0 75 34.5 134t78.5 97h-698q-17 0 -28 11.5t-11 27.5z" />
    <glyph glyph-name="eogonek" unicode="&#x119;" horiz-adv-x="925" 
d="M322 -231q0 116 96 217q-154 23 -248 142.5t-94 281.5q0 178 114.5 304t294.5 126q161 0 269 -108t108 -271q0 -27 -4 -55q-1 -15 -12 -25t-25 -10h-557q5 -87 72.5 -155.5t163.5 -68.5q92 0 180 58q15 8 23 11.5t16.5 2t15.5 -11.5q13 -14 32.5 -38.5t27.5 -33.5
q26 -29 -4 -53q-102 -87 -252 -100q-80 -84 -80 -183q0 -53 35.5 -88t91.5 -35q39 0 102 25q15 6 27 -3t12 -28v-57q0 -20 -29 -37q-58 -25 -139 -25q-102 0 -169.5 55.5t-67.5 162.5zM274 500h398q-5 74 -60 128t-129 54q-82 0 -141 -52t-68 -130z" />
    <glyph glyph-name="Ecaron" unicode="&#x11a;" horiz-adv-x="1206" 
d="M199 39v1356q0 16 11 27.5t28 11.5h819q17 0 28 -11.5t11 -27.5v-115q0 -16 -11 -27.5t-28 -11.5h-647v-418h546q15 0 27 -12t12 -27v-114q0 -17 -11.5 -28t-27.5 -11h-546v-441h647q17 0 28 -11.5t11 -26.5v-113q0 -16 -11 -27.5t-28 -11.5h-819q-17 0 -28 11.5
t-11 27.5zM612 1573l-256 201q-10 7 -14 17t2 21l41 56q9 13 18.5 14.5t28.5 -8.5l205 -133l205 133q20 11 28.5 9t18.5 -15l41 -56q6 -11 2 -21t-14 -17l-256 -201q-10 -7 -25.5 -7t-24.5 7z" />
    <glyph glyph-name="ecaron" unicode="&#x11b;" horiz-adv-x="923" 
d="M74 410q0 178 114.5 304t294.5 126q161 0 269 -108t108 -271q0 -27 -4 -55q-1 -15 -12 -25t-25 -10h-557q5 -87 72 -153t164 -66q92 0 182 59q16 9 23 12t15.5 1.5t16.5 -11.5l58 -78q25 -29 -5 -53q-50 -43 -129 -72.5t-174 -29.5q-182 0 -296.5 124.5t-114.5 305.5z
M272 500h398q-5 74 -60 128t-129 54q-82 0 -141 -52t-68 -130zM457 1096l-256 200q-10 7 -14.5 17.5t1.5 21.5l41 56q9 13 18.5 14.5t28.5 -8.5l205 -133l205 133q20 11 28.5 9t18.5 -15l41 -56q6 -11 2 -21.5t-14 -17.5l-256 -200q-10 -8 -25 -8t-24 8z" />
    <glyph glyph-name="Gcircumflex" unicode="&#x11c;" horiz-adv-x="1478" 
d="M94 715q0 151 58 288t157 235.5t235.5 157t286.5 58.5q276 0 498 -190q12 -12 13 -29t-11 -29q-16 -17 -46.5 -48.5t-45.5 -47.5q-23 -25 -53 2q-74 64 -165 101.5t-183 37.5q-142 0 -261 -73t-186 -195t-67 -264q0 -141 67 -263t186 -195t261 -73q40 0 80.5 5t70 11.5
t59.5 16t46 16t34 13.5l17 8v229h-201q-17 0 -28 11t-11 26v119q0 17 11 28t28 11h373q15 0 26 -12t11 -27q0 -82 1 -248t1 -248q0 -19 -17 -32q-9 -5 -25 -14.5t-68 -32.5t-108 -41t-140 -32.5t-167 -14.5q-150 0 -286.5 57.5t-235.5 155.5t-157 234.5t-58 287.5zM625 1575
q-19 -10 -28.5 -8.5t-18.5 14.5l-41 55q-6 11 -2 21.5t14 17.5l256 201q9 8 24 8t25 -8l256 -201q10 -7 14 -17.5t-2 -21.5l-41 -55q-10 -13 -18.5 -15t-28.5 9l-205 133z" />
    <glyph glyph-name="gcircumflex" unicode="&#x11d;" horiz-adv-x="942" 
d="M51 49q0 44 15 84.5t36.5 66.5t43 45.5t36.5 28.5l15 9q-7 8 -17.5 24t-28.5 67.5t-18 106.5q0 147 99.5 253t252.5 106h359q17 0 28 -11t11 -28v-51q0 -11 -6.5 -22.5t-16.5 -12.5l-112 -31q4 -3 9.5 -8t21 -24.5t27 -42.5t21 -62t9.5 -82q0 -136 -97.5 -235t-251.5 -99
q-46 0 -86.5 8.5t-64 16.5t-27.5 8q-18 0 -51 -29t-33 -72q0 -36 27 -59.5t72 -23.5h278q139 0 230.5 -73t91.5 -202q0 -141 -120 -240.5t-317 -99.5q-104 0 -184.5 25t-127 66t-70 89.5t-23.5 100.5q0 119 121 192v6q-20 6 -42.5 19t-49 36t-43.5 62.5t-17 87.5zM489 289
q77 0 125 52.5t48 135.5t-48.5 136t-124.5 53q-78 0 -129 -53t-51 -136t51 -135.5t129 -52.5zM272 -322q0 -63 60 -104t153 -41q97 0 165.5 45t68.5 117q0 16 -6 33t-20.5 37.5t-47.5 33.5t-80 13q-106 0 -180 -5q-12 -4 -24 -10t-36 -21t-38.5 -40.5t-14.5 -57.5zM281 1110
l-41 55q-6 11 -2 21.5t14 17.5l256 201q9 7 23.5 7t25.5 -7l256 -201q10 -7 14 -17.5t-2 -21.5l-41 -55q-10 -13 -18.5 -15t-28.5 9l-205 133l-204 -133q-19 -10 -28.5 -8.5t-18.5 14.5z" />
    <glyph glyph-name="Gbreve" unicode="&#x11e;" horiz-adv-x="1478" 
d="M94 715q0 151 58 288t157 235.5t235.5 157t286.5 58.5q276 0 498 -190q12 -12 13 -29t-11 -29q-16 -17 -46.5 -48.5t-45.5 -47.5q-23 -25 -53 2q-74 64 -165 101.5t-183 37.5q-142 0 -261 -73t-186 -195t-67 -264q0 -141 67 -263t186 -195t261 -73q40 0 80.5 5t70 11.5
t59.5 16t46 16t34 13.5l17 8v229h-201q-17 0 -28 11t-11 26v119q0 17 11 28t28 11h373q15 0 26 -12t11 -27q0 -82 1 -248t1 -248q0 -19 -17 -32q-9 -5 -25 -14.5t-68 -32.5t-108 -41t-140 -32.5t-167 -14.5q-150 0 -286.5 57.5t-235.5 155.5t-157 234.5t-58 287.5zM834 1573
q-109 0 -188.5 67.5t-94.5 169.5q-3 18 6 30.5t27 12.5h59q29 0 37 -32q18 -54 58 -86.5t96 -32.5q49 0 90 35t57 84q10 32 37 32h63q18 0 27 -12.5t6 -30.5q-17 -102 -95.5 -169.5t-184.5 -67.5z" />
    <glyph glyph-name="gbreve" unicode="&#x11f;" horiz-adv-x="942" 
d="M51 49q0 44 15 84.5t36.5 66.5t43 45.5t36.5 28.5l15 9q-7 8 -17.5 24t-28.5 67.5t-18 106.5q0 147 99.5 253t252.5 106h359q17 0 28 -11t11 -28v-51q0 -11 -6.5 -22.5t-16.5 -12.5l-112 -31q4 -3 9.5 -8t21 -24.5t27 -42.5t21 -62t9.5 -82q0 -136 -97.5 -235t-251.5 -99
q-46 0 -86.5 8.5t-64 16.5t-27.5 8q-18 0 -51 -29t-33 -72q0 -36 27 -59.5t72 -23.5h278q139 0 230.5 -73t91.5 -202q0 -141 -120 -240.5t-317 -99.5q-104 0 -184.5 25t-127 66t-70 89.5t-23.5 100.5q0 119 121 192v6q-20 6 -42.5 19t-49 36t-43.5 62.5t-17 87.5zM489 289
q77 0 125 52.5t48 135.5t-48.5 136t-124.5 53q-78 0 -129 -53t-51 -136t51 -135.5t129 -52.5zM272 -322q0 -63 60 -104t153 -41q97 0 165.5 45t68.5 117q0 16 -6 33t-20.5 37.5t-47.5 33.5t-80 13q-106 0 -180 -5q-12 -4 -24 -10t-36 -21t-38.5 -40.5t-14.5 -57.5zM532 1083
q-109 0 -188 68t-94 170q-3 19 6 31t27 12h59q29 0 37 -31q18 -56 57.5 -88.5t95.5 -32.5q50 0 91.5 35t56.5 86q10 31 37 31h63q18 0 27 -12t6 -31q-17 -102 -96 -170t-185 -68z" />
    <glyph glyph-name="Gdotaccent" unicode="&#x120;" horiz-adv-x="1478" 
d="M94 715q0 151 58 288t157 235.5t235.5 157t286.5 58.5q276 0 498 -190q12 -12 13 -29t-11 -29q-16 -17 -46.5 -48.5t-45.5 -47.5q-23 -25 -53 2q-74 64 -165 101.5t-183 37.5q-142 0 -261 -73t-186 -195t-67 -264q0 -141 67 -263t186 -195t261 -73q40 0 80.5 5t70 11.5
t59.5 16t46 16t34 13.5l17 8v229h-201q-17 0 -28 11t-11 26v119q0 17 11 28t28 11h373q15 0 26 -12t11 -27q0 -82 1 -248t1 -248q0 -19 -17 -32q-9 -5 -25 -14.5t-68 -32.5t-108 -41t-140 -32.5t-167 -14.5q-150 0 -286.5 57.5t-235.5 155.5t-157 234.5t-58 287.5zM831 1614
q-54 0 -92.5 39t-38.5 94t38.5 93t92.5 38q56 0 95 -38t39 -93t-39 -94t-95 -39z" />
    <glyph glyph-name="gdotaccent" unicode="&#x121;" horiz-adv-x="942" 
d="M51 49q0 44 15 84.5t36.5 66.5t43 45.5t36.5 28.5l15 9q-7 8 -17.5 24t-28.5 67.5t-18 106.5q0 147 99.5 253t252.5 106h359q17 0 28 -11t11 -28v-51q0 -11 -6.5 -22.5t-16.5 -12.5l-112 -31q4 -3 9.5 -8t21 -24.5t27 -42.5t21 -62t9.5 -82q0 -136 -97.5 -235t-251.5 -99
q-46 0 -86.5 8.5t-64 16.5t-27.5 8q-18 0 -51 -29t-33 -72q0 -36 27 -59.5t72 -23.5h278q139 0 230.5 -73t91.5 -202q0 -141 -120 -240.5t-317 -99.5q-104 0 -184.5 25t-127 66t-70 89.5t-23.5 100.5q0 119 121 192v6q-20 6 -42.5 19t-49 36t-43.5 62.5t-17 87.5zM489 289
q77 0 125 52.5t48 135.5t-48.5 136t-124.5 53q-78 0 -129 -53t-51 -136t51 -135.5t129 -52.5zM272 -322q0 -63 60 -104t153 -41q97 0 165.5 45t68.5 117q0 16 -6 33t-20.5 37.5t-47.5 33.5t-80 13q-106 0 -180 -5q-12 -4 -24 -10t-36 -21t-38.5 -40.5t-14.5 -57.5zM530 1128
q-54 0 -92.5 39t-38.5 93q0 55 38.5 94t92.5 39q56 0 95 -39t39 -94q0 -54 -39.5 -93t-94.5 -39z" />
    <glyph glyph-name="Gcommaaccent" unicode="&#x122;" horiz-adv-x="1478" 
d="M94 715q0 151 58 288t157 235.5t235.5 157t286.5 58.5q276 0 498 -190q12 -12 13 -29t-11 -29q-16 -17 -46.5 -48.5t-45.5 -47.5q-23 -25 -53 2q-74 64 -165 101.5t-183 37.5q-142 0 -261 -73t-186 -195t-67 -264q0 -141 67 -263t186 -195t261 -73q40 0 80.5 5t70 11.5
t59.5 16t46 16t34 13.5l17 8v229h-201q-17 0 -28 11t-11 26v119q0 17 11 28t28 11h373q15 0 26 -12t11 -27q0 -82 1 -248t1 -248q0 -19 -17 -32q-9 -5 -25 -14.5t-68 -32.5t-108 -41t-140 -32.5t-167 -14.5q-150 0 -286.5 57.5t-235.5 155.5t-157 234.5t-58 287.5zM836 -188
q63 0 107 -46.5t44 -154.5q0 -65 -18.5 -128t-49 -111t-57 -80t-53.5 -56q-28 -25 -47 -2l-31 29q-8 9 -5.5 23t15.5 26q15 12 30 27.5t42 48.5t43.5 80t17.5 98q-18 -6 -45 -6q-52 0 -89.5 36.5t-37.5 88.5q0 54 39 90.5t95 36.5z" />
    <glyph glyph-name="gcommaaccent" unicode="&#x123;" horiz-adv-x="942" 
d="M522 1083q-63 0 -107 46.5t-44 154.5q0 65 18.5 128t49 111t57 80t53.5 56q28 25 47 2l31 -29q8 -9 5 -23t-16 -26q-15 -12 -30 -27.5t-42 -48.5t-43.5 -80t-17.5 -98q18 6 45 6q52 0 89.5 -36.5t37.5 -88.5q0 -54 -38.5 -90.5t-94.5 -36.5zM51 49q0 44 15 84.5
t36.5 66.5t43 45.5t36.5 28.5l15 9q-7 8 -17.5 24t-28.5 67.5t-18 106.5q0 147 99.5 253t252.5 106h359q17 0 28 -11t11 -28v-51q0 -11 -6.5 -22.5t-16.5 -12.5l-112 -31q4 -3 9.5 -8t21 -24.5t27 -42.5t21 -62t9.5 -82q0 -136 -97.5 -235t-251.5 -99q-46 0 -86.5 8.5
t-64 16.5t-27.5 8q-18 0 -51 -29t-33 -72q0 -36 27 -59.5t72 -23.5h278q139 0 230.5 -73t91.5 -202q0 -141 -120 -240.5t-317 -99.5q-104 0 -184.5 25t-127 66t-70 89.5t-23.5 100.5q0 119 121 192v6q-20 6 -42.5 19t-49 36t-43.5 62.5t-17 87.5zM489 289q77 0 125 52.5
t48 135.5t-48.5 136t-124.5 53q-78 0 -129 -53t-51 -136t51 -135.5t129 -52.5zM272 -322q0 -63 60 -104t153 -41q97 0 165.5 45t68.5 117q0 16 -6 33t-20.5 37.5t-47.5 33.5t-80 13q-106 0 -180 -5q-12 -4 -24 -10t-36 -21t-38.5 -40.5t-14.5 -57.5z" />
    <glyph glyph-name="Hcircumflex" unicode="&#x124;" horiz-adv-x="1572" 
d="M199 39v1356q0 15 12 27t27 12h135q17 0 28 -11.5t11 -27.5v-572h749v572q0 16 11 27.5t28 11.5h135q15 0 27 -12t12 -27v-1356q0 -15 -12 -27t-27 -12h-135q-17 0 -28 11.5t-11 27.5v592h-749v-592q0 -16 -11 -27.5t-28 -11.5h-135q-15 0 -27 12t-12 27zM592 1575
q-19 -10 -28.5 -8.5t-18.5 14.5l-41 55q-6 11 -2 21.5t14 17.5l256 201q9 8 24 8t25 -8l256 -201q10 -7 14.5 -17.5t-1.5 -21.5l-41 -55q-19 -25 -48 -6l-204 133z" />
    <glyph glyph-name="hcircumflex" unicode="&#x125;" horiz-adv-x="1040" 
d="M133 39v1356q0 15 12 27t27 12h119q15 0 27 -12t12 -27v-643q126 88 245 88q167 0 255 -107t88 -282v-412q0 -15 -12 -27t-27 -12h-115q-17 0 -28 11.5t-11 27.5v416q0 99 -46.5 153t-127.5 54q-83 0 -147 -47t-74 -83v-493q0 -39 -41 -39h-117q-15 0 -27 12t-12 27z
M-23 1554l-40 56q-6 11 -2 21.5t14 17.5l256 200q9 7 24 7t25 -7l256 -200q10 -7 14 -17.5t-2 -21.5l-41 -56q-10 -13 -18.5 -15t-28.5 9l-205 133l-204 -133q-31 -17 -48 6z" />
    <glyph glyph-name="Hbar" unicode="&#x126;" horiz-adv-x="1572" 
d="M199 39v1055h-49q-15 0 -26 12t-11 27v20q0 15 11 27t26 12h49v203q0 15 12 27t27 12h135q17 0 28 -11.5t11 -27.5v-203h749v203q0 16 11 27.5t28 11.5h135q15 0 27 -12t12 -27v-203h47q17 0 28 -11.5t11 -27.5v-23q0 -15 -11 -25.5t-28 -10.5h-47v-1055q0 -15 -12 -27
t-27 -12h-135q-17 0 -28 11.5t-11 27.5v592h-749v-592q0 -16 -11 -27.5t-28 -11.5h-135q-15 0 -27 12t-12 27zM412 823h749v271h-749v-271z" />
    <glyph glyph-name="hbar" unicode="&#x127;" horiz-adv-x="1040" 
d="M133 39v1055h-65q-15 0 -26 12t-11 27v20q0 15 11 27t26 12h65v203q0 15 12 27t27 12h119q15 0 27 -12t12 -27v-203h278q17 0 28 -11.5t11 -27.5v-23q0 -15 -11 -25.5t-28 -10.5h-278v-344q1 0 28 17.5t53.5 31t72.5 26.5t91 13q343 0 343 -432v-367q0 -15 -12 -27
t-27 -12h-115q-17 0 -28 11.5t-11 27.5v412q0 98 -46.5 152t-127.5 54q-85 0 -153 -45t-68 -77v-496q0 -39 -78 -39h-80q-15 0 -27 12t-12 27z" />
    <glyph glyph-name="Itilde" unicode="&#x128;" horiz-adv-x="610" 
d="M199 39v1356q0 15 12 27t27 12h135q15 0 27 -12t12 -27v-1356q0 -15 -12 -27t-27 -12h-135q-15 0 -27 12t-12 27zM55 1622l-47 31q-26 15 -12 47q13 27 23.5 44.5t37 53t62.5 55t78 19.5q40 0 75.5 -20.5t56 -45t45.5 -45t46 -20.5q16 0 30.5 9.5t21 18.5t18 29t14.5 25
q21 35 51 18q5 -4 17 -11t21.5 -14t14.5 -14q11 -17 -6 -55q-10 -23 -23.5 -44t-37 -48.5t-57.5 -44.5t-74 -17q-35 0 -69.5 21t-57.5 45.5t-48.5 45.5t-44.5 21q-51 0 -88 -84q-8 -19 -17 -24t-30 4z" />
    <glyph glyph-name="itilde" unicode="&#x129;" horiz-adv-x="460" 
d="M-18 1163l-48 31q-26 15 -12 47q13 27 23.5 44.5t37 53t62.5 55t78 19.5q40 0 75.5 -20.5t56 -45t45.5 -45t46 -20.5q16 0 30.5 9.5t21 18.5t18 29t14.5 25q21 35 51 18q1 -1 24 -15t30 -24q10 -16 -7 -55q-10 -22 -23.5 -43.5t-37 -49t-57.5 -44t-74 -16.5
q-35 0 -69.5 21t-57 45.5t-48 45.5t-44.5 21q-51 0 -88 -84q-8 -19 -17 -24t-30 3zM133 39v741q0 15 12 27t27 12h117q15 0 27 -12t12 -27v-741q0 -15 -12 -27t-27 -12h-117q-15 0 -27 12t-12 27z" />
    <glyph glyph-name="Imacron" unicode="&#x12a;" horiz-adv-x="610" 
d="M199 39v1356q0 15 12 27t27 12h135q15 0 27 -12t12 -27v-1356q0 -15 -12 -27t-27 -12h-135q-15 0 -27 12t-12 27zM45 1667q-17 0 -28 11t-11 26v57q0 17 11 28t28 11h524q17 0 28 -11t11 -28v-57q0 -15 -11 -26t-28 -11h-524z" />
    <glyph glyph-name="imacron" unicode="&#x12b;" horiz-adv-x="460" 
d="M-29 1180q-17 0 -28 11t-11 26v57q0 17 11 28t28 11h525q17 0 28 -11t11 -28v-57q0 -15 -11 -26t-28 -11h-525zM133 39v741q0 15 12 27t27 12h117q15 0 27 -12t12 -27v-741q0 -15 -12 -27t-27 -12h-117q-15 0 -27 12t-12 27z" />
    <glyph glyph-name="Ibreve" unicode="&#x12c;" horiz-adv-x="610" 
d="M199 39v1356q0 15 12 27t27 12h135q15 0 27 -12t12 -27v-1356q0 -15 -12 -27t-27 -12h-135q-15 0 -27 12t-12 27zM307 1573q-109 0 -188 67.5t-94 169.5q-3 18 5.5 30.5t26.5 12.5h60q29 0 37 -32q18 -54 58 -86.5t95 -32.5q49 0 90.5 35t57.5 84q10 32 37 32h63
q18 0 27 -12.5t6 -30.5q-17 -102 -96 -169.5t-185 -67.5z" />
    <glyph glyph-name="ibreve" unicode="&#x12d;" horiz-adv-x="460" 
d="M233 1083q-109 0 -188 68t-94 170q-3 19 6 31t27 12h59q29 0 37 -31q18 -56 57.5 -88.5t95.5 -32.5q50 0 91.5 35t56.5 86q10 31 37 31h63q18 0 27 -12t6 -31q-17 -102 -96 -170t-185 -68zM133 39v741q0 15 12 27t27 12h117q15 0 27 -12t12 -27v-741q0 -15 -12 -27
t-27 -12h-117q-15 0 -27 12t-12 27z" />
    <glyph glyph-name="Iogonek" unicode="&#x12e;" horiz-adv-x="610" 
d="M199 39v1356q0 15 12 27t27 12h135q15 0 27 -12t12 -27v-1356q0 -15 -12 -27t-27 -12h-17q-96 -96 -96 -201q0 -53 35.5 -88t91.5 -35q40 0 102 25q15 6 27 -3t12 -28v-57q0 -21 -28 -37q-58 -25 -140 -25q-102 0 -169.5 55.5t-67.5 162.5q0 75 34.5 134t78.5 97
q-15 0 -26 12t-11 27z" />
    <glyph glyph-name="iogonek" unicode="&#x12f;" horiz-adv-x="460" 
d="M227 1153q-49 0 -82.5 34.5t-33.5 84.5q0 51 33.5 86t82.5 35q51 0 86 -35t35 -86q0 -50 -35 -84.5t-86 -34.5zM133 39v741q0 15 12 27t27 12h117q15 0 27 -12t12 -27v-741q0 -15 -12 -27t-27 -12h-17q-96 -96 -96 -201q0 -53 35.5 -88t91.5 -35q41 0 103 25
q15 6 26.5 -3t11.5 -28v-57q0 -21 -28 -37q-58 -25 -140 -25q-102 0 -169.5 55.5t-67.5 162.5q0 77 36.5 137t80.5 98q-23 10 -23 35z" />
    <glyph glyph-name="Idotaccent" unicode="&#x130;" horiz-adv-x="610" 
d="M199 39v1356q0 15 12 27t27 12h135q15 0 27 -12t12 -27v-1356q0 -15 -12 -27t-27 -12h-135q-15 0 -27 12t-12 27zM305 1614q-54 0 -92.5 39t-38.5 94t38.5 93t92.5 38q56 0 94.5 -38t38.5 -93t-39 -94t-94 -39z" />
    <glyph glyph-name="dotlessi" unicode="&#x131;" horiz-adv-x="460" 
d="M133 39v741q0 15 12 27t27 12h117q15 0 27 -12t12 -27v-741q0 -15 -12 -27t-27 -12h-117q-15 0 -27 12t-12 27z" />
    <glyph glyph-name="IJ" unicode="&#x132;" horiz-adv-x="1482" 
d="M199 39v1356q0 15 12 27t27 12h135q15 0 27 -12t12 -27v-1356q0 -15 -12 -27t-27 -12h-135q-15 0 -27 12t-12 27zM604 129q-17 27 4 51l74 80q35 30 66 -4q78 -88 167 -88q84 0 145.5 66t61.5 192v969q0 16 11 27.5t28 11.5h135q17 0 28 -11.5t11 -27.5v-967
q0 -209 -117.5 -328.5t-302.5 -119.5q-190 0 -311 149z" />
    <glyph glyph-name="ij" unicode="&#x133;" horiz-adv-x="968" 
d="M227 1153q-49 0 -82.5 34.5t-33.5 84.5q0 51 33.5 86t82.5 35q51 0 86 -35t35 -86q0 -50 -35 -84.5t-86 -34.5zM133 39v741q0 15 12 27t27 12h117q15 0 27 -12t12 -27v-741q0 -15 -12 -27t-27 -12h-117q-15 0 -27 12t-12 27zM735 1153q-49 0 -83 34.5t-34 84.5
q0 51 34 86t83 35q51 0 86 -35t35 -86q0 -50 -35 -84.5t-86 -34.5zM639 -254v1034q0 17 11.5 28t27.5 11h119q16 0 27.5 -11t11.5 -28v-1034q0 -184 -97.5 -282.5t-251.5 -98.5q-76 0 -137.5 25t-95.5 57q-10 7 -12 22t4 25l51 92q15 27 51 6q76 -51 135 -51q72 0 114 52
t42 153z" />
    <glyph glyph-name="Jcircumflex" unicode="&#x134;" horiz-adv-x="845" 
d="M-35 129q-17 27 4 51l74 80q35 30 66 -4q78 -88 167 -88q84 0 145.5 66t61.5 192v969q0 16 11 27.5t28 11.5h135q17 0 28 -11.5t11 -27.5v-967q0 -209 -117.5 -328.5t-302.5 -119.5q-190 0 -311 149zM387 1575q-19 -10 -28.5 -8.5t-18.5 14.5l-41 55q-6 11 -2 21.5
t14 17.5l256 201q9 8 24 8t25 -8l256 -201q10 -7 14.5 -17.5t-1.5 -21.5l-41 -55q-10 -13 -18.5 -15t-28.5 9l-205 133z" />
    <glyph glyph-name="jcircumflex" unicode="&#x135;" horiz-adv-x="462" 
d="M133 -254v1034q0 17 11.5 28t27.5 11h119q16 0 27.5 -11t11.5 -28v-1034q0 -184 -97 -282.5t-251 -98.5q-76 0 -138.5 25t-95.5 57q-10 7 -12 22t4 25l51 92q15 27 51 6q76 -51 135 -51q72 0 114 52t42 153zM-23 1110l-40 55q-6 11 -2 21.5t14 17.5l256 201q9 7 24 7
t25 -7l256 -201q10 -7 14 -17.5t-2 -21.5l-41 -55q-10 -13 -18.5 -15t-28.5 9l-205 133l-204 -133q-31 -17 -48 6z" />
    <glyph glyph-name="Kcommaaccent" unicode="&#x136;" horiz-adv-x="1302" 
d="M199 49v1335q0 21 14 35.5t35 14.5h119q20 0 34.5 -15t14.5 -35v-567l577 596q17 21 39 21h154q28 0 38.5 -25.5t-10.5 -48.5l-591 -602l626 -690q14 -15 3.5 -41.5t-40.5 -26.5h-163q-28 0 -37 14l-596 672v-637q0 -20 -14.5 -34.5t-34.5 -14.5h-119q-21 0 -35 14
t-14 35zM688 -188q63 0 107.5 -46.5t44.5 -154.5q0 -65 -18.5 -128t-49 -111t-57 -80t-53.5 -56q-28 -25 -48 -2l-30 29q-8 9 -5.5 23t15.5 26q15 12 30 27.5t42 48.5t43.5 80t17.5 98q-18 -6 -45 -6q-52 0 -89.5 36.5t-37.5 88.5q0 54 38.5 90.5t94.5 36.5z" />
    <glyph glyph-name="kcommaaccent" unicode="&#x137;" horiz-adv-x="956" 
d="M133 39v1356q0 15 12 27t27 12h119q15 0 27 -12t12 -27v-887l319 287q28 24 51 24h144q25 0 31 -21.5t-9 -33.5l-340 -309l402 -402q15 -13 8.5 -33t-31.5 -20h-168q-25 0 -37 16l-370 381v-358q0 -15 -12 -27t-27 -12h-119q-15 0 -27 12t-12 27zM492 -188
q63 0 107 -46.5t44 -154.5q0 -65 -18.5 -128t-49 -111t-57 -80t-53.5 -56q-28 -25 -47 -2l-31 29q-8 9 -5.5 23t15.5 26q15 12 30 27.5t42 48.5t43.5 80t17.5 98q-18 -6 -45 -6q-52 0 -89.5 36.5t-37.5 88.5q0 54 39 90.5t95 36.5z" />
    <glyph glyph-name="kgreenlandic" unicode="&#x138;" horiz-adv-x="966" 
d="M133 39v741q0 15 12 27t27 12h119q15 0 27 -12t12 -27v-334l348 349q28 24 51 24h143q25 0 31.5 -21.5t-8.5 -33.5l-369 -365l402 -346q15 -13 8.5 -33t-31.5 -20h-168q-25 0 -37 16l-370 320v-297q0 -15 -12 -27t-27 -12h-119q-15 0 -27 12t-12 27z" />
    <glyph glyph-name="Lacute" unicode="&#x139;" horiz-adv-x="1021" 
d="M199 39v1356q0 16 11 27.5t28 11.5h135q15 0 27 -12t12 -27v-1205h555q17 0 28 -11.5t11 -26.5v-113q0 -16 -11 -27.5t-28 -11.5h-729q-17 0 -28 11.5t-11 27.5zM164 1585q-37 -17 -49 10l-29 58q-5 13 -1 23.5t13 15.5l322 186q8 7 27 6.5t26 -12.5l47 -90
q8 -15 4.5 -29t-16.5 -20z" />
    <glyph glyph-name="lacute" unicode="&#x13a;" horiz-adv-x="460" 
d="M133 39v1356q0 15 12 27t27 12h117q15 0 27 -12t12 -27v-1356q0 -15 -12 -27t-27 -12h-117q-15 0 -27 12t-12 27zM86 1556q-36 -17 -49 9l-29 59q-5 12 -1.5 23t13.5 16l322 186q8 7 27 6.5t26 -12.5l47 -90q7 -15 3.5 -29t-15.5 -20z" />
    <glyph glyph-name="Lcommaaccent" unicode="&#x13b;" horiz-adv-x="1021" 
d="M199 39v1356q0 16 11 27.5t28 11.5h135q15 0 27 -12t12 -27v-1205h555q17 0 28 -11.5t11 -26.5v-113q0 -16 -11 -27.5t-28 -11.5h-729q-17 0 -28 11.5t-11 27.5zM602 -188q63 0 107.5 -46.5t44.5 -154.5q0 -65 -19 -128t-49.5 -111t-57 -80t-53.5 -56q-28 -25 -47 -2
l-30 29q-8 9 -5.5 23t15.5 26q15 12 30 27.5t42 48.5t43.5 80t17.5 98q-18 -6 -45 -6q-52 0 -89.5 36.5t-37.5 88.5q0 54 38.5 90.5t94.5 36.5z" />
    <glyph glyph-name="lcommaaccent" unicode="&#x13c;" horiz-adv-x="460" 
d="M133 39v1356q0 15 12 27t27 12h117q15 0 27 -12t12 -27v-1356q0 -15 -12 -27t-27 -12h-117q-15 0 -27 12t-12 27zM223 -188q63 0 107.5 -46.5t44.5 -154.5q0 -65 -18.5 -128t-49 -111t-57 -80t-53.5 -56q-28 -25 -47 -2l-31 29q-8 9 -5.5 23t15.5 26q15 12 30 27.5
t42 48.5t43.5 80t17.5 98q-18 -6 -45 -6q-52 0 -89.5 36.5t-37.5 88.5q0 54 38.5 90.5t94.5 36.5z" />
    <glyph glyph-name="Lcaron" unicode="&#x13d;" horiz-adv-x="1021" 
d="M199 39v1356q0 16 11 27.5t28 11.5h135q15 0 27 -12t12 -27v-1205h555q17 0 28 -11.5t11 -26.5v-113q0 -16 -11 -27.5t-28 -11.5h-729q-17 0 -28 11.5t-11 27.5zM807 1454q63 0 107 -46.5t44 -154.5q0 -65 -18.5 -128t-49 -110.5t-57 -79.5t-53.5 -56q-28 -25 -47 -2
l-31 28q-8 9 -5 23t16 26q15 12 30 27.5t42 48.5t43.5 80t17.5 98q-18 -6 -45 -6q-52 0 -89.5 36.5t-37.5 88.5q0 54 38.5 90.5t94.5 36.5z" />
    <glyph glyph-name="lcaron" unicode="&#x13e;" horiz-adv-x="522" 
d="M133 39v1356q0 15 12 27t27 12h117q15 0 27 -12t12 -27v-1356q0 -15 -12 -27t-27 -12h-117q-15 0 -27 12t-12 27zM586 877l-29 28q-9 9 -6.5 23t14.5 26q16 12 31 27.5t42 49t43.5 80t16.5 97.5q-12 -6 -43 -6q-53 0 -90 36.5t-37 88.5q0 54 37.5 90.5t93.5 36.5
q63 0 108.5 -46.5t45.5 -154.5q0 -65 -18.5 -128t-49 -110.5t-57 -79.5t-53.5 -56t-49 -2z" />
    <glyph glyph-name="Ldot" unicode="&#x13f;" horiz-adv-x="1148" 
d="M199 39v1356q0 16 11 27.5t28 11.5h135q15 0 27 -12t12 -27v-1205h555q17 0 28 -11.5t11 -26.5v-113q0 -16 -11 -27.5t-28 -11.5h-729q-17 0 -28 11.5t-11 27.5zM950 588q-54 0 -92.5 39t-38.5 94t38.5 93t92.5 38q56 0 94.5 -38t38.5 -93t-38.5 -94t-94.5 -39z" />
    <glyph glyph-name="ldot" unicode="&#x140;" horiz-adv-x="747" 
d="M133 39v1356q0 15 12 27t27 12h117q15 0 27 -12t12 -27v-1356q0 -15 -12 -27t-27 -12h-117q-15 0 -27 12t-12 27zM606 604q-54 0 -92.5 38.5t-38.5 92.5q0 55 38.5 94t92.5 39q56 0 94.5 -39t38.5 -94q0 -54 -39 -92.5t-94 -38.5z" />
    <glyph glyph-name="Lslash" unicode="&#x141;" horiz-adv-x="1040" 
d="M217 39v592l-45 -25q-12 -8 -28 -3t-23 18l-10 18q-8 12 -4.5 28t16.5 25l94 51v652q0 16 11 27.5t28 11.5h135q15 0 27 -12t12 -27v-527l203 117q16 8 30.5 3.5t22.5 -17.5l10 -19q8 -13 3.5 -28.5t-17.5 -24.5l-252 -145v-564h555q17 0 28 -11.5t11 -26.5v-113
q0 -16 -11 -27.5t-28 -11.5h-729q-17 0 -28 11.5t-11 27.5z" />
    <glyph glyph-name="lslash" unicode="&#x142;" horiz-adv-x="503" 
d="M164 39v608l-88 -49q-12 -8 -28 -3.5t-23 17.5l-11 19q-8 12 -4 28t17 25l137 76v635q0 15 12 27t27 12h116q15 0 27 -12t12 -27v-521l156 93q15 7 30 2.5t23 -17.5l11 -20q7 -12 3 -27t-18 -24l-205 -119v-723q0 -15 -12 -27t-27 -12h-116q-15 0 -27 12t-12 27z" />
    <glyph glyph-name="Nacute" unicode="&#x143;" horiz-adv-x="1587" 
d="M199 39v1378q0 15 12 26t27 11h51l889 -1028h2v969q0 16 11 27.5t28 11.5h131q15 0 27 -12t12 -27v-1379q0 -15 -12 -25.5t-27 -10.5h-54l-888 1056h-2v-997q0 -16 -11 -27.5t-28 -11.5h-129q-15 0 -27 12t-12 27zM670 1585q-37 -17 -49 10l-29 58q-5 13 -1 23.5t13 15.5
l322 186q8 7 27 6.5t26 -12.5l47 -90q8 -15 4.5 -29t-16.5 -20z" />
    <glyph glyph-name="nacute" unicode="&#x144;" horiz-adv-x="1038" 
d="M133 39v741q0 15 12 27t27 12h59q26 0 33 -24l25 -70q9 10 29 25.5t56.5 37.5t90 37t110.5 15q91 0 158.5 -30.5t107 -85t58.5 -122.5t19 -151v-412q0 -15 -12 -27t-27 -12h-117q-17 0 -28 11.5t-11 27.5v420q0 97 -45 150t-125 53q-85 0 -150.5 -45t-76.5 -78v-500
q0 -21 -10.5 -30t-36.5 -9h-107q-15 0 -27 12t-12 27zM401 1112q-36 -18 -49 8l-28 60q-5 12 -1.5 23t13.5 16l321 186q8 7 27.5 6.5t26.5 -12.5l47 -90q7 -15 3 -29t-16 -20z" />
    <glyph glyph-name="Ncommaaccent" unicode="&#x145;" horiz-adv-x="1587" 
d="M199 39v1378q0 15 12 26t27 11h51l889 -1028h2v969q0 16 11 27.5t28 11.5h131q15 0 27 -12t12 -27v-1379q0 -15 -12 -25.5t-27 -10.5h-54l-888 1056h-2v-997q0 -16 -11 -27.5t-28 -11.5h-129q-15 0 -27 12t-12 27zM799 -188q63 0 107 -46.5t44 -154.5q0 -65 -18.5 -128
t-49 -111t-57 -80t-53.5 -56q-28 -25 -47 -2l-31 29q-8 9 -5 23t16 26q15 12 30 27.5t42 48.5t43.5 80t17.5 98q-18 -6 -45 -6q-52 0 -89.5 36.5t-37.5 88.5q0 54 38.5 90.5t94.5 36.5z" />
    <glyph glyph-name="ncommaaccent" unicode="&#x146;" horiz-adv-x="1040" 
d="M133 39v741q0 15 12 27t27 12h59q26 0 33 -24l25 -70q9 10 29 25.5t56.5 37.5t90 37t110.5 15q91 0 158.5 -30.5t107 -85t58.5 -122.5t19 -151v-412q0 -15 -12 -27t-27 -12h-117q-17 0 -28 11.5t-11 27.5v420q0 97 -45 150t-125 53q-85 0 -150.5 -45t-76.5 -78v-500
q0 -21 -10.5 -30t-36.5 -9h-107q-15 0 -27 12t-12 27zM526 -188q63 0 107.5 -46.5t44.5 -154.5q0 -65 -18.5 -128t-49 -111t-57 -80t-53.5 -56q-28 -25 -47 -2l-31 29q-8 9 -5.5 23t15.5 26q15 12 30 27.5t42 48.5t43.5 80t17.5 98q-18 -6 -45 -6q-52 0 -89.5 36.5
t-37.5 88.5q0 54 38.5 90.5t94.5 36.5z" />
    <glyph glyph-name="Ncaron" unicode="&#x147;" horiz-adv-x="1587" 
d="M199 39v1378q0 15 12 26t27 11h51l889 -1028h2v969q0 16 11 27.5t28 11.5h131q15 0 27 -12t12 -27v-1379q0 -15 -12 -25.5t-27 -10.5h-54l-888 1056h-2v-997q0 -16 -11 -27.5t-28 -11.5h-129q-15 0 -27 12t-12 27zM778 1573l-256 201q-10 7 -14 17t2 21l41 56
q9 13 18.5 14.5t28.5 -8.5l205 -133l205 133q20 11 28.5 9t18.5 -15l41 -56q14 -20 -13 -38l-256 -201q-10 -7 -25 -7t-24 7z" />
    <glyph glyph-name="ncaron" unicode="&#x148;" horiz-adv-x="1038" 
d="M133 39v741q0 15 12 27t27 12h59q26 0 33 -24l25 -70q9 10 29 25.5t56.5 37.5t90 37t110.5 15q91 0 158.5 -30.5t107 -85t58.5 -122.5t19 -151v-412q0 -15 -12 -27t-27 -12h-117q-17 0 -28 11.5t-11 27.5v420q0 97 -45 150t-125 53q-85 0 -150.5 -45t-76.5 -78v-500
q0 -21 -10.5 -30t-36.5 -9h-107q-15 0 -27 12t-12 27zM512 1096l-256 200q-10 7 -14 17.5t2 21.5l41 56q9 13 18.5 14.5t28.5 -8.5l205 -133l204 133q20 11 28.5 9t18.5 -15l41 -56q6 -11 2 -21.5t-14 -17.5l-256 -200q-10 -8 -25 -8t-24 8z" />
    <glyph glyph-name="napostrophe" unicode="&#x149;" horiz-adv-x="1038" 
d="M133 39v741q0 15 12 27t27 12h59q26 0 33 -24l25 -70q9 10 29 25.5t56.5 37.5t90 37t110.5 15q91 0 158.5 -30.5t107 -85t58.5 -122.5t19 -151v-412q0 -15 -12 -27t-27 -12h-117q-17 0 -28 11.5t-11 27.5v420q0 97 -45 150t-125 53q-85 0 -150.5 -45t-76.5 -78v-500
q0 -21 -10.5 -30t-36.5 -9h-107q-15 0 -27 12t-12 27zM-154 1454q63 0 107.5 -46.5t44.5 -154.5q0 -65 -18.5 -128t-49 -110.5t-57 -79.5t-53.5 -56q-28 -25 -47 -2l-31 28q-8 9 -5.5 23t15.5 26q15 12 30 27.5t42 48.5t43.5 80t17.5 98q-18 -6 -45 -6q-52 0 -89.5 36.5
t-37.5 88.5q0 54 38.5 90.5t94.5 36.5z" />
    <glyph glyph-name="Eng" unicode="&#x14a;" horiz-adv-x="1587" 
d="M199 39v1378q0 15 12 26t27 11h51l889 -1028h2v969q0 16 11 27.5t28 11.5h131q15 0 27 -12t12 -27v-1649q0 -184 -97.5 -282.5t-251.5 -98.5q-76 0 -137.5 25t-95.5 57q-10 7 -12 22t4 25l51 92q15 27 51 6q77 -51 135 -51q71 0 111.5 51.5t40.5 153.5v369l-780 921h-2
v-997q0 -16 -11 -27.5t-28 -11.5h-129q-15 0 -27 12t-12 27z" />
    <glyph glyph-name="eng" unicode="&#x14b;" horiz-adv-x="1040" 
d="M133 39v741q0 15 12 27t27 12h59q26 0 33 -24l25 -70q9 10 29 25.5t56.5 37.5t90 37t110.5 15q91 0 158.5 -30.5t107 -85t58.5 -122.5t19 -151v-705q0 -184 -97.5 -282.5t-251.5 -98.5q-76 0 -137.5 25t-95.5 57q-10 7 -12 22t4 25l51 92q15 27 51 6q76 -51 135 -51
q72 0 115 52t43 153v705q0 97 -45 149.5t-125 52.5q-85 0 -150.5 -45t-76.5 -78v-491q0 -21 -10.5 -30t-36.5 -9h-107q-15 0 -27 12t-12 27z" />
    <glyph glyph-name="Omacron" unicode="&#x14c;" horiz-adv-x="1660" 
d="M94 715q0 101 26 197t73 177t114.5 149t148.5 115.5t176.5 74t196.5 26.5q202 0 371.5 -98.5t268 -268.5t98.5 -372t-98.5 -371t-268 -266.5t-371.5 -97.5q-151 0 -287.5 57.5t-234.5 155.5t-155.5 234.5t-57.5 287.5zM299 715q0 -144 71.5 -266.5t193.5 -193.5t265 -71
q108 0 206.5 42t170 113t114 169.5t42.5 206.5q0 143 -71.5 266t-194.5 195.5t-267 72.5q-143 0 -265.5 -72.5t-193.5 -195.5t-71 -266zM569 1667q-17 0 -28 11t-11 26v57q0 17 11 28t28 11h525q17 0 28 -11t11 -28v-57q0 -15 -11 -26t-28 -11h-525z" />
    <glyph glyph-name="omacron" unicode="&#x14d;" horiz-adv-x="970" 
d="M72 412q0 174 121 301t292 127t292.5 -127t121.5 -301q0 -178 -121.5 -305t-292.5 -127t-292 127t-121 305zM254 412q0 -106 67.5 -181t163.5 -75q97 0 164.5 75t67.5 181q0 103 -68 176.5t-164 73.5t-163.5 -73.5t-67.5 -176.5zM225 1180q-17 0 -28 11t-11 26v57
q0 17 11 28t28 11h525q17 0 27.5 -11t10.5 -28v-57q0 -15 -10.5 -26t-27.5 -11h-525z" />
    <glyph glyph-name="Obreve" unicode="&#x14e;" horiz-adv-x="1660" 
d="M94 715q0 101 26 197t73 177t114.5 149t148.5 115.5t176.5 74t196.5 26.5q202 0 371.5 -98.5t268 -268.5t98.5 -372t-98.5 -371t-268 -266.5t-371.5 -97.5q-151 0 -287.5 57.5t-234.5 155.5t-155.5 234.5t-57.5 287.5zM299 715q0 -144 71.5 -266.5t193.5 -193.5t265 -71
q108 0 206.5 42t170 113t114 169.5t42.5 206.5q0 143 -71.5 266t-194.5 195.5t-267 72.5q-143 0 -265.5 -72.5t-193.5 -195.5t-71 -266zM831 1573q-109 0 -188 67.5t-94 169.5q-3 18 6 30.5t27 12.5h59q29 0 37 -32q18 -54 58 -86.5t95 -32.5q49 0 90.5 35t57.5 84
q10 32 37 32h63q18 0 27 -12.5t6 -30.5q-17 -102 -96 -169.5t-185 -67.5z" />
    <glyph glyph-name="obreve" unicode="&#x14f;" horiz-adv-x="970" 
d="M72 412q0 174 121 301t292 127t292.5 -127t121.5 -301q0 -178 -121.5 -305t-292.5 -127t-292 127t-121 305zM254 412q0 -106 67.5 -181t163.5 -75q97 0 164.5 75t67.5 181q0 103 -68 176.5t-164 73.5t-163.5 -73.5t-67.5 -176.5zM487 1083q-109 0 -188 68t-94 170
q-3 19 6 31t27 12h59q29 0 37 -31q18 -56 57.5 -88.5t95.5 -32.5q50 0 91.5 35t56.5 86q10 31 37 31h63q18 0 27 -12t6 -31q-17 -102 -96 -170t-185 -68z" />
    <glyph glyph-name="Ohungarumlaut" unicode="&#x150;" horiz-adv-x="1660" 
d="M94 715q0 101 26 197t73 177t114.5 149t148.5 115.5t176.5 74t196.5 26.5q202 0 371.5 -98.5t268 -268.5t98.5 -372t-98.5 -371t-268 -266.5t-371.5 -97.5q-151 0 -287.5 57.5t-234.5 155.5t-155.5 234.5t-57.5 287.5zM299 715q0 -144 71.5 -266.5t193.5 -193.5t265 -71
q108 0 206.5 42t170 113t114 169.5t42.5 206.5q0 143 -71.5 266t-194.5 195.5t-267 72.5q-143 0 -265.5 -72.5t-193.5 -195.5t-71 -266zM1008 1573q-24 0 -34 11.5t-5 27.5l88 289q11 38 39 38h116q29 0 39.5 -15.5t-2.5 -35.5l-159 -284q-18 -31 -37 -31h-45zM668 1573
q-21 0 -32.5 12t-6.5 27l88 289q11 38 39 38h116q28 0 38 -15.5t-1 -35.5l-159 -284q-16 -31 -37 -31h-45z" />
    <glyph glyph-name="ohungarumlaut" unicode="&#x151;" horiz-adv-x="970" 
d="M72 412q0 174 121 301t292 127t292.5 -127t121.5 -301q0 -178 -121.5 -305t-292.5 -127t-292 127t-121 305zM254 412q0 -106 67.5 -181t163.5 -75q97 0 164.5 75t67.5 181q0 103 -68 176.5t-164 73.5t-163.5 -73.5t-67.5 -176.5zM641 1067q-24 0 -34 11.5t-5 27.5l90 289
q12 39 39 39h117q28 0 38.5 -16.5t-1.5 -35.5l-160 -284q-15 -31 -37 -31h-47zM301 1067q-22 0 -33 11.5t-6 27.5l90 289q12 39 39 39h117q28 0 38 -16t-1 -36l-160 -284q-15 -31 -37 -31h-47z" />
    <glyph glyph-name="OE" unicode="&#x152;" horiz-adv-x="1986" 
d="M94 715q0 101 26 197t73 177t114.5 149t148.5 115.5t176.5 74t196.5 26.5q45 0 92.5 -5t72.5 -10l24 -5h819q17 0 28 -11.5t11 -27.5v-115q0 -16 -11 -27.5t-28 -11.5h-647v-418h547q15 0 27 -12t12 -27v-114q0 -17 -11.5 -28t-27.5 -11h-547v-441h647q17 0 28 -11.5
t11 -26.5v-113q0 -16 -11 -27.5t-28 -11.5h-819q-101 -20 -189 -20q-151 0 -287.5 57.5t-234.5 155.5t-155.5 234.5t-57.5 287.5zM299 715q0 -144 71.5 -267t193.5 -194.5t265 -71.5q86 0 150 21v1024q-77 22 -150 22q-143 0 -265.5 -72.5t-193.5 -195.5t-71 -266z" />
    <glyph glyph-name="oe" unicode="&#x153;" horiz-adv-x="1548" 
d="M72 414q0 174 121 300t292 126q91 0 172 -41.5t138 -112.5q118 154 313 154q157 0 267 -106.5t110 -272.5q0 -27 -4 -55q-1 -15 -13 -25t-26 -10h-553q11 -88 76 -154.5t155 -66.5q95 0 183 55q15 8 23 11.5t16.5 2t15.5 -11.5q10 -12 29.5 -36t29.5 -36q23 -31 -6 -53
q-48 -43 -127.5 -72.5t-175.5 -29.5q-192 0 -313 151q-57 -71 -137.5 -111t-172.5 -40q-171 0 -292 128t-121 306zM899 500h395q-3 76 -58 127t-132 51q-81 0 -138.5 -50.5t-66.5 -127.5zM254 414q0 -107 67 -182.5t164 -75.5q96 0 163 76t67 182q0 103 -67 175.5t-163 72.5
q-98 0 -164.5 -72.5t-66.5 -175.5z" />
    <glyph glyph-name="Racute" unicode="&#x154;" horiz-adv-x="1361" 
d="M199 39v1356q0 16 11 27.5t28 11.5h557q121 0 223.5 -58.5t162.5 -159.5t60 -221q0 -138 -83 -249t-220 -166l281 -521q11 -20 0.5 -39.5t-35.5 -19.5h-160q-24 0 -33 18l-272 543h-309v-522q0 -15 -12 -27t-27 -12h-133q-17 0 -28 11.5t-11 27.5zM414 737h364
q101 0 175.5 74.5t74.5 179.5q0 99 -75 171.5t-175 72.5h-364v-498zM506 1585q-37 -17 -49 10l-29 58q-5 13 -1 23.5t13 15.5l322 186q8 7 27 6.5t26 -12.5l47 -90q8 -15 4.5 -29t-16.5 -20z" />
    <glyph glyph-name="racute" unicode="&#x155;" horiz-adv-x="688" 
d="M133 39v741q0 15 12 27t27 12h59q11 0 21.5 -8t13.5 -20l23 -70q9 13 23.5 28t44 38t74.5 38t97 15q43 0 79.5 -7t59 -25t11.5 -44l-49 -100q-15 -34 -49 -19q-28 14 -70 14q-41 0 -76.5 -13t-58 -32.5t-33.5 -32t-16 -22.5v-520q0 -24 -13.5 -31.5t-42.5 -7.5h-98
q-15 0 -27 12t-12 27zM242 1112q-36 -18 -49 8l-29 60q-5 12 -1.5 23t13.5 16l322 186q8 7 27 6.5t26 -12.5l47 -90q7 -15 3.5 -29t-15.5 -20z" />
    <glyph glyph-name="Rcommaaccent" unicode="&#x156;" horiz-adv-x="1359" 
d="M199 39v1356q0 16 11 27.5t28 11.5h557q121 0 223.5 -58.5t162.5 -159.5t60 -221q0 -138 -83 -249t-220 -166l281 -521q11 -20 0.5 -39.5t-35.5 -19.5h-160q-24 0 -33 18l-272 543h-309v-522q0 -15 -12 -27t-27 -12h-133q-17 0 -28 11.5t-11 27.5zM414 737h364
q101 0 175.5 74.5t74.5 179.5q0 99 -75 171.5t-175 72.5h-364v-498zM664 -188q63 0 107 -46.5t44 -154.5q0 -65 -18.5 -128t-49 -111t-57 -80t-53.5 -56q-28 -25 -47 -2l-31 29q-8 9 -5.5 23t15.5 26q15 12 30 27.5t42 48.5t43.5 80t17.5 98q-18 -6 -45 -6q-52 0 -89.5 36.5
t-37.5 88.5q0 54 39 90.5t95 36.5z" />
    <glyph glyph-name="rcommaaccent" unicode="&#x157;" horiz-adv-x="688" 
d="M133 39v741q0 15 12 27t27 12h59q11 0 21.5 -8t13.5 -20l23 -70q9 13 23.5 28t44 38t74.5 38t97 15q43 0 79.5 -7t59 -25t11.5 -44l-49 -100q-15 -34 -49 -19q-28 14 -70 14q-41 0 -76.5 -13t-58 -32.5t-33.5 -32t-16 -22.5v-520q0 -24 -13.5 -31.5t-42.5 -7.5h-98
q-15 0 -27 12t-12 27zM221 -188q63 0 107.5 -46.5t44.5 -154.5q0 -65 -18.5 -128t-49 -111t-57 -80t-53.5 -56q-28 -25 -48 -2l-30 29q-8 9 -5.5 23t15.5 26q15 12 30 27.5t42 48.5t43.5 80t17.5 98q-18 -6 -45 -6q-52 0 -89.5 36.5t-37.5 88.5q0 54 38.5 90.5t94.5 36.5z
" />
    <glyph glyph-name="Rcaron" unicode="&#x158;" horiz-adv-x="1361" 
d="M199 39v1356q0 16 11 27.5t28 11.5h557q121 0 223.5 -58.5t162.5 -159.5t60 -221q0 -138 -83 -249t-220 -166l281 -521q11 -20 0.5 -39.5t-35.5 -19.5h-160q-24 0 -33 18l-272 543h-309v-522q0 -15 -12 -27t-27 -12h-133q-17 0 -28 11.5t-11 27.5zM414 737h364
q101 0 175.5 74.5t74.5 179.5q0 99 -75 171.5t-175 72.5h-364v-498zM608 1573l-256 201q-10 7 -14 17t2 21l41 56q9 13 18.5 14.5t28.5 -8.5l205 -133l205 133q20 11 28.5 9t18.5 -15l41 -56q14 -20 -13 -38l-256 -201q-11 -7 -25.5 -7t-23.5 7z" />
    <glyph glyph-name="rcaron" unicode="&#x159;" horiz-adv-x="688" 
d="M133 39v741q0 15 12 27t27 12h59q11 0 21.5 -8t13.5 -20l23 -70q9 13 23.5 28t44 38t74.5 38t97 15q43 0 79.5 -7t59 -25t11.5 -44l-49 -100q-15 -34 -49 -19q-28 14 -70 14q-41 0 -76.5 -13t-58 -32.5t-33.5 -32t-16 -22.5v-520q0 -24 -13.5 -31.5t-42.5 -7.5h-98
q-15 0 -27 12t-12 27zM324 1096l-256 200q-10 7 -14.5 17.5t1.5 21.5l41 56q9 13 18.5 14.5t28.5 -8.5l205 -133l205 133q20 11 28.5 9t18.5 -15l41 -56q6 -11 2 -21.5t-14 -17.5l-256 -200q-11 -8 -25.5 -8t-23.5 8z" />
    <glyph glyph-name="Sacute" unicode="&#x15a;" horiz-adv-x="1099" 
d="M119 141q-11 10 -16 17t-5.5 20t8.5 29q9 14 27 42.5t27 41.5q14 20 33 24.5t36 -8.5q15 -12 36.5 -27.5t70 -45.5t108 -49t113.5 -19q103 0 167 55t64 135q0 89 -74.5 154t-234.5 131q-69 29 -120 56.5t-101 66t-81.5 81.5t-51 102t-19.5 128q0 50 15 101t49.5 101.5
t85 89.5t128 63t171.5 24q71 0 140 -15.5t121.5 -40.5t76 -38.5t41.5 -26.5q14 -9 19.5 -26.5t-7.5 -42.5q-8 -12 -25.5 -38.5t-25.5 -39.5q-13 -21 -31.5 -27.5t-40.5 6.5q-1 0 -11 6.5t-21.5 13t-30 16.5t-36.5 18.5t-41 18t-44.5 16t-46 10.5t-45.5 4q-61 0 -108 -18
t-73 -46.5t-38.5 -59t-12.5 -61.5q0 -84 63 -143.5t197 -114.5q80 -32 138 -60.5t119 -70t98.5 -86t61.5 -106.5t24 -135q0 -162 -130 -274.5t-327 -112.5q-87 0 -167.5 19.5t-136.5 50.5t-86.5 52t-49.5 39zM422 1585q-37 -17 -49 10l-29 58q-5 13 -1 23.5t13 15.5l322 186
q8 7 27 6.5t26 -12.5l47 -90q8 -15 4.5 -29t-16.5 -20z" />
    <glyph glyph-name="sacute" unicode="&#x15b;" horiz-adv-x="733" 
d="M96 63q-10 6 -13.5 18.5t1.5 24.5l43 80q6 12 21 16t30 -5q10 -6 28 -15t68.5 -24t94.5 -15q46 0 73 18.5t27 51.5q0 39 -33.5 65.5t-124.5 67.5q-108 47 -170.5 110.5t-62.5 157.5q0 87 72 156.5t208 69.5q145 0 242 -64q14 -9 19 -26.5t-3 -32.5l-36 -70
q-7 -13 -24.5 -17.5t-29.5 1.5q-90 43 -168 43q-48 0 -70 -17.5t-22 -44.5q0 -19 8 -34t29 -28.5t38 -22t56 -25.5q54 -24 87 -40.5t72.5 -43t61.5 -53t37 -64t15 -82.5q0 -98 -85 -168.5t-218 -70.5q-169 0 -271 83zM246 1112q-36 -18 -49 8l-29 60q-5 12 -1.5 23t13.5 16
l322 186q8 7 27 6.5t26 -12.5l47 -90q7 -15 3.5 -29t-15.5 -20z" />
    <glyph glyph-name="Scircumflex" unicode="&#x15c;" horiz-adv-x="1099" 
d="M119 141q-11 10 -16 17t-5.5 20t8.5 29q9 14 27 42.5t27 41.5q14 20 33 24.5t36 -8.5q15 -12 36.5 -27.5t70 -45.5t108 -49t113.5 -19q103 0 167 55t64 135q0 89 -74.5 154t-234.5 131q-69 29 -120 56.5t-101 66t-81.5 81.5t-51 102t-19.5 128q0 50 15 101t49.5 101.5
t85 89.5t128 63t171.5 24q71 0 140 -15.5t121.5 -40.5t76 -38.5t41.5 -26.5q14 -9 19.5 -26.5t-7.5 -42.5q-8 -12 -25.5 -38.5t-25.5 -39.5q-13 -21 -31.5 -27.5t-40.5 6.5q-1 0 -11 6.5t-21.5 13t-30 16.5t-36.5 18.5t-41 18t-44.5 16t-46 10.5t-45.5 4q-61 0 -108 -18
t-73 -46.5t-38.5 -59t-12.5 -61.5q0 -84 63 -143.5t197 -114.5q80 -32 138 -60.5t119 -70t98.5 -86t61.5 -106.5t24 -135q0 -162 -130 -274.5t-327 -112.5q-87 0 -167.5 19.5t-136.5 50.5t-86.5 52t-49.5 39zM342 1575q-19 -10 -28.5 -8.5t-18.5 14.5l-41 55q-6 11 -2 21.5
t14 17.5l256 201q9 8 24 8t25 -8l256 -201q10 -7 14.5 -17.5t-1.5 -21.5l-41 -55q-10 -13 -18.5 -15t-28.5 9l-205 133z" />
    <glyph glyph-name="scircumflex" unicode="&#x15d;" horiz-adv-x="733" 
d="M96 63q-10 6 -13.5 18.5t1.5 24.5l43 80q6 12 21 16t30 -5q10 -6 28 -15t68.5 -24t94.5 -15q46 0 73 18.5t27 51.5q0 39 -33.5 65.5t-124.5 67.5q-108 47 -170.5 110.5t-62.5 157.5q0 87 72 156.5t208 69.5q145 0 242 -64q14 -9 19 -26.5t-3 -32.5l-36 -70
q-7 -13 -24.5 -17.5t-29.5 1.5q-90 43 -168 43q-48 0 -70 -17.5t-22 -44.5q0 -19 8 -34t29 -28.5t38 -22t56 -25.5q54 -24 87 -40.5t72.5 -43t61.5 -53t37 -64t15 -82.5q0 -98 -85 -168.5t-218 -70.5q-169 0 -271 83zM113 1110l-41 55q-6 11 -2 21.5t14 17.5l256 201
q9 7 24 7t25 -7l256 -201q10 -7 14 -17.5t-2 -21.5l-41 -55q-10 -13 -18.5 -15t-28.5 9l-204 133l-205 -133q-19 -10 -28.5 -8.5t-18.5 14.5z" />
    <glyph glyph-name="Scedilla" unicode="&#x15e;" horiz-adv-x="1103" 
d="M121 141q-17 15 -20.5 26t8.5 40q9 14 26.5 42.5t26.5 41.5q14 20 33 24.5t36 -8.5q15 -12 36.5 -27.5t70 -45.5t108 -49t113.5 -19q103 0 167.5 55t64.5 135q0 88 -74.5 153.5t-235.5 131.5q-87 37 -148 73t-115 87t-81.5 119.5t-27.5 154.5q0 50 15 101t49.5 101.5
t84.5 89.5t127.5 63t171.5 24q71 0 140 -15.5t121.5 -40.5t76 -38.5t41.5 -26.5q14 -9 19.5 -26.5t-7.5 -42.5l-51 -78q-13 -21 -31.5 -27.5t-40.5 6.5q-1 0 -11 6.5t-21.5 13t-30 16.5t-36.5 18.5t-41 18t-44.5 16t-46 10.5t-45.5 4q-61 0 -108 -18t-73 -46.5t-38.5 -59
t-12.5 -61.5q0 -84 63.5 -143.5t197.5 -114.5q80 -32 138 -60.5t118.5 -70t98 -86t61.5 -106.5t24 -135q0 -160 -128.5 -272t-322.5 -115v-89q95 -12 151 -67.5t56 -142.5q0 -89 -62 -151t-153 -62q-45 0 -87 19.5t-69 51.5q-12 14 -10.5 29t13.5 26l34 29q10 8 24 7.5
t21 -9.5q27 -31 74 -31q35 0 57.5 25t22.5 61q0 97 -160 115q-35 7 -35 39v160q-83 14 -158.5 47.5t-110 58.5t-54.5 45z" />
    <glyph glyph-name="scedilla" unicode="&#x15f;" horiz-adv-x="737" 
d="M98 63q-10 6 -13.5 18.5t1.5 24.5l43 80q6 12 21 16t30 -5q10 -6 28 -15t68.5 -24t94.5 -15q46 0 73 18.5t27 51.5q0 39 -33.5 65.5t-124.5 67.5q-108 47 -170.5 110.5t-62.5 157.5q0 87 72 156.5t208 69.5q145 0 242 -64q14 -9 19 -26.5t-3 -32.5l-36 -70
q-7 -13 -24.5 -17.5t-29.5 1.5q-90 43 -168 43q-48 0 -70 -17.5t-22 -44.5q0 -19 8 -34t29 -28.5t38 -22t56 -25.5q54 -24 87 -40.5t72.5 -43t61.5 -53t37 -64t15 -82.5q0 -98 -83.5 -168t-213.5 -71v-86q95 -12 151 -68t56 -143q0 -89 -62 -151t-153 -62q-45 0 -87 19.5
t-69 51.5q-12 14 -11 29.5t13 26.5l35 28q10 8 24 7.5t21 -9.5q27 -31 74 -31q35 0 57 25t22 61q0 97 -159 115q-35 7 -35 39v160q-96 21 -154 71z" />
    <glyph glyph-name="Scaron" unicode="&#x160;" horiz-adv-x="1099" 
d="M119 141q-11 10 -16 17t-5.5 20t8.5 29q9 14 27 42.5t27 41.5q14 20 33 24.5t36 -8.5q15 -12 36.5 -27.5t70 -45.5t108 -49t113.5 -19q103 0 167 55t64 135q0 89 -74.5 154t-234.5 131q-69 29 -120 56.5t-101 66t-81.5 81.5t-51 102t-19.5 128q0 50 15 101t49.5 101.5
t85 89.5t128 63t171.5 24q71 0 140 -15.5t121.5 -40.5t76 -38.5t41.5 -26.5q14 -9 19.5 -26.5t-7.5 -42.5q-8 -12 -25.5 -38.5t-25.5 -39.5q-13 -21 -31.5 -27.5t-40.5 6.5q-1 0 -11 6.5t-21.5 13t-30 16.5t-36.5 18.5t-41 18t-44.5 16t-46 10.5t-45.5 4q-61 0 -108 -18
t-73 -46.5t-38.5 -59t-12.5 -61.5q0 -84 63 -143.5t197 -114.5q80 -32 138 -60.5t119 -70t98.5 -86t61.5 -106.5t24 -135q0 -162 -130 -274.5t-327 -112.5q-87 0 -167.5 19.5t-136.5 50.5t-86.5 52t-49.5 39zM520 1573l-256 201q-10 7 -14 17t2 21l41 56q9 13 18.5 14.5
t28.5 -8.5l205 -133l205 133q20 11 28.5 9t18.5 -15l41 -56q14 -20 -13 -38l-256 -201q-10 -7 -25 -7t-24 7z" />
    <glyph glyph-name="scaron" unicode="&#x161;" horiz-adv-x="733" 
d="M96 63q-10 6 -13.5 18.5t1.5 24.5l43 80q6 12 21 16t30 -5q10 -6 28 -15t68.5 -24t94.5 -15q46 0 73 18.5t27 51.5q0 39 -33.5 65.5t-124.5 67.5q-108 47 -170.5 110.5t-62.5 157.5q0 87 72 156.5t208 69.5q145 0 242 -64q14 -9 19 -26.5t-3 -32.5l-36 -70
q-7 -13 -24.5 -17.5t-29.5 1.5q-90 43 -168 43q-48 0 -70 -17.5t-22 -44.5q0 -19 8 -34t29 -28.5t38 -22t56 -25.5q54 -24 87 -40.5t72.5 -43t61.5 -53t37 -64t15 -82.5q0 -98 -85 -168.5t-218 -70.5q-169 0 -271 83zM336 1096l-256 200q-10 7 -14 17.5t2 21.5l41 56
q9 13 18.5 14.5t28.5 -8.5l204 -133l205 133q20 11 28.5 9t18.5 -15l41 -56q6 -11 2 -21.5t-14 -17.5l-256 -200q-11 -8 -25.5 -8t-23.5 8z" />
    <glyph glyph-name="Tcommaaccent" unicode="&#x162;" 
d="M395 39v1202h-334q-17 0 -27.5 11.5t-10.5 27.5v115q0 16 10.5 27.5t27.5 11.5h881q17 0 28 -11.5t11 -27.5v-115q0 -16 -11 -27.5t-28 -11.5h-334v-1202q0 -15 -12 -27t-27 -12h-135q-15 0 -27 12t-12 27zM496 -188q63 0 107 -46.5t44 -154.5q0 -65 -18.5 -128t-49 -111
t-57 -80t-53.5 -56q-28 -25 -47 -2l-31 29q-8 9 -5.5 23t15.5 26q15 12 30.5 27.5t42 48.5t43.5 80t18 98q-18 -6 -46 -6q-52 0 -89.5 36.5t-37.5 88.5q0 54 39 90.5t95 36.5z" />
    <glyph glyph-name="tcommaaccent" unicode="&#x163;" horiz-adv-x="706" 
d="M184 223v426h-86q-17 0 -28 11.5t-11 27.5v92q0 17 11 28t28 11h86v228q0 15 12 26.5t27 11.5l117 2q15 0 26 -11.5t11 -26.5v-230h209q17 0 28 -11t11 -28v-92q0 -16 -11 -27.5t-28 -11.5h-209v-405q0 -49 16 -65.5t49 -16.5q48 0 125 37q32 14 47 -19l37 -90
q14 -33 -18 -49q-25 -15 -100.5 -38t-139.5 -23q-115 0 -162 62.5t-47 180.5zM389 -188q63 0 107.5 -46.5t44.5 -154.5q0 -65 -19 -128t-49.5 -111t-57 -80t-53.5 -56q-28 -25 -47 -2l-30 29q-8 9 -5.5 23t15.5 26q15 12 30 27.5t42 48.5t43.5 80t17.5 98q-18 -6 -45 -6
q-52 0 -89.5 36.5t-37.5 88.5q0 54 38.5 90.5t94.5 36.5z" />
    <glyph glyph-name="Tcaron" unicode="&#x164;" 
d="M395 39v1202h-334q-17 0 -27.5 11.5t-10.5 27.5v115q0 16 10.5 27.5t27.5 11.5h881q17 0 28 -11.5t11 -27.5v-115q0 -16 -11 -27.5t-28 -11.5h-334v-1202q0 -15 -12 -27t-27 -12h-135q-15 0 -27 12t-12 27zM475 1573l-256 201q-10 7 -14 17t2 21l41 56q9 13 18.5 14.5
t28.5 -8.5l205 -133l205 133q20 11 28.5 9t18.5 -15l41 -56q14 -20 -13 -38l-256 -201q-11 -7 -25.5 -7t-23.5 7z" />
    <glyph glyph-name="tcaron" unicode="&#x165;" horiz-adv-x="708" 
d="M186 223v426h-86q-17 0 -28 11.5t-11 27.5v92q0 17 11 28t28 11h86v228q0 15 12 26.5t27 11.5l117 2q15 0 26 -11.5t11 -26.5v-230h209q17 0 28 -11t11 -28v-92q0 -16 -11 -27.5t-28 -11.5h-209v-405q0 -49 16 -65.5t49 -16.5q48 0 125 37q32 14 47 -19l37 -90
q14 -33 -18 -49q-25 -15 -100.5 -38t-139.5 -23q-115 0 -162 62.5t-47 180.5zM791 877l-29 28q-20 21 8 49q16 12 31 27.5t42 49t43.5 80t16.5 97.5q-12 -6 -43 -6q-53 0 -90 36.5t-37 88.5q0 54 37.5 90.5t93.5 36.5q63 0 108.5 -46.5t45.5 -154.5q0 -65 -18.5 -128
t-49 -110.5t-57 -79.5t-53.5 -56t-49 -2z" />
    <glyph glyph-name="Tbar" unicode="&#x166;" 
d="M395 39v561h-215q-15 0 -26 12t-11 27v20q0 15 11 27t26 12h215v543h-334q-17 0 -27.5 11.5t-10.5 27.5v115q0 16 10.5 27.5t27.5 11.5h881q17 0 28 -11.5t11 -27.5v-115q0 -16 -11 -27.5t-28 -11.5h-334v-543h213q17 0 28 -11.5t11 -27.5v-22q0 -15 -11 -26t-28 -11
h-213v-561q0 -15 -12 -27t-27 -12h-135q-15 0 -27 12t-12 27z" />
    <glyph glyph-name="tbar" unicode="&#x167;" horiz-adv-x="708" 
d="M186 223v127h-73q-15 0 -26 12t-11 27v21q0 15 11 27t26 12h73v202h-86q-17 0 -28 11.5t-11 27.5v90q0 17 11 28t28 11h86v228q0 15 12 26.5t27 11.5l117 2q15 0 26 -11.5t11 -26.5v-230h209q17 0 28 -11t11 -28v-90q0 -16 -11 -27.5t-28 -11.5h-209v-202h180
q17 0 28 -11.5t11 -27.5v-23q0 -15 -11 -26t-28 -11h-180v-102q0 -49 16 -65.5t49 -16.5q56 0 125 33q32 14 47 -19l37 -90q14 -33 -18 -49q-25 -15 -100.5 -38t-139.5 -23q-115 0 -162 62.5t-47 180.5z" />
    <glyph glyph-name="Utilde" unicode="&#x168;" horiz-adv-x="1476" 
d="M182 535v860q0 15 12 27t27 12h137q17 0 28 -11.5t11 -27.5v-846q0 -157 93 -261t247 -104q155 0 249.5 102.5t94.5 258.5v850q0 16 11 27.5t28 11.5h137q15 0 27 -12t12 -27v-860q0 -154 -71.5 -281t-200 -200.5t-287.5 -73.5q-158 0 -285.5 73.5t-198.5 200.5t-71 281z
M512 1622l-47 31q-26 15 -12 47l16.5 33t26.5 42t40 48.5t51 33t66 15.5q40 0 75.5 -20.5t56.5 -45t46 -45t46 -20.5q16 0 30.5 9.5t21 18.5t18 29t14.5 25q21 35 51 18q5 -4 17 -11t21.5 -14t14.5 -14q11 -17 -6 -55q-10 -22 -23.5 -44t-37 -49t-58 -44t-74.5 -17
q-35 0 -69.5 21t-57 45.5t-48 45.5t-44.5 21q-51 0 -88 -84q-8 -19 -17 -24t-30 4z" />
    <glyph glyph-name="utilde" unicode="&#x169;" horiz-adv-x="1011" 
d="M123 367v413q0 15 12 27t27 12h117q15 0 26.5 -12t11.5 -27v-420q0 -99 44.5 -151.5t123.5 -52.5q80 0 138.5 48.5t64.5 86.5v489q0 23 10.5 31t34.5 8h107q15 0 27 -12t12 -27v-741q0 -15 -12 -27t-27 -12h-58q-26 0 -37 33l-20 59l-10 -9q-10 -9 -17 -15.5t-22.5 -18
t-30 -20t-36.5 -18.5t-44.5 -16t-51 -10.5t-58.5 -4.5q-89 0 -155 30t-103.5 84t-55.5 122t-18 151zM268 1163l-47 31q-26 15 -12 47q13 27 23.5 44.5t37 53t62.5 55t78 19.5q40 0 75.5 -20.5t56 -45t45.5 -45t46 -20.5q16 0 30.5 9.5t21 18.5t18 29t14.5 25q21 35 51 18
q5 -4 17 -11t21.5 -14t14.5 -14q11 -17 -6 -55q-10 -22 -23.5 -43.5t-37 -49t-57.5 -44t-74 -16.5q-35 0 -69.5 21t-57.5 45.5t-48.5 45.5t-44.5 21q-51 0 -88 -84q-8 -19 -17 -24t-30 3z" />
    <glyph glyph-name="Umacron" unicode="&#x16a;" horiz-adv-x="1476" 
d="M182 535v860q0 15 12 27t27 12h137q17 0 28 -11.5t11 -27.5v-846q0 -157 93 -261t247 -104q155 0 249.5 102.5t94.5 258.5v850q0 16 11 27.5t28 11.5h137q15 0 27 -12t12 -27v-860q0 -154 -71.5 -281t-200 -200.5t-287.5 -73.5q-158 0 -285.5 73.5t-198.5 200.5t-71 281z
M483 1667q-17 0 -28 11t-11 26v57q0 17 11 28t28 11h525q17 0 28 -11t11 -28v-57q0 -15 -11 -26t-28 -11h-525z" />
    <glyph glyph-name="umacron" unicode="&#x16b;" horiz-adv-x="1011" 
d="M123 367v413q0 15 12 27t27 12h117q15 0 26.5 -12t11.5 -27v-420q0 -99 44.5 -151.5t123.5 -52.5q80 0 138.5 48.5t64.5 86.5v489q0 23 10.5 31t34.5 8h107q15 0 27 -12t12 -27v-741q0 -15 -12 -27t-27 -12h-58q-26 0 -37 33l-20 59l-10 -9q-10 -9 -17 -15.5t-22.5 -18
t-30 -20t-36.5 -18.5t-44.5 -16t-51 -10.5t-58.5 -4.5q-89 0 -155 30t-103.5 84t-55.5 122t-18 151zM252 1180q-17 0 -28 11t-11 26v57q0 17 11 28t28 11h524q17 0 28 -11t11 -28v-57q0 -15 -11 -26t-28 -11h-524z" />
    <glyph glyph-name="Ubreve" unicode="&#x16c;" horiz-adv-x="1476" 
d="M182 535v860q0 15 12 27t27 12h137q17 0 28 -11.5t11 -27.5v-846q0 -157 93 -261t247 -104q155 0 249.5 102.5t94.5 258.5v850q0 16 11 27.5t28 11.5h137q15 0 27 -12t12 -27v-860q0 -154 -71.5 -281t-200 -200.5t-287.5 -73.5q-158 0 -285.5 73.5t-198.5 200.5t-71 281z
M752 1573q-109 0 -188.5 67.5t-94.5 169.5q-3 18 6 30.5t27 12.5h59q29 0 37 -32q18 -54 58 -86.5t96 -32.5q49 0 90 35t57 84q10 32 37 32h63q18 0 27 -12.5t6 -30.5q-17 -102 -95.5 -169.5t-184.5 -67.5z" />
    <glyph glyph-name="ubreve" unicode="&#x16d;" horiz-adv-x="1011" 
d="M123 367v413q0 15 12 27t27 12h117q15 0 26.5 -12t11.5 -27v-420q0 -99 44.5 -151.5t123.5 -52.5q80 0 138.5 48.5t64.5 86.5v489q0 23 10.5 31t34.5 8h107q15 0 27 -12t12 -27v-741q0 -15 -12 -27t-27 -12h-58q-26 0 -37 33l-20 59l-10 -9q-10 -9 -17 -15.5t-22.5 -18
t-30 -20t-36.5 -18.5t-44.5 -16t-51 -10.5t-58.5 -4.5q-89 0 -155 30t-103.5 84t-55.5 122t-18 151zM514 1083q-109 0 -188.5 68t-94.5 170q-3 19 6 31t27 12h60q28 0 36 -31q18 -55 58 -88t96 -33q50 0 91.5 35t56.5 86q10 31 36 31h64q18 0 27 -12t6 -31
q-17 -102 -96 -170t-185 -68z" />
    <glyph glyph-name="Uring" unicode="&#x16e;" horiz-adv-x="1476" 
d="M182 535v860q0 15 12 27t27 12h137q17 0 28 -11.5t11 -27.5v-846q0 -157 93 -261t247 -104q155 0 249.5 102.5t94.5 258.5v850q0 16 11 27.5t28 11.5h137q15 0 27 -12t12 -27v-860q0 -154 -71.5 -281t-200 -200.5t-287.5 -73.5q-158 0 -285.5 73.5t-198.5 200.5t-71 281z
M743 1548q-95 0 -161 66.5t-66 161.5t66 161t161 66q94 0 161 -66t67 -161t-67 -161.5t-161 -66.5zM743 1661q44 0 76.5 35t32.5 80q0 44 -32.5 76t-76.5 32q-47 0 -80.5 -32t-33.5 -76q0 -46 33 -80.5t81 -34.5z" />
    <glyph glyph-name="uring" unicode="&#x16f;" horiz-adv-x="1011" 
d="M123 367v413q0 15 12 27t27 12h117q15 0 26.5 -12t11.5 -27v-420q0 -99 44.5 -151.5t123.5 -52.5q80 0 138.5 48.5t64.5 86.5v489q0 23 10.5 31t34.5 8h107q15 0 27 -12t12 -27v-741q0 -15 -12 -27t-27 -12h-58q-26 0 -37 33l-20 59l-10 -9q-10 -9 -17 -15.5t-22.5 -18
t-30 -20t-36.5 -18.5t-44.5 -16t-51 -10.5t-58.5 -4.5q-89 0 -155 30t-103.5 84t-55.5 122t-18 151zM506 999q-95 0 -161 66.5t-66 161.5t66 161t161 66q94 0 160.5 -66t66.5 -161t-66.5 -161.5t-160.5 -66.5zM506 1112q44 0 76 35t32 80q0 44 -32 76t-76 32
q-50 0 -82.5 -31.5t-32.5 -76.5q0 -46 33 -80.5t82 -34.5z" />
    <glyph glyph-name="Uhungarumlaut" unicode="&#x170;" horiz-adv-x="1476" 
d="M182 535v860q0 15 12 27t27 12h137q17 0 28 -11.5t11 -27.5v-846q0 -157 93 -261t247 -104q155 0 249.5 102.5t94.5 258.5v850q0 16 11 27.5t28 11.5h137q15 0 27 -12t12 -27v-860q0 -154 -71.5 -281t-200 -200.5t-287.5 -73.5q-158 0 -285.5 73.5t-198.5 200.5t-71 281z
M893 1573q-24 0 -34 11.5t-5 27.5l88 289q11 38 39 38h117q29 0 39.5 -15.5t-2.5 -35.5l-160 -284q-18 -31 -37 -31h-45zM553 1573q-21 0 -32.5 12t-6.5 27l88 289q11 38 39 38h117q28 0 38 -15.5t-1 -35.5l-160 -284q-15 -31 -37 -31h-45z" />
    <glyph glyph-name="uhungarumlaut" unicode="&#x171;" horiz-adv-x="1011" 
d="M123 367v413q0 15 12 27t27 12h117q15 0 26.5 -12t11.5 -27v-420q0 -99 44.5 -151.5t123.5 -52.5q80 0 138.5 48.5t64.5 86.5v489q0 23 10.5 31t34.5 8h107q15 0 27 -12t12 -27v-741q0 -15 -12 -27t-27 -12h-58q-26 0 -37 33l-20 59l-10 -9q-10 -9 -17 -15.5t-22.5 -18
t-30 -20t-36.5 -18.5t-44.5 -16t-51 -10.5t-58.5 -4.5q-89 0 -155 30t-103.5 84t-55.5 122t-18 151zM662 1067q-24 0 -34 11.5t-5 27.5l90 289q12 39 39 39h116q28 0 38.5 -16.5t-1.5 -35.5l-160 -284q-15 -31 -36 -31h-47zM322 1067q-22 0 -33 11.5t-6 27.5l90 289
q12 39 39 39h116q28 0 38 -16t-1 -36l-159 -284q-16 -31 -37 -31h-47z" />
    <glyph glyph-name="Uogonek" unicode="&#x172;" horiz-adv-x="1482" 
d="M184 535v860q0 15 12 27t27 12h137q17 0 28 -11.5t11 -27.5v-846q0 -157 93 -261t247 -104q155 0 249.5 102.5t94.5 258.5v850q0 16 11 27.5t28 11.5h138q15 0 26.5 -12t11.5 -27v-860q0 -225 -146 -381.5t-372 -171.5q-78 -87 -78 -183q0 -53 35.5 -88t91.5 -35
q41 0 103 25q15 6 27 -3t12 -28v-57q0 -20 -29 -37q-58 -25 -139 -25q-102 0 -170 55.5t-68 162.5q0 115 97 217q-211 26 -344.5 180t-133.5 369z" />
    <glyph glyph-name="uogonek" unicode="&#x173;" horiz-adv-x="1009" 
d="M121 367v413q0 15 12 27t27 12h116q15 0 27 -12t12 -27v-411q0 -99 44.5 -152t123.5 -53q80 0 138.5 48.5t64.5 86.5v481q0 23 10.5 31t34.5 8h107q15 0 27 -12t12 -27v-741q0 -15 -11 -26t-26 -13q-97 -97 -97 -201q0 -53 35.5 -88t91.5 -35q41 0 103 25q15 6 27 -3
t12 -28v-57q0 -20 -29 -37q-58 -25 -139 -25q-102 0 -170 55.5t-68 162.5q0 144 136 252q2 1 3 2l-22 69l-10 -9q-10 -9 -17 -15.5t-22.5 -18t-30 -20t-36.5 -18.5t-44.5 -16t-51 -10.5t-58.5 -4.5q-89 0 -155 30t-103.5 84t-55.5 122t-18 151z" />
    <glyph glyph-name="Wcircumflex" unicode="&#x174;" horiz-adv-x="1843" 
d="M455 8l-387 1376q-6 22 4 36t32 14h138q12 0 23 -9t14 -20l247 -940h9l333 967q3 9 13 15.5t22 6.5h37q12 0 22 -6.5t13 -15.5l338 -967h8l244 940q3 11 14 20t23 9h137q22 0 32.5 -14t4.5 -36l-387 -1376q-3 -12 -14 -20t-23 -8h-33q-11 0 -21.5 6.5t-13.5 15.5
l-360 1018h-11l-354 -1018q-3 -9 -13.5 -15.5t-21.5 -6.5h-32q-12 0 -23 8t-14 20zM715 1575q-19 -10 -28.5 -8.5t-18.5 14.5l-41 55q-6 11 -2 21.5t14 17.5l256 201q9 8 23.5 8t25.5 -8l256 -201q10 -7 14 -17.5t-2 -21.5l-41 -55q-10 -13 -18.5 -15t-28.5 9l-204 133z" />
    <glyph glyph-name="wcircumflex" unicode="&#x175;" horiz-adv-x="1255" 
d="M299 0l-244 772q-9 20 -1 33.5t30 13.5h111q11 0 22 -7t14 -17l138 -453h2l219 477q3 8 13.5 14.5t21.5 6.5h12q27 0 35 -21l217 -479h2l135 455q5 12 17.5 17.5t21 6t25.5 0.5h79q22 0 31 -13.5t0 -33.5l-239 -772q-7 -20 -37 -20h-9q-27 0 -34 18l-252 547h-2
l-250 -547q-7 -18 -33 -18h-10q-28 0 -35 20zM377 1110l-41 55q-6 11 -2 21.5t14 17.5l256 201q9 7 24 7t25 -7l256 -201q10 -7 14.5 -17.5t-1.5 -21.5l-41 -55q-10 -13 -18.5 -15t-28.5 9l-205 133l-205 -133q-19 -10 -28.5 -8.5t-18.5 14.5z" />
    <glyph glyph-name="Ycircumflex" unicode="&#x176;" horiz-adv-x="1175" 
d="M479 39v651l-479 684q-12 20 -1.5 40t34.5 20h151q19 0 33 -19l371 -522l370 522q14 19 33 19h154q24 0 34.5 -20t-1.5 -40l-486 -682v-653q0 -15 -12 -27t-27 -12h-135q-17 0 -28 11.5t-11 27.5zM383 1575q-19 -10 -28.5 -8.5t-18.5 14.5l-41 55q-6 11 -2 21.5t14 17.5
l256 201q9 8 24 8t25 -8l256 -201q10 -7 14.5 -17.5t-1.5 -21.5l-41 -55q-10 -13 -18.5 -15t-28.5 9l-205 133z" />
    <glyph glyph-name="ycircumflex" unicode="&#x177;" horiz-adv-x="948" 
d="M379 29l-356 737q-9 21 1 37t33 16h136q23 0 34 -22l254 -545h2l246 545q10 22 43 22h117q25 0 35.5 -16.5t-0.5 -36.5l-627 -1356q-12 -24 -35 -24h-123q-23 0 -34 16.5t-1 38.5zM231 1110l-41 55q-6 11 -1.5 21.5t14.5 17.5l256 201q9 7 24 7t25 -7l256 -201
q10 -7 14 -17.5t-2 -21.5l-41 -55q-10 -13 -18.5 -15t-28.5 9l-205 133l-204 -133q-31 -17 -48 6z" />
    <glyph glyph-name="Ydieresis" unicode="&#x178;" horiz-adv-x="1175" 
d="M479 39v651l-479 684q-12 20 -1.5 40t34.5 20h151q19 0 33 -19l371 -522l370 522q14 19 33 19h154q24 0 34.5 -20t-1.5 -40l-486 -682v-653q0 -15 -12 -27t-27 -12h-135q-17 0 -28 11.5t-11 27.5zM819 1602q-47 0 -80.5 34.5t-33.5 81.5t33.5 81t80.5 34t82 -34t35 -81
t-35 -81.5t-82 -34.5zM350 1602q-47 0 -80.5 34.5t-33.5 81.5t33.5 81t80.5 34t82 -34t35 -81t-35 -81.5t-82 -34.5z" />
    <glyph glyph-name="Zacute" unicode="&#x179;" horiz-adv-x="1095" 
d="M55 39v37l676 1153v8h-577q-15 0 -27 12t-12 27v119q0 15 12 27t27 12h841q15 0 27 -12t12 -27v-27l-678 -1171v-2h598q17 0 28 -11.5t11 -27.5v-117q0 -16 -11 -27.5t-28 -11.5h-860q-15 0 -27 12t-12 27zM434 1585q-37 -17 -49 10l-29 58q-5 13 -0.5 23.5t13.5 15.5
l321 186q8 7 27 6.5t26 -12.5l48 -90q8 -15 4 -29t-17 -20z" />
    <glyph glyph-name="zacute" unicode="&#x17a;" horiz-adv-x="745" 
d="M66 39v20l348 584v2h-291q-15 0 -26 12t-11 27v96q0 17 11 28t26 11h528q24 0 35.5 -17.5t-0.5 -37.5l-346 -590v-2h270q17 0 28 -11t11 -28v-94q0 -16 -11 -27.5t-28 -11.5h-506q-15 0 -26.5 12t-11.5 27zM250 1112q-36 -18 -49 8l-29 60q-5 12 -1.5 23t13.5 16l322 186
q8 7 27 6.5t26 -12.5l47 -90q7 -15 3.5 -29t-15.5 -20z" />
    <glyph glyph-name="Zdotaccent" unicode="&#x17b;" horiz-adv-x="1095" 
d="M55 39v37l676 1153v8h-577q-15 0 -27 12t-12 27v119q0 15 12 27t27 12h841q15 0 27 -12t12 -27v-27l-678 -1171v-2h598q17 0 28 -11.5t11 -27.5v-117q0 -16 -11 -27.5t-28 -11.5h-860q-15 0 -27 12t-12 27zM567 1614q-54 0 -92.5 39t-38.5 94t38.5 93t92.5 38
q56 0 94.5 -38t38.5 -93t-39 -94t-94 -39z" />
    <glyph glyph-name="zdotaccent" unicode="&#x17c;" horiz-adv-x="745" 
d="M66 39v20l348 584v2h-291q-15 0 -26 12t-11 27v96q0 17 11 28t26 11h528q24 0 35.5 -17.5t-0.5 -37.5l-346 -590v-2h270q17 0 28 -11t11 -28v-94q0 -16 -11 -27.5t-28 -11.5h-506q-15 0 -26.5 12t-11.5 27zM389 1128q-54 0 -92.5 39t-38.5 93q0 55 38.5 94t92.5 39
q55 0 94 -38.5t39 -94.5q0 -54 -39 -93t-94 -39z" />
    <glyph glyph-name="Zcaron" unicode="&#x17d;" horiz-adv-x="1095" 
d="M55 39v37l676 1153v8h-577q-15 0 -27 12t-12 27v119q0 15 12 27t27 12h841q15 0 27 -12t12 -27v-27l-678 -1171v-2h598q17 0 28 -11.5t11 -27.5v-117q0 -16 -11 -27.5t-28 -11.5h-860q-15 0 -27 12t-12 27zM541 1573l-256 201q-27 18 -13 38l41 56q9 13 18.5 14.5
t28.5 -8.5l205 -133l205 133q20 11 28.5 9t18.5 -15l41 -56q6 -11 2 -21t-14 -17l-256 -201q-10 -7 -25 -7t-24 7z" />
    <glyph glyph-name="zcaron" unicode="&#x17e;" horiz-adv-x="745" 
d="M66 39v20l348 584v2h-291q-15 0 -26 12t-11 27v96q0 17 11 28t26 11h528q24 0 35.5 -17.5t-0.5 -37.5l-346 -590v-2h270q17 0 28 -11t11 -28v-94q0 -16 -11 -27.5t-28 -11.5h-506q-15 0 -26.5 12t-11.5 27zM375 1096l-256 200q-10 7 -14.5 17.5t1.5 21.5l41 56
q17 23 48 6l204 -133l205 133q20 11 28.5 9t18.5 -15l41 -56q6 -11 2 -21.5t-14 -17.5l-256 -200q-10 -8 -25 -8t-24 8z" />
    <glyph glyph-name="florin" unicode="&#x192;" horiz-adv-x="708" 
d="M217 -254v905h-139q-17 0 -28 11.5t-11 27.5v90q0 17 11 28t28 11h139v254q0 182 99.5 281.5t254.5 99.5q130 0 228 -82q9 -9 11.5 -23.5t-3.5 -25.5l-55 -90q-19 -28 -52 -6q-18 14 -58 30.5t-71 16.5q-68 0 -111.5 -50.5t-43.5 -150.5v-254h221q17 0 28 -11t11 -28v-90
q0 -16 -11 -27.5t-28 -11.5h-221v-907q0 -182 -100 -280.5t-255 -98.5q-135 0 -227 82q-9 9 -11.5 22.5t3.5 24.5l55 90q9 13 23.5 15t27.5 -9q18 -14 58 -30.5t71 -16.5q68 0 112 51t44 152z" />
    <glyph glyph-name="Aringacute" unicode="&#x1fa;" horiz-adv-x="1355" 
d="M494 1829l-29 57q-5 13 -1 23.5t13 15.5l322 186q8 7 27 6.5t26 -12.5l47 -90q8 -15 4.5 -29t-16.5 -20l-344 -147q-37 -17 -49 10zM41 0q-23 0 -33.5 16.5t-1.5 36.5l598 1311q-67 25 -108 83t-41 132q0 95 66 161t161 66q94 0 160.5 -66t66.5 -161q0 -74 -43 -132.5
t-110 -82.5l594 -1311q9 -20 -1.5 -36.5t-33.5 -16.5h-129q-33 0 -47 31l-127 280h-670l-125 -280q-13 -31 -47 -31h-129zM682 1464q44 0 76.5 35t32.5 80q0 44 -32.5 76.5t-76.5 32.5q-47 0 -81 -32.5t-34 -76.5q0 -45 33.5 -80t81.5 -35zM422 487h512l-252 562h-10z" />
    <glyph glyph-name="aringacute" unicode="&#x1fb;" horiz-adv-x="864" 
d="M74 254q0 116 87 190t240 74q38 0 78.5 -6t62.5 -12l21 -6q2 100 -24.5 140t-102.5 40q-96 0 -229 -37q-34 -8 -45 33l-17 75q-8 36 27 48q14 6 45.5 15t100.5 20.5t137 11.5q55 0 98 -10t73 -26t51.5 -43.5t33.5 -55.5t19 -68.5t9 -76.5t2 -85v-436q0 -15 -12 -27
t-27 -12h-57q-23 0 -35 29l-20 55q-109 -104 -252 -104q-117 0 -190.5 74t-73.5 200zM252 256q0 -57 34.5 -94t90.5 -37t109 33t75 69v131q-15 10 -55 21.5t-88 11.5q-74 0 -120 -36.5t-46 -98.5zM438 881q-95 0 -161 66t-66 161t66 161t161 66q94 0 161 -66t67 -161
t-67 -161t-161 -66zM438 993q44 0 76.5 35t32.5 80q0 44 -32.5 76.5t-76.5 32.5q-50 0 -82 -32t-32 -77q0 -46 32.5 -80.5t81.5 -34.5zM297 1352q-36 -18 -49 8l-29 59q-5 12 -1.5 23t13.5 16l322 187q8 7 27 6t26 -13l47 -90q7 -15 3.5 -29t-15.5 -20z" />
    <glyph glyph-name="AEacute" unicode="&#x1fc;" horiz-adv-x="1837" 
d="M6 0q-23 0 -29.5 16.5t5.5 36.5l821 1317q2 3 7.5 11.5t7 11t6.5 9t7 8.5l7 7t8.5 6.5t9 4.5t10.5 3.5t12 1.5t15 1h795q17 0 27.5 -11.5t10.5 -27.5v-115q0 -16 -10.5 -27.5t-27.5 -11.5h-656v-418h555q15 0 27 -12t12 -27v-114q0 -17 -11.5 -28t-27.5 -11h-555v-441
h656q17 0 27.5 -11t10.5 -27v-113q0 -16 -10.5 -27.5t-27.5 -11.5h-822q-17 0 -28 11.5t-11 27.5v272h-454l-178 -284q-19 -27 -45 -27h-144zM479 487h348v562zM1114 1587q-37 -17 -49 10l-29 58q-5 13 -0.5 23.5t13.5 15.5l321 186q8 7 27 6.5t26 -12.5l47 -90
q8 -15 4.5 -29t-16.5 -20z" />
    <glyph glyph-name="aeacute" unicode="&#x1fd;" horiz-adv-x="1386" 
d="M74 256q0 116 83.5 189t227.5 73q43 0 86 -3t65 -6l21 -3q-2 102 -24 140t-91 38q-94 0 -241 -41q-15 -3 -28.5 6.5t-16.5 24.5l-15 82q-3 30 33 41q142 43 283 43q180 0 239 -97q112 97 250 97q158 0 267.5 -106.5t109.5 -272.5q0 -19 -1 -31.5t-5 -27.5t-13 -23t-24 -8
h-563q5 -89 72 -155t169 -66q95 0 183 55q15 8 23 11.5t16.5 2t15.5 -11.5q10 -12 29.5 -36t29.5 -36q23 -31 -6 -53q-50 -43 -129 -72.5t-174 -29.5q-192 0 -301 139q-41 -53 -120 -96t-175 -43q-124 0 -200 75.5t-76 200.5zM727 502h406q-3 76 -58.5 128t-132.5 52
q-82 0 -144 -52t-71 -128zM252 258q0 -61 40.5 -95t98.5 -34q40 0 78.5 19.5t57.5 38t32 36.5v148q-57 20 -149 20q-66 0 -112 -36t-46 -97zM680 1112q-36 -18 -49 8l-29 60q-5 12 -1.5 23t13.5 16l322 186q8 7 27 6.5t26 -12.5l47 -90q7 -15 3.5 -29t-15.5 -20z" />
    <glyph glyph-name="Oslashacute" unicode="&#x1fe;" horiz-adv-x="1660" 
d="M147 45q-11 11 -11.5 26.5t9.5 26.5l129 129q-86 98 -133 223.5t-47 264.5q0 101 26 197t73 177t114.5 149t148.5 115.5t176.5 74t196.5 26.5q137 0 263 -48.5t225 -135.5l135 133q10 11 26 11t27 -11l15 -14q10 -11 10 -27t-10 -27l-134 -135q85 -99 133 -224t48 -261
q0 -202 -98.5 -371t-268 -266.5t-371.5 -97.5q-282 0 -485 178l-129 -129q-11 -10 -26.5 -9.5t-26.5 11.5zM424 375l747 749q-151 125 -342 125q-143 0 -265.5 -72.5t-193.5 -195.5t-71 -266q0 -193 125 -340zM492 305q146 -121 337 -121q144 0 267 71.5t194.5 194
t71.5 265.5q0 196 -123 338zM688 1585q-37 -17 -49 10l-29 58q-5 13 -0.5 23.5t13.5 15.5l321 186q8 7 27 6.5t26 -12.5l47 -90q8 -15 4.5 -29t-16.5 -20z" />
    <glyph glyph-name="oslashacute" unicode="&#x1ff;" horiz-adv-x="968" 
d="M340 1112q-36 -18 -49 8l-29 60q-5 12 -1.5 23t13.5 16l322 186q8 7 27 6.5t26 -12.5l47 -90q7 -15 3.5 -29t-15.5 -20zM121 53q-12 10 -12.5 26.5t10.5 26.5l39 39q-84 117 -84 269q0 174 120 300t291 126q143 0 260 -99l50 47q11 12 27 12t26 -12l16 -14
q12 -11 12 -26.5t-12 -26.5l-51 -51q84 -114 84 -256q0 -178 -120.5 -306t-291.5 -128q-148 0 -260 94l-37 -37q-11 -10 -27 -9.5t-28 11.5zM287 279l331 335q-57 48 -133 48q-96 0 -162.5 -72.5t-66.5 -175.5q0 -78 31 -135zM352 201q57 -45 133 -45q96 0 163 76t67 182
q0 68 -31 125z" />
    <glyph glyph-name="Scommaaccent" unicode="&#x218;" horiz-adv-x="1099" 
d="M119 141q-11 10 -16 17t-5.5 20t8.5 29q9 14 27 42.5t27 41.5q14 20 33 24.5t36 -8.5q15 -12 36.5 -27.5t70 -45.5t108 -49t113.5 -19q103 0 167 55t64 135q0 89 -74.5 154t-234.5 131q-69 29 -120 56.5t-101 66t-81.5 81.5t-51 102t-19.5 128q0 50 15 101t49.5 101.5
t85 89.5t128 63t171.5 24q71 0 140 -15.5t121.5 -40.5t76 -38.5t41.5 -26.5q14 -9 19.5 -26.5t-7.5 -42.5q-8 -12 -25.5 -38.5t-25.5 -39.5q-13 -21 -31.5 -27.5t-40.5 6.5q-1 0 -11 6.5t-21.5 13t-30 16.5t-36.5 18.5t-41 18t-44.5 16t-46 10.5t-45.5 4q-61 0 -108 -18
t-73 -46.5t-38.5 -59t-12.5 -61.5q0 -84 63 -143.5t197 -114.5q80 -32 138 -60.5t119 -70t98.5 -86t61.5 -106.5t24 -135q0 -162 -130 -274.5t-327 -112.5q-87 0 -167.5 19.5t-136.5 50.5t-86.5 52t-49.5 39zM571 -188q63 0 107.5 -46.5t44.5 -154.5q0 -65 -18.5 -128
t-49 -111t-57 -80t-53.5 -56q-28 -25 -47 -2l-31 29q-8 9 -5.5 23t15.5 26q15 12 30 27.5t42 48.5t43.5 80t17.5 98q-18 -6 -45 -6q-52 0 -89.5 36.5t-37.5 88.5q0 54 38.5 90.5t94.5 36.5z" />
    <glyph glyph-name="scommaaccent" unicode="&#x219;" horiz-adv-x="733" 
d="M96 63q-10 6 -13.5 18.5t1.5 24.5l43 80q6 12 21 16t30 -5q10 -6 28 -15t68.5 -24t94.5 -15q46 0 73 18.5t27 51.5q0 39 -33.5 65.5t-124.5 67.5q-108 47 -170.5 110.5t-62.5 157.5q0 87 72 156.5t208 69.5q145 0 242 -64q14 -9 19 -26.5t-3 -32.5l-36 -70
q-7 -13 -24.5 -17.5t-29.5 1.5q-90 43 -168 43q-48 0 -70 -17.5t-22 -44.5q0 -19 8 -34t29 -28.5t38 -22t56 -25.5q54 -24 87 -40.5t72.5 -43t61.5 -53t37 -64t15 -82.5q0 -98 -85 -168.5t-218 -70.5q-169 0 -271 83zM375 -188q63 0 107 -46.5t44 -154.5q0 -65 -18.5 -128
t-49 -111t-57 -80t-53.5 -56q-28 -25 -47 -2l-31 29q-8 9 -5 23t16 26q15 12 30 27.5t42 48.5t43.5 80t17.5 98q-18 -6 -45 -6q-52 0 -89.5 36.5t-37.5 88.5q0 54 38.5 90.5t94.5 36.5z" />
    <glyph glyph-name="uni021A" unicode="&#x21a;" 
d="M395 39v1202h-334q-17 0 -27.5 11.5t-10.5 27.5v115q0 16 10.5 27.5t27.5 11.5h881q17 0 28 -11.5t11 -27.5v-115q0 -16 -11 -27.5t-28 -11.5h-334v-1202q0 -15 -12 -27t-27 -12h-135q-15 0 -27 12t-12 27zM496 -188q63 0 107 -46.5t44 -154.5q0 -65 -18.5 -128t-49 -111
t-57 -80t-53.5 -56q-28 -25 -47 -2l-31 29q-8 9 -5.5 23t15.5 26q15 12 30.5 27.5t42 48.5t43.5 80t18 98q-18 -6 -46 -6q-52 0 -89.5 36.5t-37.5 88.5q0 54 39 90.5t95 36.5z" />
    <glyph glyph-name="uni021B" unicode="&#x21b;" horiz-adv-x="706" 
d="M184 223v426h-86q-17 0 -28 11.5t-11 27.5v92q0 17 11 28t28 11h86v228q0 15 12 26.5t27 11.5l117 2q15 0 26 -11.5t11 -26.5v-230h209q17 0 28 -11t11 -28v-92q0 -16 -11 -27.5t-28 -11.5h-209v-405q0 -49 16 -65.5t49 -16.5q48 0 125 37q32 14 47 -19l37 -90
q14 -33 -18 -49q-25 -15 -100.5 -38t-139.5 -23q-115 0 -162 62.5t-47 180.5zM389 -188q63 0 107.5 -46.5t44.5 -154.5q0 -65 -19 -128t-49.5 -111t-57 -80t-53.5 -56q-28 -25 -47 -2l-30 29q-8 9 -5.5 23t15.5 26q15 12 30 27.5t42 48.5t43.5 80t17.5 98q-18 -6 -45 -6
q-52 0 -89.5 36.5t-37.5 88.5q0 54 38.5 90.5t94.5 36.5z" />
    <glyph glyph-name="dotlessj" unicode="&#x237;" horiz-adv-x="462" 
d="M133 -254v1034q0 17 11.5 28t27.5 11h119q16 0 27.5 -11t11.5 -28v-1034q0 -184 -97 -282.5t-251 -98.5q-76 0 -138.5 25t-95.5 57q-10 7 -12 22t4 25l51 92q15 27 51 6q76 -51 135 -51q72 0 114 52t42 153z" />
    <glyph glyph-name="circumflex" unicode="&#x2c6;" horiz-adv-x="763" 
d="M125 1110l-41 55q-6 11 -2 21.5t14 17.5l256 201q9 7 24 7t25 -7l256 -201q10 -7 14.5 -17.5t-1.5 -21.5l-41 -55q-10 -13 -18.5 -15t-28.5 9l-205 133l-205 -133q-19 -10 -28.5 -8.5t-18.5 14.5z" />
    <glyph glyph-name="caron" unicode="&#x2c7;" horiz-adv-x="763" 
d="M352 1096l-256 200q-10 7 -14 17.5t2 21.5l41 56q9 13 18.5 14.5t28.5 -8.5l205 -133l205 133q20 11 28.5 9t18.5 -15l41 -56q6 -11 1.5 -21.5t-14.5 -17.5l-256 -200q-11 -8 -25.5 -8t-23.5 8z" />
    <glyph glyph-name="uni02C9" unicode="&#x2c9;" horiz-adv-x="847" 
d="M162 1180q-17 0 -28 11t-11 26v57q0 17 11 28t28 11h524q17 0 28 -11t11 -28v-57q0 -15 -11 -26t-28 -11h-524z" />
    <glyph glyph-name="breve" unicode="&#x2d8;" horiz-adv-x="708" 
d="M354 1083q-109 0 -188 68t-94 170q-3 19 5.5 31t26.5 12h60q29 0 37 -31q18 -56 57.5 -88.5t95.5 -32.5q50 0 91.5 35t56.5 86q10 31 37 31h63q18 0 27 -12t6 -31q-17 -102 -96 -170t-185 -68z" />
    <glyph glyph-name="dotaccent" unicode="&#x2d9;" horiz-adv-x="448" 
d="M221 1128q-54 0 -92.5 39t-38.5 93q0 55 38.5 94t92.5 39q55 0 94 -38.5t39 -94.5q0 -54 -39 -93t-94 -39z" />
    <glyph glyph-name="ring" unicode="&#x2da;" horiz-adv-x="593" 
d="M297 999q-95 0 -161 66.5t-66 161.5t66 161t161 66q94 0 160.5 -66t66.5 -161t-66.5 -161.5t-160.5 -66.5zM297 1112q44 0 76.5 35t32.5 80q0 44 -32.5 76t-76.5 32q-50 0 -82.5 -31.5t-32.5 -76.5q0 -46 33 -80.5t82 -34.5z" />
    <glyph glyph-name="ogonek" unicode="&#x2db;" horiz-adv-x="565" 
d="M223 25h119q-5 -4 -13.5 -11t-30 -30.5t-38 -48.5t-30 -62t-13.5 -74q0 -53 35.5 -88t91.5 -35q40 0 102 25q15 6 27 -3t12 -28v-57q0 -21 -28 -37q-58 -25 -140 -25q-102 0 -169.5 55.5t-67.5 162.5q0 45 14.5 87.5t36 72t42.5 52t35 33.5z" />
    <glyph glyph-name="tilde" unicode="&#x2dc;" horiz-adv-x="778" 
d="M137 1163l-47 31q-26 15 -12 47q13 27 23.5 44.5t37 53t62.5 55t78 19.5q40 0 75.5 -20.5t56 -45t45.5 -45t46 -20.5q16 0 30.5 9.5t21 18.5t18 29t14.5 25q21 35 51 18q5 -4 17 -11t21.5 -14t14.5 -14q11 -17 -6 -55q-10 -22 -23.5 -43.5t-37 -49t-57.5 -44t-74 -16.5
q-35 0 -69.5 21t-57.5 45.5t-48.5 45.5t-44.5 21q-51 0 -88 -84q-8 -19 -17 -24t-30 3z" />
    <glyph glyph-name="hungarumlaut" unicode="&#x2dd;" horiz-adv-x="802" 
d="M475 1067q-24 0 -34 11.5t-5 27.5l90 289q12 39 39 39h117q28 0 38.5 -16.5t-1.5 -35.5l-160 -284q-15 -31 -37 -31h-47zM135 1067q-22 0 -33 11.5t-6 27.5l90 289q12 39 39 39h117q28 0 38 -16t-1 -36l-160 -284q-15 -31 -37 -31h-47z" />
    <glyph glyph-name="uni0394" unicode="&#x394;" horiz-adv-x="1421" 
d="M57 84l617 1356q11 18 31 18h12q22 0 31 -18l614 -1360q15 -28 6.5 -54t-45.5 -26h-1221q-40 0 -52 22t7 62zM332 195l755 2l-376 858h-4z" />
    <glyph glyph-name="uni03A9" unicode="&#x3a9;" horiz-adv-x="1599" 
d="M84 33v131q0 14 10 23.5t23 9.5h209q-119 75 -192 221t-73 307q0 202 98.5 369.5t268 263.5t371.5 96q151 0 287.5 -56.5t235 -153.5t156.5 -232.5t58 -286.5q0 -161 -73.5 -307t-192.5 -221h209q13 0 22.5 -9.5t9.5 -23.5v-131q0 -12 -9.5 -22.5t-22.5 -10.5h-531
q-13 0 -23 10.5t-10 22.5v84q0 28 9 39.5t32 21.5q167 65 269 214.5t102 322.5q0 106 -42 205t-113 171t-169 115t-204 43q-107 0 -205.5 -43t-170.5 -115t-114.5 -171t-42.5 -205q0 -173 102.5 -322t270.5 -215q23 -10 32 -21.5t9 -39.5v-84q0 -12 -10 -22.5t-23 -10.5
h-530q-13 0 -23 10.5t-10 22.5z" />
    <glyph glyph-name="uni03BC" unicode="&#x3bc;" horiz-adv-x="1050" 
d="M330 2v-577q0 -15 -12 -27t-27 -12h-115q-15 0 -27 12t-12 27v1355q0 15 12 27t27 12h117q15 0 27 -12t12 -27v-411q0 -99 44.5 -152t123.5 -53q80 0 138 48.5t64 86.5v481q0 23 11 31t35 8h106q15 0 27 -12t12 -27v-741q0 -15 -12 -27t-27 -12h-57q-26 0 -37 33l-21 59
l-10 -9q-10 -9 -17 -15.5t-22.5 -18t-30 -20t-36.5 -18.5t-44.5 -16t-51 -10.5t-58.5 -4.5q-78 0 -139 22z" />
    <glyph glyph-name="pi" unicode="&#x3c0;" horiz-adv-x="1341" 
d="M264 33v616h-186q-14 0 -23.5 10t-9.5 23v104q0 14 9.5 23.5t23.5 9.5h1161q15 0 24 -9.5t9 -23.5v-104q0 -14 -9 -23.5t-24 -9.5h-192v-616q0 -13 -10.5 -23t-24.5 -10h-131q-13 0 -23 10.5t-10 22.5v616h-385v-616q0 -13 -10.5 -23t-24.5 -10h-131q-12 0 -22.5 10.5
t-10.5 22.5z" />
    <glyph glyph-name="Wgrave" unicode="&#x1e80;" horiz-adv-x="1843" 
d="M455 8l-387 1376q-6 22 4 36t32 14h138q12 0 23 -9t14 -20l247 -940h9l333 967q3 9 13 15.5t22 6.5h37q12 0 22 -6.5t13 -15.5l338 -967h8l244 940q3 11 14 20t23 9h137q22 0 32.5 -14t4.5 -36l-387 -1376q-3 -12 -14 -20t-23 -8h-33q-11 0 -21.5 6.5t-13.5 15.5
l-360 1018h-11l-354 -1018q-3 -9 -13.5 -15.5t-21.5 -6.5h-32q-12 0 -23 8t-14 20zM1059 1585l-344 148q-12 6 -16 20t3 29l48 90q7 12 26 12.5t27 -6.5l321 -186q10 -5 14 -16t-1 -23l-29 -58q-11 -26 -49 -10z" />
    <glyph glyph-name="wgrave" unicode="&#x1e81;" horiz-adv-x="1255" 
d="M299 0l-244 772q-9 20 -1 33.5t30 13.5h111q11 0 22 -7t14 -17l138 -453h2l219 477q3 8 13.5 14.5t21.5 6.5h12q27 0 35 -21l217 -479h2l135 455q5 12 17.5 17.5t21 6t25.5 0.5h79q22 0 31 -13.5t0 -33.5l-239 -772q-7 -20 -37 -20h-9q-27 0 -34 18l-252 547h-2
l-250 -547q-7 -18 -33 -18h-10q-28 0 -35 20zM770 1112l-344 148q-12 6 -15.5 20t3.5 29l47 90q7 12 26 12.5t27 -6.5l322 -186q10 -5 13.5 -16t-1.5 -23l-29 -60q-13 -26 -49 -8z" />
    <glyph glyph-name="Wacute" unicode="&#x1e82;" horiz-adv-x="1843" 
d="M455 8l-387 1376q-6 22 4 36t32 14h138q12 0 23 -9t14 -20l247 -940h9l333 967q3 9 13 15.5t22 6.5h37q12 0 22 -6.5t13 -15.5l338 -967h8l244 940q3 11 14 20t23 9h137q22 0 32.5 -14t4.5 -36l-387 -1376q-3 -12 -14 -20t-23 -8h-33q-11 0 -21.5 6.5t-13.5 15.5
l-360 1018h-11l-354 -1018q-3 -9 -13.5 -15.5t-21.5 -6.5h-32q-12 0 -23 8t-14 20zM778 1585q-37 -17 -49 10l-29 58q-5 13 -0.5 23.5t13.5 15.5l321 186q8 7 27 6.5t26 -12.5l48 -90q8 -15 4 -29t-17 -20z" />
    <glyph glyph-name="wacute" unicode="&#x1e83;" horiz-adv-x="1255" 
d="M299 0l-244 772q-9 20 -1 33.5t30 13.5h111q11 0 22 -7t14 -17l138 -453h2l219 477q3 8 13.5 14.5t21.5 6.5h12q27 0 35 -21l217 -479h2l135 455q5 12 17.5 17.5t21 6t25.5 0.5h79q22 0 31 -13.5t0 -33.5l-239 -772q-7 -20 -37 -20h-9q-27 0 -34 18l-252 547h-2
l-250 -547q-7 -18 -33 -18h-10q-28 0 -35 20zM487 1112q-36 -18 -49 8l-28 60q-5 12 -1.5 23t13.5 16l321 186q8 7 27.5 6.5t26.5 -12.5l47 -90q7 -15 3 -29t-16 -20z" />
    <glyph glyph-name="Wdieresis" unicode="&#x1e84;" horiz-adv-x="1843" 
d="M455 8l-387 1376q-6 22 4 36t32 14h138q12 0 23 -9t14 -20l247 -940h9l333 967q3 9 13 15.5t22 6.5h37q12 0 22 -6.5t13 -15.5l338 -967h8l244 940q3 11 14 20t23 9h137q22 0 32.5 -14t4.5 -36l-387 -1376q-3 -12 -14 -20t-23 -8h-33q-11 0 -21.5 6.5t-13.5 15.5
l-360 1018h-11l-354 -1018q-3 -9 -13.5 -15.5t-21.5 -6.5h-32q-12 0 -23 8t-14 20zM1153 1602q-47 0 -81 34.5t-34 81.5t34 81t81 34t82 -34t35 -81t-35 -81.5t-82 -34.5zM684 1602q-47 0 -81 34.5t-34 81.5t34 81t81 34t82 -34t35 -81t-35 -81.5t-82 -34.5z" />
    <glyph glyph-name="wdieresis" unicode="&#x1e85;" horiz-adv-x="1255" 
d="M299 0l-244 772q-9 20 -1 33.5t30 13.5h111q11 0 22 -7t14 -17l138 -453h2l219 477q3 8 13.5 14.5t21.5 6.5h12q27 0 35 -21l217 -479h2l135 455q5 12 17.5 17.5t21 6t25.5 0.5h79q22 0 31 -13.5t0 -33.5l-239 -772q-7 -20 -37 -20h-9q-27 0 -34 18l-252 547h-2
l-250 -547q-7 -18 -33 -18h-10q-28 0 -35 20zM827 1161q-47 0 -80.5 34t-33.5 81q0 49 33.5 83t80.5 34q49 0 83 -33.5t34 -83.5q0 -48 -34 -81.5t-83 -33.5zM424 1161q-47 0 -81 34t-34 81q0 49 33.5 83t81.5 34q50 0 83.5 -33.5t33.5 -83.5q0 -48 -34 -81.5t-83 -33.5z
" />
    <glyph glyph-name="Ygrave" unicode="&#x1ef2;" horiz-adv-x="1175" 
d="M479 39v651l-479 684q-12 20 -1.5 40t34.5 20h151q19 0 33 -19l371 -522l370 522q14 19 33 19h154q24 0 34.5 -20t-1.5 -40l-486 -682v-653q0 -15 -12 -27t-27 -12h-135q-17 0 -28 11.5t-11 27.5zM729 1585l-344 148q-12 6 -15.5 20t3.5 29l47 90q7 12 26 12.5t27 -6.5
l322 -186q10 -5 13.5 -16t-1.5 -23l-29 -58q-11 -26 -49 -10z" />
    <glyph glyph-name="ygrave" unicode="&#x1ef3;" horiz-adv-x="948" 
d="M379 29l-356 737q-9 21 1 37t33 16h136q23 0 34 -22l254 -545h2l246 545q10 22 43 22h117q25 0 35.5 -16.5t-0.5 -36.5l-627 -1356q-12 -24 -35 -24h-123q-23 0 -34 16.5t-1 38.5zM621 1112l-345 148q-12 6 -15.5 20t3.5 29l47 90q7 12 26.5 12.5t27.5 -6.5l321 -186
q10 -5 13.5 -16t-1.5 -23l-28 -60q-13 -26 -49 -8z" />
    <glyph glyph-name="endash" unicode="&#x2013;" horiz-adv-x="1130" 
d="M174 565q-17 0 -28 11t-11 26v49q0 17 11 28t28 11h782q17 0 28 -11t11 -28v-49q0 -15 -11 -26t-28 -11h-782z" />
    <glyph glyph-name="emdash" unicode="&#x2014;" horiz-adv-x="1581" 
d="M174 565q-17 0 -28 11t-11 26v49q0 17 11 28t28 11h1233q17 0 28 -11t11 -28v-49q0 -15 -11 -26t-28 -11h-1233z" />
    <glyph glyph-name="quoteleft" unicode="&#x2018;" horiz-adv-x="411" 
d="M215 860q-62 0 -107 47.5t-45 155.5q0 65 19 127.5t49.5 110.5t57 80.5t53.5 56.5q28 25 47 2l30 -31q18 -22 -10 -47q-131 -118 -133 -254q18 6 45 6q51 0 89 -37.5t38 -89.5q0 -53 -39 -90t-94 -37z" />
    <glyph glyph-name="quoteright" unicode="&#x2019;" horiz-adv-x="405" 
d="M123 877l-29 28q-20 21 8 49q16 13 31 27.5t42.5 48.5t44 80.5t16.5 97.5q-12 -6 -43 -6q-53 0 -90 36.5t-37 88.5q0 54 37.5 90.5t93.5 36.5q63 0 108 -46.5t45 -154.5q0 -65 -18.5 -128t-49 -110.5t-57 -79.5t-53.5 -56t-49 -2z" />
    <glyph glyph-name="quotesinglbase" unicode="&#x201a;" horiz-adv-x="471" 
d="M94 106q0 53 39 90t94 37q63 0 107.5 -47t44.5 -155q0 -65 -18.5 -127t-49 -110.5t-57 -80t-53.5 -57.5q-28 -22 -47 0l-31 29q-8 9 -5.5 23t15.5 24q14 11 30 27.5t42 49.5t43 80t18 97q-1 0 -16 -3t-29 -3q-51 0 -89 37t-38 89z" />
    <glyph glyph-name="quotedblleft" unicode="&#x201c;" horiz-adv-x="792" 
d="M598 864q-63 0 -108.5 47.5t-45.5 155.5q0 65 19 127t49.5 110.5t56.5 80t54 57.5q28 21 49 0l28 -29q9 -9 6.5 -22.5t-14.5 -24.5q-15 -12 -31.5 -28.5t-42.5 -49.5t-42.5 -79.5t-16.5 -96.5l15 3q16 3 28 3q52 0 89.5 -37t37.5 -90t-38 -90t-93 -37zM215 864
q-62 0 -107 47.5t-45 155.5q0 65 19 127t49.5 110.5t56.5 80t54 57.5q28 22 47 0l30 -29q8 -9 5.5 -23t-15.5 -24q-131 -118 -133 -254q1 0 16 3t29 3q51 0 89 -37.5t38 -89.5q0 -53 -39 -90t-94 -37z" />
    <glyph glyph-name="quotedblright" unicode="&#x201d;" horiz-adv-x="786" 
d="M506 877l-31 28q-8 9 -5.5 23t15.5 26q15 12 30 27.5t42 48.5t43.5 80t17.5 98q-18 -6 -45 -6q-52 0 -89.5 36.5t-37.5 88.5q0 54 39 90.5t95 36.5q63 0 107 -46.5t44 -154.5q0 -65 -18.5 -128t-49 -110.5t-57 -79.5t-53.5 -56q-28 -25 -47 -2zM123 877l-29 28
q-20 21 8 49q16 13 31 27.5t42.5 48.5t44 80.5t16.5 97.5q-12 -6 -43 -6q-53 0 -90 36.5t-37 88.5q0 54 37.5 90.5t93.5 36.5q63 0 108 -46.5t45 -154.5q0 -65 -18.5 -128t-49 -110.5t-57 -79.5t-53.5 -56t-49 -2z" />
    <glyph glyph-name="quotedblbase" unicode="&#x201e;" horiz-adv-x="851" 
d="M475 106q0 53 39 90t94 37q63 0 107.5 -47t44.5 -155q0 -65 -18.5 -127t-49 -110.5t-57 -80t-53.5 -57.5q-28 -22 -47 0l-31 29q-8 9 -5.5 23t15.5 24q14 11 30 27.5t42 49.5t43 80t18 97q-1 0 -16 -3t-29 -3q-51 0 -89 37t-38 89zM94 106q0 53 38 90t93 37
q63 0 108.5 -47t45.5 -155q0 -65 -18.5 -127t-49 -110.5t-57 -80t-53.5 -57.5q-28 -21 -49 0l-29 29q-9 9 -6.5 22.5t14.5 24.5q11 9 22 19t33 35.5t37.5 52t28 66.5t12.5 81l-16 -3q-15 -3 -27 -3q-53 0 -90 37t-37 89z" />
    <glyph glyph-name="dagger" unicode="&#x2020;" horiz-adv-x="1265" 
d="M141 635q-15 0 -27 12t-12 27v106q0 15 12 27t27 12h373v576q0 15 12 27t27 12h149q15 0 27 -12t12 -27v-576h385q15 0 26 -12t11 -27v-106q0 -15 -11 -27t-26 -12h-393l-51 -1217q0 -12 -12.5 -22t-26.5 -10h-31q-14 0 -26.5 10t-12.5 22l-49 1217h-383z" />
    <glyph glyph-name="daggerdbl" unicode="&#x2021;" horiz-adv-x="1265" 
d="M164 39v106q0 15 12 27t27 12h336l-25 631v2h-373q-15 0 -27 12t-12 27v107q0 15 12 26.5t27 11.5h373v394q0 15 12 27t27 12h149q15 0 27 -12t12 -27v-394h385q15 0 26 -11.5t11 -26.5v-107q0 -15 -11 -27t-26 -12h-385l-24 -633h348q15 0 26 -12t11 -27v-106
q0 -15 -11 -27t-26 -12h-358l-25 -582q0 -12 -12.5 -22t-26.5 -10h-31q-14 0 -26.5 10t-12.5 22l-24 582h-346q-15 0 -27 12t-12 27z" />
    <glyph glyph-name="bullet" unicode="&#x2022;" horiz-adv-x="759" 
d="M375 342q-97 0 -168.5 71t-71.5 169q0 101 71.5 174t168.5 73q103 0 175.5 -72.5t72.5 -174.5q0 -99 -73 -169.5t-175 -70.5z" />
    <glyph glyph-name="ellipsis" unicode="&#x2026;" horiz-adv-x="1323" 
d="M948 111q0 55 39 94t94 39t93 -38.5t38 -94.5q0 -54 -38 -92.5t-93 -38.5t-94 38.5t-39 92.5zM528 111q0 55 38.5 94t92.5 39q56 0 95 -39t39 -94q0 -54 -39.5 -92.5t-94.5 -38.5q-54 0 -92.5 38.5t-38.5 92.5zM109 111q0 55 38.5 94t92.5 39q56 0 94.5 -39t38.5 -94
q0 -54 -39 -92.5t-94 -38.5q-54 0 -92.5 38.5t-38.5 92.5z" />
    <glyph glyph-name="perthousand" unicode="&#x2030;" horiz-adv-x="2019" 
d="M371 903q-115 0 -196 80.5t-81 196.5q0 115 80.5 195.5t196.5 80.5q114 0 195 -80.5t81 -195.5t-81 -196t-195 -81zM274 55l703 1358q14 21 35 21h67q23 0 34.5 -18t0.5 -38l-706 -1358q-3 -6 -15.5 -13t-19.5 -7h-64q-23 0 -34 17.5t-1 37.5zM371 1049q53 0 90 38t37 93
q0 51 -37.5 89t-89.5 38q-53 0 -91 -37.5t-38 -89.5q0 -55 37.5 -93t91.5 -38zM1382 254q0 115 81.5 195.5t195.5 80.5q116 0 197 -80.5t81 -195.5t-81 -196t-197 -81q-114 0 -195.5 81t-81.5 196zM756 254q0 116 80 196t196 80q114 0 195.5 -80.5t81.5 -195.5t-81.5 -196
t-195.5 -81q-115 0 -195.5 80.5t-80.5 196.5zM1530 254q0 -54 37.5 -91.5t91.5 -37.5q53 0 91 37.5t38 91.5q0 52 -38 89.5t-91 37.5q-54 0 -91.5 -37t-37.5 -90zM901 254q0 -54 38 -91.5t93 -37.5q52 0 89.5 37.5t37.5 91.5q0 52 -38 89.5t-89 37.5q-55 0 -93 -37t-38 -90z
" />
    <glyph glyph-name="guilsinglleft" unicode="&#x2039;" horiz-adv-x="536" 
d="M285 80l-213 317q-17 23 0 49l223 304q14 24 37 24h71q26 0 34.5 -19t-3.5 -44l-145 -285l139 -301q11 -25 2.5 -43.5t-33.5 -18.5h-82q-17 0 -30 17z" />
    <glyph glyph-name="guilsinglright" unicode="&#x203a;" horiz-adv-x="536" 
d="M137 63q-25 0 -33.5 18.5t2.5 43.5l140 301l-146 285q-12 25 -3.5 44t34.5 19h72q23 0 37 -24l223 -304q17 -26 0 -49l-213 -317q-13 -17 -31 -17h-82z" />
    <glyph glyph-name="fraction" unicode="&#x2044;" horiz-adv-x="278" 
d="M-127 20q-3 -6 -15 -13t-20 -7h-63q-23 0 -34 17.5t-1 37.5l702 1358q14 21 35 21h68q23 0 34.5 -18t0.5 -38z" />
    <glyph glyph-name="zerosuperior" unicode="&#x2070;" horiz-adv-x="720" 
d="M360 1014q-124 0 -191 84.5t-67 236.5q0 153 67 238.5t191 85.5t191 -85.5t67 -238.5q0 -152 -67 -236.5t-191 -84.5zM360 1139q54 0 84.5 51t30.5 145q0 95 -30.5 147t-84.5 52t-83 -52t-29 -147t29 -145.5t83 -50.5z" />
    <glyph glyph-name="foursuperior" unicode="&#x2074;" horiz-adv-x="747" 
d="M434 1032q-8 0 -14 6t-6 13v100h-293q-7 0 -13 5t-6 11v82l342 383q6 6 17 6h63q8 0 14.5 -5.5t6.5 -12.5v-365h82q7 0 12.5 -5t5.5 -11v-70q0 -7 -5.5 -12.5t-12.5 -5.5h-82v-100q0 -7 -6.5 -13t-14.5 -6h-90zM233 1255h185v207z" />
    <glyph glyph-name="fivesuperior" unicode="&#x2075;" horiz-adv-x="663" 
d="M313 1012q-125 0 -198 78q-8 9 -8.5 15t6.5 15l49 54q15 15 28 2q6 -6 18.5 -15.5t44.5 -22t64 -12.5q47 0 80 29.5t33 69.5q0 41 -31 66.5t-86 25.5h-155q-14 0 -22.5 10t-8.5 23v270q0 8 5.5 13t12.5 5h324q7 0 12.5 -5t5.5 -13v-74q0 -6 -5.5 -11t-12.5 -5h-225v-103
h86q110 0 171.5 -53.5t61.5 -146.5q0 -92 -70.5 -153.5t-179.5 -61.5z" />
    <glyph glyph-name="sixsuperior" unicode="&#x2076;" horiz-adv-x="673" 
d="M342 1012q-113 0 -176.5 75t-63.5 189q0 73 28 137.5t67 105.5t89 74.5t85 49t65 24.5q10 4 19 -0.5t12 -13.5l25 -58q7 -21 -19 -30q-32 -9 -73.5 -29t-89 -59.5t-62.5 -83.5q5 4 19.5 10t44 13t57.5 7q82 0 142 -52t60 -146q0 -88 -67.5 -150.5t-161.5 -62.5zM342 1130
q43 0 72.5 28.5t29.5 68.5q0 41 -30.5 69.5t-73.5 28.5q-38 0 -70 -21.5t-43 -43.5q2 -48 33.5 -89t81.5 -41z" />
    <glyph glyph-name="sevensuperior" unicode="&#x2077;" horiz-adv-x="655" 
d="M150 1032q-21 0 -21 15v14l254 465h-258q-8 0 -13.5 5.5t-5.5 12.5v76q0 7 5.5 12.5t13.5 5.5h410q7 0 12.5 -5t5.5 -13v-27l-281 -542q-11 -19 -28 -19h-94z" />
    <glyph glyph-name="eightsuperior" unicode="&#x2078;" horiz-adv-x="677" 
d="M336 1012q-104 0 -169 50t-65 126q0 57 42.5 99t76.5 56v3q-38 17 -70 54.5t-32 88.5q0 75 62.5 122.5t156.5 47.5t157.5 -47.5t63.5 -122.5q0 -50 -33 -88t-71 -55v-3q45 -17 82.5 -57t37.5 -98q0 -76 -65.5 -126t-173.5 -50zM338 1401q39 6 60.5 26.5t21.5 49.5
t-24.5 50t-59.5 21q-32 0 -55 -21t-23 -50q0 -30 20.5 -50t59.5 -26zM338 1122q39 0 66.5 20.5t27.5 53.5q0 31 -25 55.5t-69 30.5q-41 -6 -66.5 -31t-25.5 -55q0 -33 27.5 -53.5t64.5 -20.5z" />
    <glyph glyph-name="ninesuperior" unicode="&#x2079;" horiz-adv-x="673" 
d="M236 997q-21 -6 -31 15l-23 59q-11 23 19 29q31 9 72 29t89 60t64 83q-62 -31 -123 -31q-81 0 -141 53.5t-60 147.5q0 88 68 150.5t162 62.5q113 0 176 -75t63 -189q0 -73 -28.5 -137.5t-67 -105.5t-89.5 -75.5t-85.5 -50t-64.5 -25.5zM332 1341q38 0 69.5 21.5
t44.5 44.5q-2 48 -33 88.5t-83 40.5q-43 0 -73 -29t-30 -69t31 -68.5t74 -28.5z" />
    <glyph glyph-name="zeroinferior" unicode="&#x2080;" horiz-adv-x="720" 
d="M102 -6q0 153 67 239t191 86t191 -86t67 -239q0 -152 -67 -237t-191 -85t-191 85t-67 237zM248 -6q0 -95 29 -146t83 -51t84.5 51t30.5 146t-30.5 148t-84.5 53t-83 -52.5t-29 -148.5z" />
    <glyph glyph-name="oneinferior" unicode="&#x2081;" horiz-adv-x="462" 
d="M111 121l-9 49q0 12 11 23l147 106h82q8 0 13 -5.5t5 -12.5v-570q0 -7 -5 -12.5t-13 -5.5h-100q-9 0 -15 5t-6 13v412l-92 -14q-18 -4 -18 12z" />
    <glyph glyph-name="twoinferior" unicode="&#x2082;" horiz-adv-x="643" 
d="M166 152l-43 53q-14 22 4 33q11 11 28.5 25t67 35t99.5 21q102 0 160.5 -52t58.5 -134t-88 -180l-138 -150h205q19 0 19 -20v-72q0 -18 -19 -18h-397q-21 0 -21 18v31l242 266q59 62 59 109q0 34 -26 59t-74 25q-57 0 -108 -51q-13 -14 -29 2z" />
    <glyph glyph-name="threeinferior" unicode="&#x2083;" horiz-adv-x="651" 
d="M195 27q0 24 26 24h62q52 0 80 21t28 55t-27.5 56t-66.5 22q-52 0 -98 -41q-15 -12 -29 2l-45 49q-7 7 -7 16t9 15q3 3 8.5 8t24 17.5t38.5 22t51.5 17.5t63.5 8q95 0 156 -46t61 -123q0 -50 -32 -89.5t-72 -54.5v-4q45 -17 84 -57.5t39 -96.5q0 -79 -66.5 -127.5
t-169.5 -48.5q-126 0 -202 76q-16 13 0 29l43 51q13 13 30 0l6 -4q5 -4 12.5 -8.5t19 -10t23 -10t27 -7.5t29.5 -3q44 0 74.5 22t30.5 56q0 36 -31.5 60t-91.5 24h-62q-26 0 -26 22v58z" />
    <glyph glyph-name="fourinferior" unicode="&#x2084;" horiz-adv-x="747" 
d="M102 -90l342 383q6 6 17 6h63q8 0 14.5 -5.5t6.5 -12.5v-365h82q7 0 12.5 -5t5.5 -11v-70q0 -8 -5.5 -13t-12.5 -5h-82v-101q0 -7 -6.5 -12.5t-14.5 -5.5h-90q-8 0 -14 5.5t-6 12.5v101h-293q-7 0 -13 5t-6 11v82zM233 -84h185v207z" />
    <glyph glyph-name="fiveinferior" unicode="&#x2085;" horiz-adv-x="663" 
d="M127 10v271q0 7 5.5 12.5t12.5 5.5h324q7 0 12.5 -5.5t5.5 -12.5v-74q0 -6 -5.5 -11.5t-12.5 -5.5h-225v-102h86q109 0 171 -54t62 -147q0 -92 -70.5 -153.5t-179.5 -61.5q-125 0 -198 78q-14 17 -2 31l49 53q15 15 28 2q6 -6 18.5 -15t44.5 -21.5t64 -12.5q47 0 80 29
t33 69q0 41 -31 66.5t-86 25.5h-155q-14 0 -22.5 10t-8.5 23z" />
    <glyph glyph-name="sixinferior" unicode="&#x2086;" horiz-adv-x="673" 
d="M102 -63q0 73 28 137.5t67 105.5t89 74.5t85 49t65 24.5q10 4 19 -0.5t12 -14.5l25 -57q7 -22 -19 -31q-32 -9 -73.5 -29t-89 -59.5t-62.5 -83.5q6 4 20 10t43.5 13.5t57.5 7.5q82 0 142 -52.5t60 -146.5q0 -88 -67.5 -150.5t-161.5 -62.5q-113 0 -176.5 75.5
t-63.5 189.5zM227 -80q2 -48 33.5 -88.5t81.5 -40.5q43 0 72.5 28t29.5 68q0 41 -30.5 70t-73.5 29q-38 0 -70 -22t-43 -44z" />
    <glyph glyph-name="seveninferior" unicode="&#x2087;" horiz-adv-x="655" 
d="M125 186q-7 0 -13 6t-6 13v76q0 7 5.5 12.5t13.5 5.5h410q7 0 12.5 -5.5t5.5 -12.5v-27l-281 -543q-10 -18 -28 -18h-94q-21 0 -21 14v14l254 465h-258z" />
    <glyph glyph-name="eightinferior" unicode="&#x2088;" horiz-adv-x="677" 
d="M102 -152q0 57 42.5 99.5t76.5 56.5v2q-38 17 -70 55t-32 89q0 75 62.5 122t156.5 47t157.5 -47t63.5 -122q0 -50 -33 -88.5t-71 -55.5v-2q45 -17 82.5 -57.5t37.5 -98.5q0 -76 -65.5 -126t-173.5 -50q-104 0 -169 50t-65 126zM258 137q0 -30 20.5 -50t59.5 -26
q39 6 60.5 26.5t21.5 49.5t-24.5 50.5t-59.5 21.5q-32 0 -55 -21.5t-23 -50.5zM246 -143q0 -33 27.5 -53.5t64.5 -20.5q39 0 66.5 20.5t27.5 53.5q0 31 -25 55.5t-69 30.5q-41 -6 -66.5 -31t-25.5 -55z" />
    <glyph glyph-name="nineinferior" unicode="&#x2089;" horiz-adv-x="673" 
d="M102 102q0 88 68 150.5t162 62.5q113 0 176 -75t63 -189q0 -73 -28.5 -137.5t-67 -105.5t-89.5 -75t-85 -49.5t-65 -25.5q-21 -6 -31 14l-23 60q-11 22 19 28q31 9 72 29t89 60t64 83q-60 -30 -123 -30q-81 0 -141 53t-60 147zM227 98q0 -40 31 -68t74 -28
q38 0 69.5 21.5t44.5 44.5q-2 48 -33 88.5t-83 40.5q-42 0 -72.5 -29.5t-30.5 -69.5z" />
    <glyph glyph-name="Euro" unicode="&#x20ac;" horiz-adv-x="1482" 
d="M78 514q-15 0 -26 12t-11 27v20q0 15 11 27t26 12h80q-6 50 -6 103q0 31 2 45h-76q-15 0 -26 12t-11 27v20q0 15 11 27t26 12h88q50 257 253.5 426.5t471.5 169.5q150 0 268 -47.5t227 -142.5q13 -12 14 -29t-11 -29l-86 -88q-12 -14 -29.5 -14t-32.5 14q-69 65 -160 99
t-188 34q-180 0 -316 -111t-180 -282h527q17 0 28 -11.5t11 -27.5v-22q0 -15 -11 -26t-28 -11h-543q-2 -14 -2 -41q0 -63 10 -107h453q17 0 28 -11.5t11 -27.5v-22q0 -15 -11 -26t-28 -11h-422q57 -145 185 -235.5t290 -90.5q102 0 185 35.5t167 100.5q27 21 49 2l95 -93
q11 -11 10 -27.5t-12 -27.5q-204 -198 -498 -198q-253 0 -449.5 149.5t-261.5 384.5h-102z" />
    <glyph glyph-name="afii61289" unicode="&#x2113;" horiz-adv-x="1034" 
d="M207 309q0 59 10 131q-54 -16 -98 -24q-27 -3 -33 20l-8 60q-1 10 -0.5 18.5t7 14.5t21.5 8q87 16 138 32q20 122 32 185q67 348 167.5 524t252.5 176q107 0 168.5 -74t61.5 -200q0 -129 -48 -242.5t-132 -199t-184 -148t-218 -107.5q-20 -88 -20 -170q0 -92 39 -152.5
t126 -60.5q165 0 312 90q21 11 31 9.5t18 -15.5l22 -39q14 -25 11 -33q-5 -8 -15 -16q-12 -10 -39 -25t-76.5 -37.5t-120.5 -38t-143 -15.5q-75 0 -131.5 27t-88.5 74.5t-47 104t-15 123.5zM369 606q93 40 170 95t138.5 125.5t95.5 161.5t34 192q0 72 -29.5 113.5
t-81.5 41.5q-100 0 -173 -153.5t-130 -448.5z" />
    <glyph glyph-name="trademark" unicode="&#x2122;" horiz-adv-x="1476" 
d="M684 801q-20 0 -31 14t-8 33l107 565q3 12 14.5 21.5t24.5 9.5h8q9 0 20.5 -7.5t14.5 -15.5l172 -407l176 407q3 8 14.5 15.5t20.5 7.5h8q12 0 24 -9.5t15 -21.5l108 -567q3 -19 -8.5 -32t-30.5 -13h-53q-13 0 -24.5 10.5t-14.5 24.5l-57 297l-140 -320q-3 -7 -13 -12.5
t-19 -5.5h-13q-8 0 -19 6t-15 14l-134 318l-61 -299q-1 -12 -14 -22.5t-25 -10.5h-47zM309 801q-17 0 -28 11.5t-11 27.5v467h-137q-16 0 -27.5 11t-11.5 28v49q0 15 12 27t27 12h406q17 0 28 -11.5t11 -27.5v-49q0 -17 -11 -28t-28 -11h-138v-467q0 -15 -12 -27t-27 -12
h-53z" />
    <glyph glyph-name="Omega" unicode="&#x2126;" horiz-adv-x="1599" 
d="M84 33v131q0 14 10 23.5t23 9.5h209q-119 75 -192 221t-73 307q0 202 98.5 369.5t268 263.5t371.5 96q151 0 287.5 -56.5t235 -153.5t156.5 -232.5t58 -286.5q0 -161 -73.5 -307t-192.5 -221h209q13 0 22.5 -9.5t9.5 -23.5v-131q0 -12 -9.5 -22.5t-22.5 -10.5h-531
q-13 0 -23 10.5t-10 22.5v84q0 28 9 39.5t32 21.5q167 65 269 214.5t102 322.5q0 106 -42 205t-113 171t-169 115t-204 43q-107 0 -205.5 -43t-170.5 -115t-114.5 -171t-42.5 -205q0 -173 102.5 -322t270.5 -215q23 -10 32 -21.5t9 -39.5v-84q0 -12 -10 -22.5t-23 -10.5
h-530q-13 0 -23 10.5t-10 22.5z" />
    <glyph glyph-name="estimated" unicode="&#x212e;" horiz-adv-x="1685" 
d="M301 332q78 -111 215 -174.5t289 -63.5q110 0 221 45t203 127q29 26 53 2l33 -37q21 -21 -10 -51q-104 -99 -233 -149.5t-267 -50.5q-154 0 -291.5 57t-237 154.5t-157.5 234t-58 289.5t58 290.5t157.5 235.5t237 155.5t291.5 57.5q203 0 373 -98t269 -268t101 -375
q0 -31 -10 -43.5t-35 -12.5h-1202v-325zM301 768h1008v328q-85 113 -217.5 177t-286.5 64q-158 0 -288.5 -61.5t-215.5 -175.5v-332z" />
    <glyph glyph-name="onethird" unicode="&#x2153;" horiz-adv-x="1339" 
d="M225 55l703 1358q14 21 35 21h67q23 0 34.5 -18t0.5 -38l-707 -1358q-3 -6 -15 -13t-19 -7h-64q-23 0 -34 17.5t-1 37.5zM242 827q-9 0 -15 5.5t-6 13.5v411l-92 -14q-18 -4 -18 12l-9 50q0 11 11 22l147 107h82q7 0 12.5 -5.5t5.5 -13.5v-569q0 -8 -5.5 -13.5
t-12.5 -5.5h-100zM811 55q-16 13 0 29l43 51q14 14 31 0l5 -4q6 -4 13 -8.5t18.5 -10t23 -10t27 -7.5t29.5 -3q44 0 74.5 22t30.5 56q0 36 -31.5 60t-91.5 24h-61q-27 0 -27 22v58q0 24 27 24h61q52 0 80.5 21t28.5 55t-28 56t-67 22q-52 0 -98 -41q-15 -12 -29 2l-45 49
q-7 6 -7 15.5t9 15.5q8 8 23 20.5t64 33t100 20.5q95 0 156 -46.5t61 -123.5q0 -50 -32.5 -89.5t-72.5 -54.5v-4q46 -18 84.5 -57.5t38.5 -95.5q0 -79 -66.5 -127.5t-168.5 -48.5q-128 0 -203 75z" />
    <glyph glyph-name="twothirds" unicode="&#x2154;" horiz-adv-x="1339" 
d="M29 827q-21 0 -21 19v31l242 266q59 62 59 108q0 34 -26 59t-74 25q-58 0 -109 -51q-13 -13 -28 2l-43 53q-14 22 4 33q5 5 11.5 11t26.5 20t40.5 24t52 18.5t63.5 8.5q102 0 160.5 -52t58.5 -134q0 -83 -88 -181l-137 -149h205q18 0 18 -20v-72q0 -19 -18 -19h-397z
M225 55l703 1358q14 21 35 21h67q23 0 34.5 -18t0.5 -38l-707 -1358q-3 -6 -15 -13t-19 -7h-64q-23 0 -34 17.5t-1 37.5zM811 55q-16 13 0 29l43 51q14 14 31 0l5 -4q6 -4 13 -8.5t18.5 -10t23 -10t27 -7.5t29.5 -3q44 0 74.5 22t30.5 56q0 36 -31.5 60t-91.5 24h-61
q-27 0 -27 22v58q0 24 27 24h61q52 0 80.5 21t28.5 55t-28 56t-67 22q-52 0 -98 -41q-15 -12 -29 2l-45 49q-7 6 -7 15.5t9 15.5q8 8 23 20.5t64 33t100 20.5q95 0 156 -46.5t61 -123.5q0 -50 -32.5 -89.5t-72.5 -54.5v-4q46 -18 84.5 -57.5t38.5 -95.5q0 -79 -66.5 -127.5
t-168.5 -48.5q-128 0 -203 75z" />
    <glyph glyph-name="oneeighth" unicode="&#x215b;" horiz-adv-x="1372" 
d="M225 55l703 1358q14 21 35 21h67q23 0 34.5 -18t0.5 -38l-707 -1358q-3 -6 -15 -13t-19 -7h-64q-23 0 -34 17.5t-1 37.5zM242 827q-9 0 -15 5.5t-6 13.5v411l-92 -14q-18 -4 -18 12l-9 50q0 11 11 22l147 107h82q7 0 12.5 -5.5t5.5 -13.5v-569q0 -8 -5.5 -13.5
t-12.5 -5.5h-100zM821 156q0 57 42.5 99t76.5 56v2q-38 17 -70 55t-32 89q0 75 62.5 122.5t156.5 47.5t157.5 -47.5t63.5 -122.5q0 -50 -33 -88.5t-71 -55.5v-2q45 -17 82.5 -57t37.5 -98q0 -76 -65.5 -126t-173.5 -50q-104 0 -169 50t-65 126zM977 444q0 -63 80 -75
q39 6 60.5 26.5t21.5 48.5q0 29 -24.5 50.5t-59.5 21.5q-32 0 -55 -21.5t-23 -50.5zM965 164q0 -33 27.5 -53.5t64.5 -20.5q39 0 66.5 20.5t27.5 53.5q0 31 -25 55.5t-69 30.5q-41 -6 -66.5 -31t-25.5 -55z" />
    <glyph glyph-name="threeeighths" unicode="&#x215c;" horiz-adv-x="1443" 
d="M313 807q-126 0 -202 76q-16 12 0 28l43 52q13 13 30 0l6 -4q5 -4 12.5 -8.5t19 -10t23 -10t27 -7.5t29.5 -3q44 0 74.5 21.5t30.5 55.5q0 36 -31.5 60t-91.5 24h-62q-26 0 -26 23v57q0 25 26 25h62q52 0 80 21t28 55t-27.5 55.5t-66.5 21.5q-52 0 -98 -41q-15 -12 -29 2
l-45 50q-7 6 -7 15t9 15q8 8 23 20.5t63.5 33t99.5 20.5q95 0 156 -46.5t61 -123.5q0 -50 -32 -89t-72 -54v-4q45 -17 84 -57.5t39 -96.5q0 -79 -66.5 -127.5t-169.5 -48.5zM297 55l702 1358q14 21 35 21h68q23 0 34.5 -18t0.5 -38l-707 -1358q-3 -6 -15.5 -13t-19.5 -7h-63
q-23 0 -34 17.5t-1 37.5zM893 156q0 57 42.5 99t76.5 56v2q-39 17 -71 55t-32 89q0 75 62.5 122.5t156.5 47.5t158 -47.5t64 -122.5q0 -50 -33.5 -88.5t-71.5 -55.5v-2q45 -17 83 -57t38 -98q0 -76 -66 -126t-174 -50q-104 0 -168.5 50t-64.5 126zM1049 444q0 -63 79 -75
q39 6 60.5 26.5t21.5 48.5q0 29 -24.5 50.5t-59.5 21.5q-32 0 -54.5 -21.5t-22.5 -50.5zM1036 164q0 -33 27.5 -53.5t64.5 -20.5q39 0 67 20.5t28 53.5q0 31 -25.5 55.5t-69.5 30.5q-41 -6 -66.5 -31t-25.5 -55z" />
    <glyph glyph-name="fiveeighths" unicode="&#x215d;" horiz-adv-x="1443" 
d="M299 55l702 1358q14 21 35 21h68q23 0 34.5 -18t0.5 -38l-707 -1358q-3 -6 -15.5 -13t-19.5 -7h-63q-23 0 -34 17.5t-1 37.5zM313 807q-125 0 -198 78q-8 9 -8.5 15t6.5 15l49 54q15 15 28 2q6 -6 18.5 -15t44.5 -21.5t64 -12.5q47 0 80 29t33 69q0 41 -31 66.5t-86 25.5
h-155q-14 0 -22.5 10t-8.5 23v270q0 8 5.5 13.5t12.5 5.5h324q7 0 12.5 -5.5t5.5 -13.5v-74q0 -6 -5.5 -11t-12.5 -5h-225v-102h86q109 0 171 -54t62 -147q0 -92 -70.5 -153.5t-179.5 -61.5zM895 156q0 57 42.5 99t76.5 56v2q-39 17 -71 55t-32 89q0 75 62.5 122.5
t156.5 47.5t158 -47.5t64 -122.5q0 -50 -33.5 -88.5t-71.5 -55.5v-2q45 -17 83 -57t38 -98q0 -76 -66 -126t-174 -50q-104 0 -168.5 50t-64.5 126zM1051 444q0 -63 79 -75q39 6 60.5 26.5t21.5 48.5q0 29 -24.5 50.5t-59.5 21.5q-32 0 -54.5 -21.5t-22.5 -50.5zM1038 164
q0 -33 27.5 -53.5t64.5 -20.5q39 0 67 20.5t28 53.5q0 31 -25.5 55.5t-69.5 30.5q-41 -6 -66.5 -31t-25.5 -55z" />
    <glyph glyph-name="seveneighths" unicode="&#x215e;" horiz-adv-x="1443" 
d="M297 55l702 1358q14 21 35 21h68q23 0 34.5 -18t0.5 -38l-707 -1358q-3 -6 -15.5 -13t-19.5 -7h-63q-23 0 -34 17.5t-1 37.5zM215 827q-20 0 -20 15v14l254 465h-259q-8 0 -13 5.5t-5 12.5v76q0 8 5.5 13.5t12.5 5.5h410q7 0 12.5 -5.5t5.5 -13.5v-26l-280 -543
q-11 -19 -29 -19h-94zM893 156q0 57 42.5 99t76.5 56v2q-39 17 -71 55t-32 89q0 75 62.5 122.5t156.5 47.5t158 -47.5t64 -122.5q0 -50 -33.5 -88.5t-71.5 -55.5v-2q45 -17 83 -57t38 -98q0 -76 -66 -126t-174 -50q-104 0 -168.5 50t-64.5 126zM1049 444q0 -63 79 -75
q39 6 60.5 26.5t21.5 48.5q0 29 -24.5 50.5t-59.5 21.5q-32 0 -54.5 -21.5t-22.5 -50.5zM1036 164q0 -33 27.5 -53.5t64.5 -20.5q39 0 67 20.5t28 53.5q0 31 -25.5 55.5t-69.5 30.5q-41 -6 -66.5 -31t-25.5 -55z" />
    <glyph glyph-name="partialdiff" unicode="&#x2202;" horiz-adv-x="1167" 
d="M113 449q0 103 36 188.5t96.5 140.5t137 85t158.5 30q61 0 127.5 -18.5t97 -32.5t47.5 -25q-19 71 -68 140.5t-106 119.5t-121 92.5t-111.5 66t-80.5 34.5q-54 17 -37 59l35 84q13 37 51 25q48 -19 97 -42t119 -65.5t130.5 -91.5t123.5 -121t107 -152.5t72.5 -187.5
t28.5 -225q0 -120 -30 -222.5t-88.5 -181.5t-152 -124t-213.5 -45q-186 0 -321 138t-135 331zM301 446q0 -116 78.5 -199t191.5 -83q80 0 140 38.5t91.5 100t44.5 130t7 136.5q-14 42 -94.5 99t-186.5 57q-114 0 -193 -81.5t-79 -197.5z" />
    <glyph glyph-name="Delta" unicode="&#x2206;" horiz-adv-x="1421" 
d="M57 84l617 1356q11 18 31 18h12q22 0 31 -18l614 -1360q15 -28 6.5 -54t-45.5 -26h-1221q-40 0 -52 22t7 62zM332 195l755 2l-376 858h-4z" />
    <glyph glyph-name="product" unicode="&#x220f;" horiz-adv-x="1374" 
d="M100 33v1368q0 12 10.5 22.5t22.5 10.5h1108q13 0 23 -10.5t10 -22.5v-1368q0 -12 -10 -22.5t-23 -10.5h-147q-14 0 -24.5 10t-10.5 23v1202h-746v-1202q0 -13 -9 -23t-23 -10h-148q-12 0 -22.5 10.5t-10.5 22.5z" />
    <glyph glyph-name="summation" unicode="&#x2211;" horiz-adv-x="1101" 
d="M100 33v61l605 633l-605 621v53q0 12 10 22.5t23 10.5h836q13 0 22.5 -10.5t9.5 -22.5v-133q0 -14 -9.5 -23.5t-22.5 -9.5h-520l419 -399q33 -33 33 -64v-84q0 -26 -33 -59l-419 -430h520q13 0 22.5 -10.5t9.5 -24.5v-131q0 -12 -9.5 -22.5t-22.5 -10.5h-836
q-13 0 -23 10.5t-10 22.5z" />
    <glyph glyph-name="minus" unicode="&#x2212;" horiz-adv-x="1075" 
d="M141 629q-15 0 -27 12t-12 27v86q0 15 12 27t27 12h793q15 0 26 -12t11 -27v-86q0 -15 -11 -27t-26 -12h-793z" />
    <glyph glyph-name="uni2215" unicode="&#x2215;" horiz-adv-x="278" 
d="M-127 20q-3 -6 -15 -13t-20 -7h-63q-23 0 -34 17.5t-1 37.5l702 1358q14 21 35 21h68q23 0 34.5 -18t0.5 -38z" />
    <glyph glyph-name="uni2219" unicode="&#x2219;" horiz-adv-x="759" 
d="M379 502q-61 0 -105.5 44.5t-44.5 104.5q0 64 44 109t106 45q63 0 107 -45t44 -109q0 -61 -44 -105t-107 -44z" />
    <glyph glyph-name="radical" unicode="&#x221a;" horiz-adv-x="1386" 
d="M453 0l-351 778q-8 17 -1 29t26 12h147q10 0 18.5 -6t10.5 -12l184 -428h9l465 1040q8 21 30 21h344q15 0 24 -9.5t9 -23.5v-111q0 -13 -9.5 -23t-23.5 -10h-233l-576 -1257q-8 -20 -28 -20h-17q-20 0 -28 20z" />
    <glyph glyph-name="infinity" unicode="&#x221e;" horiz-adv-x="1228" 
d="M387 322q-119 0 -202 83t-83 201q0 120 83 203.5t202 83.5q67 0 127 -35.5t98 -91.5q40 56 101 91.5t129 35.5q117 0 200.5 -83.5t83.5 -203.5q0 -118 -83.5 -201t-200.5 -83q-68 0 -129 34t-101 90q-38 -56 -98 -90t-127 -34zM696 606q0 -58 40.5 -98.5t99.5 -40.5
q58 0 98.5 40.5t40.5 98.5t-40.5 98.5t-98.5 40.5q-59 0 -99.5 -40.5t-40.5 -98.5zM393 467q57 0 98 40.5t41 98.5t-41 98.5t-98 40.5q-59 0 -100 -40.5t-41 -98.5t41 -98.5t100 -40.5z" />
    <glyph glyph-name="integral" unicode="&#x222b;" horiz-adv-x="804" 
d="M266 -254v1327q0 182 100 281.5t255 99.5q129 0 227 -82q9 -9 11.5 -23.5t-3.5 -25.5l-55 -90q-18 -28 -51 -6q-18 14 -58 30.5t-71 16.5q-68 0 -112 -50.5t-44 -150.5v-1329q0 -182 -99.5 -280.5t-254.5 -98.5q-136 0 -228 82q-9 9 -11.5 22.5t3.5 24.5l55 90
q9 13 24 15t28 -9q18 -14 58 -30.5t71 -16.5q68 0 111.5 50.5t43.5 152.5z" />
    <glyph glyph-name="approxequal" unicode="&#x2248;" horiz-adv-x="921" 
d="M131 657l-59 50q-23 20 -6 43q27 40 33 48q97 122 210 122q35 0 69.5 -13t50 -23.5t42.5 -31.5q6 -4 24.5 -18.5t29.5 -21.5t29 -14t34 -7q34 0 61 22.5t39.5 45.5t32 37t37.5 -3l59 -51q18 -18 2 -43q0 1 -2.5 -4t-9 -14t-15.5 -21t-21 -26t-26.5 -27.5t-32.5 -26
t-37 -22t-42 -15.5t-47 -6q-43 0 -83.5 20t-66.5 43.5t-60.5 43.5t-66.5 20q-30 0 -55.5 -15.5t-39.5 -35t-29.5 -38t-25.5 -24.5t-28 6zM147 266l-59 49q-22 22 -6 45q13 26 52 68q90 100 192 100q12 0 24 -1t23.5 -4.5t19.5 -5.5t19.5 -8t16.5 -8.5t17 -10.5t14 -9.5
l14 -10.5l13 -9q3 -3 18.5 -14.5t23.5 -17t22 -13.5t27 -11.5t26 -3.5q28 0 51 15t35 33.5t26.5 36t25 23t30.5 -6.5l62 -49q19 -19 2 -43q-18 -36 -61 -81q-81 -83 -173 -83q-43 0 -83.5 20t-66 43.5t-60 43.5t-66.5 20q-30 0 -56 -15.5t-40 -35t-30 -38t-26 -24.5t-27 6z
" />
    </font>
</defs>
</svg>
