<?xml version="1.0" standalone="no"?>
<!DOCTYPE svg PUBLIC "-//W3C//DTD SVG 1.1//EN" "http://www.w3.org/Graphics/SVG/1.1/DTD/svg11.dtd" >
<svg xmlns="http://www.w3.org/2000/svg" xmlns:xlink="http://www.w3.org/1999/xlink" version="1.1">
<metadata>
Created by FontForge 20170731 at Thu Jul  1 08:09:14 2021
 By Aleksey,,,
Copyright (c) 2009 by Hannes von Doehren. All rights reserved.
</metadata>
<defs>
<font id="BrandonGrotesque-Bold" horiz-adv-x="1024" >
  <font-face 
    font-family="Brandon Grotesque Bold"
    font-weight="450"
    font-stretch="normal"
    units-per-em="2048"
    panose-1="2 11 8 3 2 2 3 6 2 2"
    ascent="1434"
    descent="-614"
    x-height="819"
    cap-height="1434"
    bbox="-322 -785.524 2275.45 2136.17"
    underline-thickness="102"
    underline-position="-307"
    unicode-range="U+0020-FB02"
  />
<missing-glyph horiz-adv-x="1226" 
d="M102 61v1311q0 62 62 62h899q32 0 46.5 -15t14.5 -47v-1311q0 -32 -14.5 -46.5t-46.5 -14.5h-899q-32 0 -47 14.5t-15 46.5zM537 643q0 -10 8.5 -17.5t19.5 -7.5h74q31 0 31 27v53q0 23 16 44.5t40 39t51.5 40.5t51.5 46.5t40 59.5t16 78q0 99 -73 163t-183 64
q-50 0 -96 -13t-75.5 -31.5t-52.5 -36.5t-33 -31l-10 -13q-16 -24 0 -37l46 -45q17 -11 34 0q1 1 15 14.5t20.5 19t23.5 17.5t31.5 17.5t36.5 10.5t45 5q59 0 92 -31t33 -75q0 -35 -21 -65t-50.5 -53t-59 -47.5t-50.5 -59.5t-21 -77v-59zM502 319q0 -40 29 -69t69 -29
q41 0 70.5 29t29.5 69t-29.5 69.5t-70.5 29.5q-40 0 -69 -29.5t-29 -69.5z" />
    <glyph glyph-name="fi" unicode="fi" horiz-adv-x="1140" 
d="M172 39v565h-70q-17 0 -28 11.5t-11 27.5v137q0 17 11 28t28 11h70v223q0 185 114 298.5t289 113.5q89 0 173.5 -28t140.5 -60q13 -7 16.5 -23.5t-4.5 -29.5l-70 -129q-18 -37 -55 -19q-116 58 -198 58q-61 0 -105.5 -47t-44.5 -136v-221h551q16 0 27.5 -11t11.5 -28
v-741q0 -15 -12 -27t-27 -12h-170q-17 0 -28 11.5t-11 27.5v565h-342v-565q0 -14 -7 -22.5t-21 -11.5t-24 -4t-26 -1h-139q-15 0 -27 12t-12 27z" />
    <glyph glyph-name="fl" unicode="fl" horiz-adv-x="1167" 
d="M172 39v567h-74q-17 0 -28 11t-11 26v135q0 17 11 29t28 12h74v223q0 192 115.5 302t287.5 110q50 0 98.5 -12t82 -29t60 -33.5t39.5 -28.5l13 -12l23 58q16 37 49 37h66q15 0 26.5 -12t11.5 -27v-1356q0 -15 -11.5 -27t-26.5 -12h-172q-15 0 -27 12t-12 27v1081
q-6 9 -20 22.5t-39.5 33t-62.5 32.5t-75 13q-71 0 -121.5 -46t-50.5 -135v-221h172q16 0 27.5 -11t11.5 -28v-135q0 -15 -12 -27t-27 -12h-172v-567q0 -15 -12 -27t-27 -12h-178q-15 0 -26 12t-11 27z" />
    <glyph glyph-name="f_f" unicode="ff" horiz-adv-x="1314" 
d="M172 39v565h-72q-17 0 -28 11.5t-11 27.5v137q0 17 11 28t28 11h72v182q0 105 34.5 189t94 136.5t136 80t163.5 27.5q167 0 285 -95q106 115 280 115q74 0 141.5 -25.5t100.5 -54.5q9 -8 11.5 -22t-3.5 -25l-69 -131q-6 -12 -21.5 -15t-28.5 5q-69 41 -120 41
q-66 0 -102 -49t-36 -138v-221h205q17 0 28 -11t11 -28v-137q0 -16 -11 -27.5t-28 -11.5h-205v-565q0 -15 -12 -27t-27 -12h-178q-15 0 -27 12t-12 27v565h-354v-565q0 -15 -12 -27t-27 -12h-178q-15 0 -27 12t-12 27zM428 819h354v221q0 30 9 95q-24 27 -71.5 49t-105.5 22
q-81 0 -133.5 -55t-52.5 -150v-182z" />
    <glyph glyph-name="f_f_i" unicode="ffi" horiz-adv-x="1751" 
d="M172 39v565h-70q-17 0 -28 11.5t-11 27.5v137q0 17 11 28t28 11h70v182q0 181 113 302t317 131q169 0 283 -95q106 115 295 115q89 0 178.5 -29t140.5 -59q13 -7 17.5 -23.5t-3.5 -29.5l-73 -137q-19 -28 -54 -11q-116 58 -196 58q-63 0 -106.5 -46.5t-43.5 -136.5v-221
h549q17 0 28 -11t11 -28v-741q0 -16 -11 -27.5t-28 -11.5h-170q-17 0 -28 11.5t-11 27.5v565h-340v-565q0 -15 -12 -27t-27 -12h-178q-15 0 -27 12t-12 27v565h-356v-565q0 -15 -12 -27t-27 -12h-178q-15 0 -27 12t-12 27zM428 819h356v221q0 44 7 95q-24 27 -71.5 49
t-103.5 22q-82 0 -135 -54.5t-53 -150.5v-182z" />
    <glyph glyph-name="f_f_l" unicode="ffl" horiz-adv-x="1779" 
d="M172 39v565h-72q-17 0 -28 11.5t-11 27.5v137q0 17 11 28t28 11h72v182q0 105 34.5 189t94 136.5t136 80t163.5 27.5q167 0 285 -95q106 115 307 115q48 0 95.5 -12t81 -29t60 -33.5t39.5 -28.5l13 -12l22 58q13 37 49 37h66q15 0 27 -12t12 -27v-1356q0 -15 -12 -27
t-27 -12h-172q-15 0 -27 12t-12 27v1081q-6 9 -20 22.5t-39.5 33t-62.5 32.5t-75 13q-71 0 -121.5 -46t-50.5 -135v-221h172q16 0 27.5 -11t11.5 -28v-135q0 -15 -12 -27t-27 -12h-172v-567q0 -15 -12 -27t-27 -12h-178q-15 0 -27 12t-12 27v565h-354v-565q0 -15 -12 -27
t-27 -12h-178q-15 0 -27 12t-12 27zM428 819h354v221q0 30 9 95q-24 27 -71.5 49t-105.5 22q-81 0 -133.5 -55t-52.5 -150v-182z" />
    <glyph glyph-name="f_f_h" unicode="ffh" horiz-adv-x="2349" 
d="M172 39v565h-72q-17 0 -28 11.5t-11 27.5v137q0 17 11 28t28 11h72v172q0 207 120.5 325t307.5 118q167 0 285 -95q106 115 307 115q48 0 95.5 -12t81 -29t60 -33.5t39.5 -28.5l13 -12l22 58q13 37 49 37h66q15 0 27 -12t12 -27l2 -623q36 27 93.5 47.5t123.5 20.5
q76 0 138 -22.5t104 -61t70.5 -91.5t41.5 -111t13 -122v-393q0 -15 -12 -27t-27 -12h-166q-17 0 -28 11.5t-11 27.5v391q0 84 -44 134t-118 50q-69 0 -116 -40t-62 -105v-430q0 -39 -43 -39h-170q-15 0 -27 12t-12 27v1081q-6 9 -20 22.5t-39.5 33t-62.5 32.5t-75 13
q-74 0 -123 -46.5t-49 -140.5v-215h172q16 0 27.5 -11t11.5 -28v-135q0 -15 -12 -27t-27 -12h-172v-567q0 -15 -12 -27t-27 -12h-178q-15 0 -27 12t-12 27v565h-354v-565q0 -15 -12 -27t-27 -12h-178q-15 0 -27 12t-12 27zM428 819h354v221q0 30 9 95q-24 27 -71.5 49
t-105.5 22q-81 0 -133.5 -55t-52.5 -150v-182z" />
    <glyph glyph-name="f_k" unicode="fk" horiz-adv-x="1673" 
d="M172 39v567h-74q-17 0 -28 11.5t-11 27.5v135q0 17 11 28t28 11h74v223q0 128 57 223.5t146.5 142t197.5 46.5q80 0 153.5 -29t107.5 -57l34 -29l23 58q13 37 49 37h66q15 0 26.5 -12t11.5 -27v-887l285 287q24 24 51 24h187q25 0 33.5 -21t-7.5 -38l-305 -311l365 -392
q16 -17 7.5 -37t-34.5 -20h-223q-21 0 -33 16l-326 369v-346q0 -15 -11.5 -27t-26.5 -12h-172q-15 0 -27 12t-12 27v1081q-6 9 -20 22.5t-39.5 33t-62.5 32.5t-75 13q-71 0 -121.5 -46t-50.5 -135v-221h172q16 0 27.5 -11t11.5 -28v-135q0 -15 -12 -27t-27 -12h-172v-567
q0 -15 -12 -27t-27 -12h-178q-15 0 -26 12t-11 27z" />
    <glyph glyph-name="f_j" unicode="fj" horiz-adv-x="1140" 
d="M172 39v565h-70q-17 0 -28 11.5t-11 27.5v137q0 17 11 28t28 11h70v223q0 185 114 298.5t289 113.5q89 0 173.5 -28t140.5 -60q13 -7 16.5 -23.5t-4.5 -29.5l-70 -129q-18 -37 -55 -19q-116 58 -198 58q-61 0 -105.5 -47t-44.5 -136v-221h551q16 0 27.5 -11t11.5 -28
v-1001q0 -196 -107 -305t-276 -109q-74 0 -141.5 25.5t-100.5 54.5q-9 8 -11.5 22t3.5 25l70 131q6 12 21 15t28 -5q69 -41 121 -41q69 0 105 48.5t36 138.5v825h-338v-565q0 -15 -12 -27t-27 -12h-178q-15 0 -27 12t-12 27z" />
    <glyph glyph-name="f_f_j" unicode="ffj" horiz-adv-x="1751" 
d="M172 39v565h-70q-17 0 -28 11.5t-11 27.5v137q0 17 11 28t28 11h70v172q0 207 119.5 325t310.5 118q169 0 283 -95q106 115 295 115q89 0 177 -28.5t142 -59.5q13 -7 17.5 -23.5t-3.5 -29.5l-73 -137q-19 -28 -54 -11q-116 58 -196 58q-71 0 -110.5 -52t-39.5 -155v-197
h549q17 0 28 -11t11 -28v-973q0 -49 -6 -96q-18 -167 -120 -256.5t-255 -89.5q-73 0 -138 21.5t-95.5 51.5t-16.5 54l68 131q6 12 21 15t28 -5q69 -41 121 -41q69 0 106 49t37 138v825h-338v-565q0 -15 -12 -27t-27 -12h-178q-15 0 -27 12t-12 27v565h-356v-565
q0 -15 -12 -27t-27 -12h-178q-15 0 -27 12t-12 27zM428 819h356v207q0 58 7 109q-24 27 -71.5 49t-103.5 22q-82 0 -135 -54.5t-53 -150.5v-182z" />
    <glyph glyph-name="f_b" unicode="fb" horiz-adv-x="1695" 
d="M172 39v567h-74q-17 0 -28 11.5t-11 27.5v135q0 17 11 28t28 11h74v221q0 177 111.5 295.5t289.5 118.5q80 0 153.5 -29t107.5 -57l34 -29l23 58q13 37 49 37h66q15 0 26.5 -12t11.5 -27v-594q103 39 175 39q173 0 294 -125t121 -305q0 -178 -113.5 -304t-279.5 -126
q-48 0 -93.5 12.5t-75.5 30.5t-53.5 36t-34.5 31l-11 12l-21 -63q-5 -17 -15.5 -28t-23.5 -11h-79q-15 0 -27 12t-12 27v1081q-6 9 -20 22.5t-39.5 33t-62.5 32.5t-75 13q-71 0 -121.5 -46t-50.5 -135v-221h172q16 0 27.5 -11t11.5 -28v-135q0 -15 -12 -27t-27 -12h-172
v-567q0 -15 -12 -27t-27 -12h-178q-15 0 -26 12t-11 27zM1038 326q8 -41 53 -83t115 -42q83 0 137 60.5t54 148.5q0 87 -56.5 145.5t-142.5 58.5q-45 0 -85 -12t-57 -24l-18 -11v-241z" />
    <glyph glyph-name="f_f_k" unicode="ffk" horiz-adv-x="2285" 
d="M172 39v565h-72q-17 0 -28 11.5t-11 27.5v137q0 17 11 28t28 11h72v182q0 105 34.5 189t94 136.5t136 80t163.5 27.5q167 0 285 -95q106 115 303 115q49 0 97.5 -12t82 -29t60.5 -33.5t40 -28.5l13 -12l26 68q3 10 13.5 18.5t23.5 8.5h74q15 0 27 -12t12 -27v-887
l285 287q24 24 51 24h186q26 0 34.5 -21t-7.5 -38l-305 -311l364 -392q16 -17 7.5 -37t-34.5 -20h-223q-21 0 -33 16l-325 369v-346q0 -15 -12 -27t-27 -12h-172q-15 0 -27 12t-12 27v1081q-6 9 -20 22.5t-39.5 33t-62.5 32.5t-75 13q-71 0 -121.5 -46t-50.5 -135v-221h172
q16 0 27.5 -11t11.5 -28v-135q0 -15 -12 -27t-27 -12h-172v-567q0 -15 -12 -27t-27 -12h-178q-15 0 -27 12t-12 27v565h-354v-565q0 -15 -12 -27t-27 -12h-178q-15 0 -27 12t-12 27zM428 819h354v221q0 30 9 95q-24 27 -71.5 49t-105.5 22q-81 0 -133.5 -55t-52.5 -150v-182
z" />
    <glyph glyph-name="f_h" unicode="fh" horiz-adv-x="1736" 
d="M172 39v567h-74q-17 0 -28 11.5t-11 27.5v135q0 17 11 28t28 11h74v221q0 179 113 296.5t295 117.5q77 0 149 -29t105 -57l34 -29l23 58q13 37 49 37h66q15 0 26.5 -12t11.5 -27l3 -623q36 27 93.5 47.5t123.5 20.5q76 0 138 -22.5t103.5 -61t70 -91.5t41.5 -111t13 -122
v-393q0 -15 -12 -27t-27 -12h-166q-17 0 -28 11.5t-11 27.5v391q0 85 -43.5 134.5t-117.5 49.5q-69 0 -116 -40t-62 -105v-430q0 -39 -43 -39h-170q-15 0 -27 12t-12 27v1081q-6 9 -20 22.5t-39.5 33t-62.5 32.5t-75 13q-71 0 -121.5 -46t-50.5 -135v-221h172q16 0 27.5 -11
t11.5 -28v-135q0 -15 -12 -27t-27 -12h-172v-567q0 -15 -12 -27t-27 -12h-178q-15 0 -26 12t-11 27z" />
    <glyph glyph-name="f_f_b" unicode="ffb" horiz-adv-x="2308" 
d="M172 39v565h-72q-17 0 -28 11.5t-11 27.5v137q0 17 11 28t28 11h72v180q0 192 117 313.5t311 121.5q167 0 285 -95q106 115 303 115q49 0 97.5 -12t82 -29t60.5 -33.5t40 -28.5l13 -12l22 58q13 37 49 37h66q15 0 27 -12t12 -27v-594q103 39 174 39q173 0 294.5 -125
t121.5 -305q0 -178 -114 -304t-280 -126q-48 0 -93.5 12.5t-75.5 30.5t-53.5 36t-34.5 31l-11 12l-20 -63q-5 -17 -15.5 -28t-23.5 -11h-80q-15 0 -27 12t-12 27v1081q-6 9 -20 22.5t-39.5 33t-62.5 32.5t-75 13q-71 0 -121.5 -46t-50.5 -135v-221h172q16 0 27.5 -11
t11.5 -28v-135q0 -15 -12 -27t-27 -12h-172v-567q0 -15 -12 -27t-27 -12h-178q-15 0 -27 12t-12 27v565h-354v-565q0 -15 -12 -27t-27 -12h-178q-15 0 -27 12t-12 27zM428 819h354v221q0 30 9 95q-24 27 -71.5 49t-105.5 22q-81 0 -133.5 -55t-52.5 -150v-182zM1651 326
q8 -41 53 -83t115 -42q83 0 136.5 60.5t53.5 148.5q0 87 -56.5 145.5t-142.5 58.5q-45 0 -85 -12t-57 -24l-17 -11v-241z" />
    <glyph glyph-name=".notdef" horiz-adv-x="1226" 
d="M102 61v1311q0 62 62 62h899q32 0 46.5 -15t14.5 -47v-1311q0 -32 -14.5 -46.5t-46.5 -14.5h-899q-32 0 -47 14.5t-15 46.5zM537 643q0 -10 8.5 -17.5t19.5 -7.5h74q31 0 31 27v53q0 23 16 44.5t40 39t51.5 40.5t51.5 46.5t40 59.5t16 78q0 99 -73 163t-183 64
q-50 0 -96 -13t-75.5 -31.5t-52.5 -36.5t-33 -31l-10 -13q-16 -24 0 -37l46 -45q17 -11 34 0q1 1 15 14.5t20.5 19t23.5 17.5t31.5 17.5t36.5 10.5t45 5q59 0 92 -31t33 -75q0 -35 -21 -65t-50.5 -53t-59 -47.5t-50.5 -59.5t-21 -77v-59zM502 319q0 -40 29 -69t69 -29
q41 0 70.5 29t29.5 69t-29.5 69.5t-70.5 29.5q-40 0 -69 -29.5t-29 -69.5z" />
    <glyph glyph-name=".null" horiz-adv-x="0" 
 />
    <glyph glyph-name="nonmarkingreturn" horiz-adv-x="682" 
 />
    <glyph glyph-name="space" unicode=" " horiz-adv-x="452" 
 />
    <glyph glyph-name="exclam" unicode="!" horiz-adv-x="634" 
d="M285 557q-13 0 -25 10.5t-14 22.5l-80 571v234q0 15 12 27t27 12h225q15 0 27 -12t12 -27v-230l-80 -575q-2 -12 -14 -22.5t-25 -10.5h-65zM150 147q0 69 49 119.5t116 50.5q70 0 120 -50.5t50 -119.5t-50 -118t-120 -49q-68 0 -116.5 49t-48.5 118z" />
    <glyph glyph-name="quotedbl" unicode="&#x22;" horiz-adv-x="702" 
d="M463 1026q-15 0 -27 12t-12 27v330q0 15 12 27t27 12h164q21 0 32 -15.5t5 -36.5l-84 -325q-3 -12 -14.5 -21.5t-22.5 -9.5h-80zM113 1026q-15 0 -27 12t-12 27v330q0 15 12 27t27 12h163q21 0 32 -15.5t5 -36.5l-84 -325q-3 -12 -14 -21.5t-22 -9.5h-80z" />
    <glyph glyph-name="numbersign" unicode="#" horiz-adv-x="1101" 
d="M213 45l47 340h-145q-17 0 -28 11.5t-11 27.5v29q0 17 11 28t28 11h159l48 335h-148q-15 0 -27 12t-12 27v29q0 15 12 27t27 12h162l65 467q2 12 13 22.5t24 10.5h29q18 0 29 -13.5t8 -31.5l-62 -455h324l68 467q2 12 13.5 22.5t24.5 10.5h25q19 0 30.5 -13t8.5 -32
l-66 -455h131q17 0 28 -11.5t11 -27.5v-29q0 -16 -11 -27.5t-28 -11.5h-145l-47 -335h133q16 0 27.5 -11t11.5 -28v-29q0 -15 -12 -27t-27 -12h-149l-45 -352q-2 -14 -13 -23.5t-26 -9.5h-27q-19 0 -30 13t-9 32l45 340h-326l-47 -352q-1 -13 -13 -23t-26 -10h-24
q-20 0 -31 13t-8 32zM379 492h326l45 335h-324z" />
    <glyph glyph-name="dollar" unicode="$" horiz-adv-x="1075" 
d="M94 139q-11 11 -15.5 17.5t-4 18t9.5 26.5q7 11 17.5 30t18.5 33.5t19 32t21.5 28.5t21.5 19t23 7.5t24 -9.5q16 -12 43 -30t91.5 -50.5t119.5 -46.5q0 67 1 197t1 196q-68 27 -116.5 51t-107.5 64.5t-95.5 85t-62 110.5t-25.5 144q0 75 25 140.5t73.5 118.5t128.5 87.5
t182 42.5v66q0 17 11.5 27.5t27.5 10.5h27q16 0 27.5 -10.5t11.5 -27.5v-68q82 -6 165.5 -36t121.5 -52.5t69 -44.5q15 -9 19 -30t-6 -38q-6 -8 -14.5 -22t-15.5 -24.5t-16 -24.5t-17 -24t-17.5 -20.5t-17.5 -17t-17 -11t-17 -3.5t-16 6q-2 1 -38.5 23t-87.5 48t-95 40v-369
q64 -27 113 -51.5t111 -67t102 -88.5t68 -113.5t28 -144.5q0 -171 -112.5 -281t-313.5 -122v-213q0 -17 -11.5 -27t-29.5 -10q-64 0 -64 37v213q-77 6 -147 25.5t-118.5 46.5t-76.5 47t-47 38zM481 895v330q-73 -9 -113 -46.5t-40 -86.5q0 -61 37 -108t116 -89zM592 203
q67 11 110 52.5t43 100.5q0 116 -153 205v-358z" />
    <glyph glyph-name="percent" unicode="%" horiz-adv-x="1355" 
d="M322 901q-116 0 -196.5 80.5t-80.5 196.5q0 115 80.5 195.5t196.5 80.5q114 0 195 -80.5t81 -195.5t-81 -196t-195 -81zM213 55l702 1358q11 21 35 21h103q23 0 34 -18t0 -38l-706 -1358q-3 -7 -13.5 -13.5t-21.5 -6.5h-98q-23 0 -34 17.5t-1 37.5zM322 1077q40 0 69 30
t29 71q0 40 -29 69t-69 29q-41 0 -71 -29t-30 -69q0 -41 30 -71t71 -30zM719 256q0 115 81 195.5t195 80.5q116 0 197.5 -80.5t81.5 -195.5t-81.5 -195.5t-197.5 -80.5q-114 0 -195 80.5t-81 195.5zM895 256q0 -41 29.5 -70.5t70.5 -29.5q40 0 70.5 29.5t30.5 70.5
q0 39 -30.5 68.5t-70.5 29.5q-41 0 -70.5 -29t-29.5 -69z" />
    <glyph glyph-name="ampersand" unicode="&#x26;" horiz-adv-x="1411" 
d="M152 365q0 43 8 84t23.5 74.5t33 62.5t41 54t43 43.5t44 36t38.5 26.5t32 19t19 11v4l-43 47q-69 72 -104.5 141.5t-34.5 153.5q0 60 25 118t71.5 106.5t122 78t168.5 29.5q169 0 278 -97t109 -237q0 -59 -21 -114.5t-56.5 -98.5t-65.5 -71.5t-67 -56.5t-40 -31l236 -238
q50 101 73 227q7 35 21 48t47 3l113 -32q9 -2 15.5 -5.5t10.5 -8t7 -8.5t4 -10.5t2 -10.5t0 -11t-1.5 -9.5t-2 -9t-1.5 -7.5q-41 -171 -126 -326l182 -172q16 -16 22 -25.5t1.5 -28t-27.5 -40.5l-84 -86q-44 -40 -90 6l-148 150q-14 -17 -35 -35t-61.5 -44.5t-88 -46
t-117 -34t-144.5 -14.5q-191 0 -311.5 112t-120.5 273zM631 893q1 1 12 7t18 10t21 13t24 17t23.5 20t23.5 23t20.5 26t17 30t10.5 33t4 36q0 61 -48.5 107.5t-125.5 46.5q-69 0 -110.5 -40.5t-41.5 -99.5q-1 -32 13 -63t30 -50.5t51 -56.5q9 -9 13 -14zM395 391
q0 -84 61.5 -138t153.5 -54q158 0 264 120l-305 324q-1 0 -14.5 -8t-21 -13t-24 -16.5t-27 -22t-25.5 -26t-24.5 -33t-19 -38t-14 -45t-4.5 -50.5z" />
    <glyph glyph-name="quotesingle" unicode="'" horiz-adv-x="352" 
d="M113 1026q-15 0 -27 12t-12 27v330q0 15 12 27t27 12h163q21 0 32 -15.5t5 -36.5l-84 -325q-3 -12 -14 -21.5t-22 -9.5h-80z" />
    <glyph glyph-name="parenleft" unicode="(" horiz-adv-x="700" 
d="M596 -162q-53 4 -101.5 16t-101 39t-95.5 67t-83 103t-67.5 143.5t-43.5 192.5t-16 246q0 185 31 328.5t80 230.5t118 143.5t136 78.5t143 26q17 1 28 -8t11 -23l6 -135q1 -12 -6.5 -23.5t-18.5 -13.5q-146 -39 -211 -189.5t-65 -414.5q0 -265 64.5 -414t211.5 -188
q13 -3 20 -14.5t5 -24.5l-6 -133q-3 -33 -39 -33z" />
    <glyph glyph-name="parenright" unicode=")" horiz-adv-x="702" 
d="M59 4q-2 13 5 24.5t20 14.5q147 39 211.5 188t64.5 414q0 264 -65 414.5t-211 189.5q-11 2 -18.5 13.5t-6.5 23.5l7 135q0 14 10.5 23t27.5 8q76 -4 143 -26t136 -78.5t118 -143.5t80 -230.5t31 -328.5q0 -134 -16 -246t-43.5 -192.5t-67.5 -143.5t-83 -103t-95.5 -67
t-101 -39t-101.5 -16q-35 0 -38 33z" />
    <glyph glyph-name="asterisk" unicode="*" horiz-adv-x="716" 
d="M326 758q-15 0 -27 12t-12 27l4 178l-148 -103q-12 -9 -28.5 -5t-24.5 16l-35 55q-9 14 -5.5 30t16.5 25l170 103l-170 102q-13 9 -17 25.5t4 29.5q39 55 39 56q8 11 23.5 14t27.5 -6l148 -103l-4 181q0 15 12 27t27 12h65q15 0 27 -12t12 -27l-4 -181l147 105
q12 8 29.5 5t24.5 -15l35 -56q9 -13 6.5 -29.5t-17.5 -25.5l-170 -102l170 -105q14 -9 17.5 -25t-4.5 -28l-39 -55q-7 -13 -23.5 -17t-28.5 4l-147 103l4 -176q0 -15 -12 -27t-27 -12h-65z" />
    <glyph glyph-name="plus" unicode="+" horiz-adv-x="1146" 
d="M477 307v305h-307q-15 0 -27 12t-12 27v115q0 15 12 27t27 12h307v309q0 15 12 26t27 11h115q15 0 27 -11t12 -26v-309h309q15 0 26 -12t11 -27v-115q0 -15 -11 -27t-26 -12h-309v-305q0 -15 -12 -26t-27 -11h-115q-15 0 -27 11t-12 26z" />
    <glyph glyph-name="comma" unicode="," horiz-adv-x="530" 
d="M74 145q0 70 51.5 120t128.5 50q36 0 70 -14t66 -43.5t51.5 -84t19.5 -126.5q0 -89 -25 -167.5t-64.5 -132t-75 -87.5t-69.5 -55q-28 -19 -51 4l-31 33q-11 12 -8.5 27.5t17.5 27.5q55 48 83 83q80 102 80 216l-5 -2q-4 -1 -11 -3.5t-16 -5t-21 -4t-24 -1.5
q-68 0 -117 49t-49 116z" />
    <glyph glyph-name="hyphen" unicode="-" horiz-adv-x="755" 
d="M150 393q-17 0 -28 11t-11 26v137q0 17 11 28t28 11h456q17 0 28 -11t11 -28v-137q0 -15 -11 -26t-28 -11h-456z" />
    <glyph glyph-name="period" unicode="." horiz-adv-x="481" 
d="M72 147q0 69 49.5 119.5t118.5 50.5t119.5 -50.5t50.5 -119.5t-50.5 -118t-119.5 -49t-118.5 49t-49.5 118z" />
    <glyph glyph-name="slash" unicode="/" horiz-adv-x="722" 
d="M59 51l402 1356q3 11 14 19t23 8h147q22 0 32.5 -15t4.5 -37l-399 -1355q-3 -10 -14.5 -18.5t-22.5 -8.5h-150q-21 0 -32 15t-5 36z" />
    <glyph glyph-name="zero" unicode="0" horiz-adv-x="1282" 
d="M641 -20q-245 0 -380.5 189t-135.5 527t135.5 527.5t380.5 189.5t380.5 -189.5t135.5 -527.5t-135.5 -527t-380.5 -189zM641 221q119 0 183.5 123.5t64.5 351.5q0 227 -64.5 351t-183.5 124t-183.5 -124t-64.5 -351q0 -228 64.5 -351.5t183.5 -123.5z" />
    <glyph glyph-name="one" unicode="1" horiz-adv-x="731" 
d="M289 39v981l-180 -39q-14 -3 -27 5.5t-14 21.5l-13 100q-3 23 11 37l294 248h144q15 0 26 -12t11 -27v-1315q0 -15 -11 -27t-26 -12h-176q-17 0 -28 11.5t-11 27.5z" />
    <glyph glyph-name="two" unicode="2" horiz-adv-x="1060" 
d="M63 39v47q206 250 531 682q104 129 104 227q0 76 -56.5 131.5t-160.5 55.5q-117 0 -229 -121q-12 -12 -27.5 -12t-27.5 12l-99 98q-10 10 -11 25t9 28q7 8 19 21.5t53 48.5t85 61.5t111.5 48t135.5 21.5q212 0 334 -117t122 -290q0 -63 -20 -122.5t-43.5 -98.5
t-73.5 -111q-77 -109 -352 -455h442q15 0 27 -12t12 -27v-141q0 -15 -12 -27t-27 -12h-807q-17 0 -28 11.5t-11 27.5z" />
    <glyph glyph-name="three" unicode="3" horiz-adv-x="1069" 
d="M74 162q-9 11 -8 25.5t10 25.5l104 100q28 25 53 0q3 -3 16.5 -14.5t39 -28t55 -31.5t68 -25.5t73.5 -10.5q86 0 151.5 55t65.5 137q0 84 -75 143.5t-207 59.5h-115q-17 0 -28 11t-11 30v129q0 41 39 41h115q121 0 187.5 53t66.5 135t-59 135.5t-140 53.5
q-122 0 -207 -99q-11 -12 -26 -13t-29 11l-100 95q-12 11 -11.5 26.5t11.5 26.5q6 7 18 19.5t51.5 43.5t81.5 54.5t106 43t128 19.5q119 0 218 -45.5t158.5 -132t59.5 -197.5q0 -109 -65 -195t-146 -124v-6q40 -17 80 -44.5t79.5 -68.5t64 -99t24.5 -122q0 -175 -130.5 -287
t-340.5 -112q-271 0 -426 182z" />
    <glyph glyph-name="four" unicode="4" horiz-adv-x="1222" 
d="M72 297q-17 0 -28 11.5t-11 27.5v170l737 897q12 12 31 12h110q16 0 27.5 -11t11.5 -28v-872h164q17 0 28 -11t11 -26v-127q0 -16 -11 -27.5t-28 -11.5h-164l2 -262q0 -15 -12 -27t-27 -12h-170q-15 0 -26.5 12t-11.5 27v258h-633zM303 510h410v491z" />
    <glyph glyph-name="five" unicode="5" horiz-adv-x="1081" 
d="M117 150q-21 24 -21.5 37t17.5 32l102 100q26 23 49 3q8 -8 27 -22.5t55 -37.5t85.5 -39t96.5 -16q102 0 170 71.5t68 170.5t-65.5 164t-182.5 65h-315q-29 0 -46.5 22.5t-17.5 49.5v604q0 16 11 27.5t28 11.5h647q17 0 28 -11.5t11 -27.5v-140q0 -15 -11 -26.5
t-28 -11.5h-454v-273h176q216 0 342.5 -125.5t126.5 -328.5q0 -194 -143 -331.5t-353 -137.5q-77 0 -146.5 17.5t-119 45.5t-82.5 54t-55 53z" />
    <glyph glyph-name="six" unicode="6" horiz-adv-x="1103" 
d="M88 545q0 123 29 234.5t75 194.5t109.5 155.5t125.5 121.5t131 89.5t118.5 62t93.5 35.5q45 12 57 -29l47 -121q17 -43 -36 -59q-45 -14 -104 -44t-132 -78.5t-133 -120t-82 -150.5q33 19 101 38t133 19q78 0 151.5 -29t133.5 -82.5t96 -140t36 -192.5q0 -193 -137 -331
t-326 -138q-156 0 -268 78t-165.5 204t-53.5 283zM573 213q96 0 165 71.5t69 168.5q0 99 -69 169t-167 70q-92 0 -154 -55.5t-83 -122.5q0 -54 14.5 -106t42.5 -96.5t75 -71.5t107 -27z" />
    <glyph glyph-name="seven" unicode="7" horiz-adv-x="991" 
d="M109 39v22l532 1110h-541q-15 0 -27 12t-12 27v144q0 15 12 27t27 12h852q15 0 27 -12t12 -27v-15l-610 -1284q-23 -55 -70 -55h-151q-51 0 -51 39z" />
    <glyph glyph-name="eight" unicode="8" horiz-adv-x="1161" 
d="M96 373q0 62 30 123t74 105t80.5 72t63.5 42v6q-35 19 -69 47t-67.5 67.5t-54 92.5t-20.5 110q0 167 127.5 271t317.5 104q195 0 323.5 -103.5t128.5 -271.5q0 -55 -20.5 -107t-54 -91.5t-67 -67.5t-69.5 -49v-8q39 -20 78 -49.5t79.5 -72t65.5 -100.5t25 -120
q0 -171 -133.5 -282t-355.5 -111q-216 0 -349 111.5t-133 281.5zM582 834q92 21 139 73t47 121q0 73 -55 123.5t-135 50.5q-74 0 -128.5 -50.5t-54.5 -123.5q0 -149 187 -194zM369 377q0 -82 63.5 -135.5t149.5 -53.5q87 0 150 53t63 136q0 72 -57 133.5t-156 83.5
q-99 -22 -156 -83.5t-57 -133.5z" />
    <glyph glyph-name="nine" unicode="9" horiz-adv-x="1103" 
d="M229 117q-17 42 37 59q45 14 104 44t132 78.5t133 120t82 150.5q-33 -19 -101 -38t-133 -19q-78 0 -151.5 29t-133.5 82.5t-96 140t-36 192.5q0 193 136.5 331t325.5 138q117 0 211.5 -45t154 -122.5t91 -179t31.5 -218.5q0 -123 -29 -234.5t-75 -194.5t-109.5 -155.5
t-125.5 -121.5t-131 -89.5t-118.5 -62t-93.5 -35.5q-46 -13 -58 29zM532 713q92 0 154.5 55.5t83.5 122.5q0 43 -9 85t-28 81t-46.5 69t-68 48t-88.5 18q-96 0 -164.5 -71.5t-68.5 -168.5q0 -99 68.5 -169t166.5 -70z" />
    <glyph glyph-name="colon" unicode=":" horiz-adv-x="548" 
d="M274 545q-62 0 -104.5 42.5t-42.5 104.5t43 105t104 43q62 0 105 -43t43 -105q0 -61 -43 -104t-105 -43zM127 127q0 61 42.5 104t104.5 43t105 -43t43 -104t-43 -104t-105 -43t-104.5 43t-42.5 104z" />
    <glyph glyph-name="semicolon" unicode=";" horiz-adv-x="505" 
d="M244 545q-62 0 -105 43t-43 104q0 62 43 105t105 43q61 0 104 -43t43 -105t-42.5 -104.5t-104.5 -42.5zM104 117q0 56 42 96.5t104 40.5q30 0 58 -11.5t54 -35.5t42 -69t16 -105q0 -208 -184 -371q-26 -20 -48 2l-28 31q-22 22 4 45q13 9 31 26.5t45 49.5t45 78.5
t18 95.5l-3 -1l-10 -2.5t-13 -3t-16.5 -2.5t-18.5 -1q-57 0 -97.5 40t-40.5 97z" />
    <glyph glyph-name="less" unicode="&#x3c;" horiz-adv-x="892" 
d="M59 430q-8 5 -14 15.5t-6 19.5v10q0 9 6 19.5t14 15.5l711 434q20 12 38.5 2t18.5 -35v-143q0 -20 -18 -33l-440 -262l440 -254q18 -13 18 -33v-143q0 -25 -18.5 -35t-38.5 2z" />
    <glyph glyph-name="equal" unicode="=" horiz-adv-x="999" 
d="M166 692q-17 0 -28 11.5t-11 27.5v115q0 16 11 27.5t28 11.5h668q17 0 27.5 -11.5t10.5 -27.5v-115q0 -16 -10.5 -27.5t-27.5 -11.5h-668zM166 260q-17 0 -28 11.5t-11 27.5v117q0 16 11 27.5t28 11.5h668q17 0 27.5 -11.5t10.5 -27.5v-117q0 -16 -10.5 -27.5
t-27.5 -11.5h-668z" />
    <glyph glyph-name="greater" unicode="&#x3e;" horiz-adv-x="892" 
d="M66 43v143q0 22 18 33l438 254l-438 262q-18 11 -18 33v143q0 25 18.5 35t38.5 -2l711 -434q8 -5 14 -15.5t6 -19.5v-10q0 -9 -6 -19.5t-14 -15.5l-711 -420q-20 -12 -38.5 -2t-18.5 35z" />
    <glyph glyph-name="question" unicode="?" horiz-adv-x="919" 
d="M338 557q-16 0 -27.5 11t-11.5 28v86q0 54 29.5 103t71.5 86t83.5 71.5t71 73.5t29.5 78q0 58 -45 97.5t-119 39.5q-43 0 -82 -13.5t-59.5 -29t-45.5 -37t-34 -27.5q-25 -15 -45 2l-97 95q-12 11 -11.5 26.5t11.5 26.5q6 7 17 19.5t49 43.5t81 54.5t112.5 43t142.5 19.5
q164 0 280.5 -98t116.5 -246q0 -58 -23 -110t-57.5 -87.5t-75 -70t-75 -60.5t-57.5 -56t-23 -58v-68q0 -19 -10.5 -31t-30.5 -12h-166zM252 147q0 69 49.5 119.5t118.5 50.5t119.5 -50.5t50.5 -119.5t-50.5 -118t-119.5 -49t-118.5 49t-49.5 118z" />
    <glyph glyph-name="at" unicode="@" horiz-adv-x="2019" 
d="M66 457q0 216 71 401t197.5 316t308.5 205.5t397 74.5q208 0 378 -65.5t282 -181.5t172.5 -274t60.5 -343q0 -85 -15 -167.5t-50 -163.5t-87 -142t-133 -99t-180 -38q-182 0 -243 159h-17q-35 -69 -104.5 -114t-161.5 -45q-159 0 -265 126t-106 306q0 185 106.5 306.5
t270.5 121.5q134 0 248 -121q4 10 12 35t11 30.5t13 17.5t24 14.5t36 2.5h35q16 0 27.5 -11t11.5 -28v-374q0 -66 10 -111t28.5 -67.5t39.5 -31t49 -8.5q64 0 113 55.5t73.5 143.5t24.5 193q0 142 -42.5 262t-124.5 210t-211.5 140.5t-293.5 50.5q-341 0 -542 -211.5
t-201 -574.5q0 -245 135.5 -436.5t357.5 -284.5q35 -15 23 -49l-49 -129q-14 -35 -45 -23q-284 103 -464.5 354.5t-180.5 567.5zM784 426q-6 -96 48.5 -161.5t130.5 -65.5q62 0 102 33.5t55 80.5t17 109v76q-9 44 -59 89.5t-117 45.5q-74 0 -123.5 -57.5t-53.5 -149.5z" />
    <glyph glyph-name="A" unicode="A" horiz-adv-x="1357" 
d="M35 0q-23 0 -33.5 16.5t-1.5 36.5l637 1379q11 22 35 22h20q24 0 35 -22l631 -1379q9 -20 -1.5 -36.5t-33.5 -16.5h-178q-23 0 -36 9.5t-24 31.5l-100 221h-612l-101 -221q-16 -41 -59 -41h-178zM473 489h412l-205 451h-6z" />
    <glyph glyph-name="B" unicode="B" horiz-adv-x="1263" 
d="M186 39v1356q0 16 11 27.5t28 11.5h469q183 0 307.5 -109t124.5 -270q0 -108 -70 -197t-155 -129q44 -14 88 -41t85.5 -67.5t67 -99.5t25.5 -126q0 -170 -128.5 -282.5t-317.5 -112.5h-496q-17 0 -28 11.5t-11 27.5zM451 831h219q77 0 126.5 53.5t49.5 131.5
q0 77 -49 125.5t-127 48.5h-219v-359zM451 242h247q77 0 131 53.5t54 132.5q0 75 -63.5 126.5t-145.5 51.5h-223v-364z" />
    <glyph glyph-name="C" unicode="C" horiz-adv-x="1400" 
d="M82 715q0 151 58.5 288t157 235.5t235.5 157t288 58.5q152 0 270.5 -47t225.5 -143q13 -12 13.5 -29t-11.5 -29l-125 -129q-10 -12 -24.5 -12t-26.5 12q-65 57 -147.5 89t-168.5 32q-128 0 -233.5 -65.5t-164 -174.5t-58.5 -237q0 -127 59 -235.5t165 -173t234 -64.5
q170 0 314 117q12 10 27 9.5t24 -9.5l127 -132q11 -11 10 -27.5t-12 -27.5q-204 -198 -498 -198q-101 0 -197 26t-177 73t-149 114.5t-115.5 148.5t-74 176.5t-26.5 196.5z" />
    <glyph glyph-name="D" unicode="D" horiz-adv-x="1511" 
d="M186 39v1356q0 15 11 27t26 12h486q145 0 278 -57t229.5 -153t153.5 -228t57 -277q0 -146 -57 -279.5t-153.5 -229.5t-229 -153t-278.5 -57h-486q-15 0 -26 12t-11 27zM451 250h233q199 0 330 134t131 335q0 200 -131 333.5t-330 133.5h-233v-936z" />
    <glyph glyph-name="E" unicode="E" horiz-adv-x="1204" 
d="M186 39v1356q0 16 11 27.5t28 11.5h834q17 0 28 -11.5t11 -27.5v-168q0 -16 -11 -27.5t-28 -11.5h-606v-336h505q15 0 27 -12t12 -27v-170q0 -17 -11.5 -28t-27.5 -11h-505v-358h606q17 0 28 -11.5t11 -27.5v-168q0 -16 -11 -27.5t-28 -11.5h-834q-17 0 -28 11.5
t-11 27.5z" />
    <glyph glyph-name="F" unicode="F" horiz-adv-x="1155" 
d="M186 39v1356q0 16 11 27.5t28 11.5h834q17 0 28 -11.5t11 -27.5v-168q0 -16 -11 -27.5t-28 -11.5h-606v-385h505q15 0 27 -12t12 -27v-168q0 -15 -12 -27t-27 -12h-505v-518q0 -15 -12 -27t-27 -12h-189q-17 0 -28 11.5t-11 27.5z" />
    <glyph glyph-name="G" unicode="G" horiz-adv-x="1458" 
d="M84 715q0 151 58 288t156 235.5t234.5 157t286.5 58.5q136 0 265 -49.5t235 -140.5q12 -12 13 -29t-11 -29l-127 -133q-25 -25 -53 0q-134 119 -310 119q-125 0 -231 -65t-166.5 -174.5t-60.5 -235.5q0 -125 61 -233t167.5 -172t232.5 -64q112 0 243 51v174h-164
q-17 0 -28 11t-11 26v162q0 17 11 28t28 11h394q15 0 25.5 -12t10.5 -27v-525q0 -20 -16 -32q-9 -5 -25 -14t-68 -32t-108 -40.5t-140 -32t-167 -14.5q-150 0 -286.5 57.5t-234.5 155t-156 233.5t-58 287z" />
    <glyph glyph-name="H" unicode="H" horiz-adv-x="1574" 
d="M186 39v1356q0 15 12 27t27 12h191q17 0 28 -11.5t11 -27.5v-543h667v543q0 16 11 27.5t28 11.5h189q15 0 27 -12t12 -27v-1356q0 -15 -12 -27t-27 -12h-189q-17 0 -28 11.5t-11 27.5v565h-667v-565q0 -16 -11 -27.5t-28 -11.5h-191q-15 0 -27 12t-12 27z" />
    <glyph glyph-name="I" unicode="I" horiz-adv-x="641" 
d="M186 39v1356q0 15 12 27t27 12h191q15 0 27 -12t12 -27v-1356q0 -15 -12 -27t-27 -12h-191q-15 0 -27 12t-12 27z" />
    <glyph glyph-name="J" unicode="J" horiz-adv-x="856" 
d="M-33 129q-17 27 4 51l107 109q32 27 61 -2q61 -66 135 -66q66 0 115 54t49 153v967q0 16 11 27.5t28 11.5h193q17 0 28 -11.5t11 -27.5v-967q0 -208 -122 -328t-308 -120q-191 0 -312 149z" />
    <glyph glyph-name="K" unicode="K" horiz-adv-x="1341" 
d="M186 49v1335q0 21 14.5 35.5t35.5 14.5h180q20 0 34.5 -15t14.5 -35v-553l516 582q17 21 39 21h205q29 0 40.5 -25.5t-8.5 -48.5l-534 -602l573 -686q16 -20 5 -46t-41 -26h-224q-28 0 -37 14l-534 660v-625q0 -20 -14.5 -34.5t-34.5 -14.5h-180q-22 0 -36 14t-14 35z
" />
    <glyph glyph-name="L" unicode="L" horiz-adv-x="1034" 
d="M186 39v1356q0 16 11 27.5t28 11.5h189q15 0 27 -12t12 -27v-1149h522q17 0 28 -11.5t11 -27.5v-168q0 -16 -11 -27.5t-28 -11.5h-750q-17 0 -28 11.5t-11 27.5z" />
    <glyph glyph-name="M" unicode="M" horiz-adv-x="1787" 
d="M92 47l244 1376q4 31 37 31h33q24 0 34 -20l451 -967h6l451 967q10 20 34 20h33q33 0 37 -31l242 -1376q4 -21 -6 -34t-31 -13h-187q-13 0 -24 10t-14 21l-121 776h-6l-359 -805q-7 -22 -35 -22h-37q-23 0 -34 22l-363 805h-6l-119 -776q-2 -11 -13 -21t-24 -10h-184
q-20 0 -31 12.5t-8 34.5z" />
    <glyph glyph-name="N" unicode="N" horiz-adv-x="1583" 
d="M186 39v1378q0 15 12 26t27 11h51l852 -905h2v846q0 16 11 27.5t28 11.5h189q15 0 27 -12t12 -27v-1379q0 -15 -12 -25.5t-27 -10.5h-49l-856 940h-2v-881q0 -16 -11 -27.5t-28 -11.5h-187q-15 0 -27 12t-12 27z" />
    <glyph glyph-name="O" unicode="O" horiz-adv-x="1638" 
d="M84 715q0 101 26 197t73 177t114.5 149t148.5 115.5t176.5 74t196.5 26.5q151 0 287.5 -58t235 -157t156.5 -236t58 -288t-58 -287.5t-156.5 -234.5t-235 -155.5t-287.5 -57.5t-287.5 57.5t-234.5 155.5t-155.5 234.5t-57.5 287.5zM350 715q0 -193 138 -331t331 -138
q127 0 235.5 63t172 171t63.5 235t-63.5 236t-172 173t-235.5 64t-235 -64t-171 -173t-63 -236z" />
    <glyph glyph-name="P" unicode="P" horiz-adv-x="1212" 
d="M186 39v1356q0 16 11 27.5t28 11.5h482q189 0 323.5 -133.5t134.5 -319.5q0 -125 -61.5 -231t-166.5 -168t-228 -62h-256v-481q0 -15 -12 -27t-27 -12h-189q-17 0 -28 11.5t-11 27.5zM453 770h237q87 0 149 61.5t62 151.5q0 84 -62 141.5t-149 57.5h-237v-412z" />
    <glyph glyph-name="Q" unicode="Q" horiz-adv-x="1640" 
d="M84 715q0 101 26 197t73 177t114.5 149t148.5 115.5t176.5 74t196.5 26.5q151 0 287.5 -58t235 -157t156.5 -236t58 -288q0 -206 -108.5 -381t-290.5 -275l256 -403q13 -22 2.5 -42t-35.5 -20h-217q-7 0 -18 6.5t-15 14.5l-219 371q-49 -6 -92 -6q-151 0 -287.5 57.5
t-234.5 155.5t-155.5 234.5t-57.5 287.5zM350 715q0 -193 138 -331t331 -138q127 0 235.5 63t172 171t63.5 235t-63.5 236t-172 173t-235.5 64t-235 -64t-171 -173t-63 -236z" />
    <glyph glyph-name="R" unicode="R" horiz-adv-x="1363" 
d="M186 39v1356q0 16 11 27.5t28 11.5h586q185 0 315.5 -129t130.5 -312q0 -138 -83 -248t-220 -165l281 -521q11 -20 0.5 -39.5t-35.5 -19.5h-215q-24 0 -33 18l-272 543h-227v-522q0 -15 -12 -27t-27 -12h-189q-17 0 -28 11.5t-11 27.5zM455 780h333q82 0 142.5 61.5
t60.5 147.5q0 81 -60.5 140t-142.5 59h-333v-408z" />
    <glyph glyph-name="S" unicode="S" horiz-adv-x="1110" 
d="M113 139q-16 16 -19 25.5t8 36.5l74 127q11 20 34 23t36 -9l10 -7q11 -7 24 -15.5t33 -20.5t41 -23t47 -22.5t51 -19.5t52 -13.5t51 -5.5q79 0 132.5 46t53.5 112q0 76 -63.5 133.5t-196.5 111.5q-81 33 -143 69.5t-120.5 89.5t-90 125t-31.5 159q0 71 27 138.5
t80.5 125.5t145 93.5t208.5 35.5q73 0 144.5 -16t125.5 -41.5t86 -44t54 -35.5q15 -9 19 -31t-7 -37l-78 -116q-13 -20 -32.5 -28t-39.5 3q-181 113 -284 113q-82 0 -131 -44.5t-49 -99.5q0 -71 57 -124t184 -105q48 -19 86.5 -37t84.5 -43.5t81 -52t69.5 -62.5t57 -75
t36 -88.5t13.5 -104.5q0 -165 -131 -285t-340 -120q-90 0 -171 18.5t-137.5 47.5t-88 51t-53.5 42z" />
    <glyph glyph-name="T" unicode="T" horiz-adv-x="1026" 
d="M379 39v1149h-313q-17 0 -28 11.5t-11 27.5v168q0 16 11 27.5t28 11.5h895q17 0 27.5 -11.5t10.5 -27.5v-168q0 -16 -10.5 -27.5t-27.5 -11.5h-314v-1149q0 -15 -12 -27t-27 -12h-190q-15 0 -27 12t-12 27z" />
    <glyph glyph-name="U" unicode="U" horiz-adv-x="1472" 
d="M166 543v852q0 15 12 27t27 12h194q17 0 28 -11.5t11 -27.5v-838q0 -133 83 -222t214 -89t215 89t84 220v840q0 16 11 27.5t28 11.5h195q15 0 27 -12t12 -27v-852q0 -115 -44 -219t-120 -179.5t-182.5 -120t-225.5 -44.5q-158 0 -289 75.5t-205.5 204.5t-74.5 283z" />
    <glyph glyph-name="V" unicode="V" horiz-adv-x="1357" 
d="M633 2l-633 1378q-9 20 1.5 37t33.5 17h209q26 0 35 -23l393 -881h14l393 881q9 23 35 23h209q23 0 33.5 -17t1.5 -37l-635 -1378q-11 -22 -35 -22h-20q-24 0 -35 22z" />
    <glyph glyph-name="W" unicode="W" horiz-adv-x="1841" 
d="M446 8l-387 1376q-6 22 4.5 36t32.5 14h189q12 0 23 -9t14 -20l213 -817h8l325 844q7 22 35 22h37q28 0 35 -22l328 -844h8l209 817q3 11 13.5 20t22.5 9h189q22 0 32.5 -14t4.5 -36l-387 -1376q-3 -12 -14 -20t-23 -8h-33q-28 0 -35 22l-366 928h-11l-362 -928
q-11 -22 -35 -22h-33q-12 0 -23 8t-14 20z" />
    <glyph glyph-name="X" unicode="X" horiz-adv-x="1294" 
d="M61 57l426 678l-409 641q-12 20 -1.5 39t36.5 19h237q19 0 33 -19l262 -434h2l266 434q9 19 33 19h238q26 0 36.5 -19t-1.5 -39l-412 -641l426 -678q12 -22 1.5 -39.5t-36.5 -17.5h-221q-26 0 -35 18l-293 469h-6l-289 -469q-14 -18 -35 -18h-221q-27 0 -38.5 18.5
t1.5 38.5z" />
    <glyph glyph-name="Y" unicode="Y" horiz-adv-x="1193" 
d="M461 39v651l-467 684q-12 20 -1.5 40t34.5 20h209q18 0 32 -19l328 -471l328 471q14 19 32 19h211q24 0 34.5 -20t-1.5 -40l-473 -682v-653q0 -15 -12 -27t-27 -12h-188q-17 0 -28 11.5t-11 27.5z" />
    <glyph glyph-name="Z" unicode="Z" horiz-adv-x="1101" 
d="M51 39v37l611 1102v8h-512q-15 0 -27 12t-12 27v170q0 15 12 27t27 12h856q15 0 26.5 -12t11.5 -27v-27l-602 -1116v-4h523q17 0 28 -11.5t11 -27.5v-170q0 -16 -11 -27.5t-28 -11.5h-875q-15 0 -27 12t-12 27z" />
    <glyph glyph-name="bracketleft" unicode="[" horiz-adv-x="714" 
d="M371 -410h266q15 0 27 -10.5t12 -25.5v-129q0 -15 -12 -27t-27 -12h-463q-15 0 -27 12t-12 27v1970q0 15 12 27t27 12h463q15 0 27 -12t12 -27v-127q0 -17 -11.5 -28t-27.5 -11h-266v-1639z" />
    <glyph glyph-name="backslash" unicode="\" horiz-adv-x="731" 
d="M440 27l-399 1355q-6 22 4.5 37t32.5 15h155q12 0 23 -8t14 -19l402 -1356q6 -21 -5 -36t-32 -15h-158q-11 0 -22.5 8.5t-14.5 18.5z" />
    <glyph glyph-name="bracketright" unicode="]" horiz-adv-x="714" 
d="M78 -410h266v1639h-266q-16 0 -27.5 11t-11.5 28v127q0 15 12 27t27 12h463q15 0 27 -12t12 -27v-1970q0 -15 -12 -27t-27 -12h-463q-15 0 -27 12t-12 27v129q0 15 12 25.5t27 10.5z" />
    <glyph glyph-name="asciicircum" unicode="^" horiz-adv-x="1073" 
d="M109 788q-24 0 -34.5 19t1.5 39l426 596q12 20 35 20h10q23 0 35 -20l415 -596q12 -20 2 -39t-34 -19h-142q-18 0 -32 19l-252 346l-256 -346q-14 -19 -33 -19h-141z" />
    <glyph glyph-name="underscore" unicode="_" horiz-adv-x="849" 
d="M39 -59q0 17 11 28t28 11h694q17 0 28 -11t11 -28v-80q0 -15 -11 -26t-28 -11h-694q-17 0 -28 11t-11 26v80z" />
    <glyph glyph-name="grave" unicode="`" horiz-adv-x="618" 
d="M479 1081l-358 158q-32 16 -12 55l57 105q7 13 23.5 14.5t29.5 -8.5l336 -199q10 -5 13.5 -16t-1.5 -23l-37 -73q-13 -29 -51 -13z" />
    <glyph glyph-name="a" unicode="a" horiz-adv-x="874" 
d="M63 260q0 112 88 185t240 73q36 0 73.5 -5.5t57.5 -10.5l19 -6q1 77 -24 109t-83 32q-54 0 -122.5 -10t-106.5 -21q-40 -11 -47 37l-19 107q-8 39 29 51q12 5 49 13t103.5 17t125.5 9q94 0 157 -23.5t97.5 -72t48 -110.5t13.5 -151v-444q0 -15 -12 -27t-27 -12h-74
q-22 0 -35 29l-24 55q-114 -104 -250 -104q-124 0 -200.5 75.5t-76.5 204.5zM289 260q0 -46 29.5 -76t76.5 -30q45 0 88 28t54 51v113q-56 25 -115 25q-60 0 -96.5 -30.5t-36.5 -80.5z" />
    <glyph glyph-name="b" unicode="b" 
d="M123 39v1356q0 15 12 27t27 12h174q15 0 27 -12t12 -27v-592q98 37 182 37q180 0 293 -123.5t113 -306.5q0 -178 -114 -304t-280 -126q-48 0 -93.5 12.5t-75.5 30.5t-53.5 36t-34.5 31l-11 12l-20 -63q-5 -17 -15.5 -28t-23.5 -11h-80q-15 0 -27 12t-12 27zM367 334
q14 -49 56.5 -91t115.5 -42q81 0 133.5 60.5t52.5 148.5q0 87 -57 147.5t-142 60.5q-45 0 -85 -12t-57 -24l-17 -11v-237z" />
    <glyph glyph-name="c" unicode="c" horiz-adv-x="872" 
d="M59 410q0 118 61.5 217.5t161.5 156t214 56.5q182 0 303 -146q10 -14 7 -30t-18 -27l-94 -90q-22 -19 -51 6q-58 65 -141 65t-142 -61t-59 -147q0 -88 58 -148.5t141 -60.5q38 0 70 12t48.5 25t38.5 34l7 7q25 25 51 6l88 -76q35 -28 14 -57q-110 -172 -323 -172
q-176 0 -305.5 124.5t-129.5 305.5z" />
    <glyph glyph-name="d" unicode="d" 
d="M61 410q0 183 113 306.5t293 123.5q84 0 182 -37v592q0 15 12 27t27 12h174q15 0 27 -12t12 -27v-1356q0 -15 -12 -27t-27 -12h-80q-13 0 -23.5 11t-15.5 28l-20 63q-4 -5 -11.5 -13t-33.5 -29t-54.5 -37.5t-74.5 -29.5t-94 -13q-166 0 -280 126t-114 304zM299 410
q0 -88 52.5 -148.5t133.5 -60.5q73 0 115.5 42t56.5 91v237q-6 5 -18.5 13t-54 21t-86.5 13q-85 0 -142 -60.5t-57 -147.5z" />
    <glyph glyph-name="e" unicode="e" horiz-adv-x="911" 
d="M61 410q0 115 53 213t149.5 157.5t215.5 59.5q160 0 271.5 -108.5t111.5 -272.5q0 -28 -4 -56q-1 -15 -13 -24.5t-26 -9.5h-524q5 -69 59 -124t138 -55q88 0 159 52q35 21 54 0l83 -97q11 -11 11.5 -25.5t-13.5 -27.5q-121 -112 -305 -112q-182 0 -301 125t-119 305z
M313 512h310q-5 57 -48.5 98t-101.5 41q-61 0 -106.5 -40t-53.5 -99z" />
    <glyph glyph-name="f" unicode="f" horiz-adv-x="704" 
d="M172 39v565h-70q-17 0 -28 11.5t-11 27.5v137q0 17 11 28t28 11h70v221q0 196 107 305t276 109q74 0 141.5 -25.5t100.5 -54.5q9 -8 11.5 -22t-3.5 -25l-70 -131q-6 -12 -21 -15t-28 5q-69 41 -121 41q-66 0 -101.5 -49t-35.5 -138v-221h205q17 0 28 -11t11 -28v-137
q0 -16 -11 -27.5t-28 -11.5h-205v-565q0 -15 -12 -27t-27 -12h-178q-15 0 -27 12t-12 27z" />
    <glyph glyph-name="g" unicode="g" horiz-adv-x="946" 
d="M37 61q0 45 16 85t38.5 65.5t44.5 44.5t38 27l16 8q-7 8 -17 22.5t-27 64.5t-17 105q0 145 103 251t253 106h373q17 0 28 -11t11 -28v-68q0 -28 -23 -35l-114 -36q3 -3 8.5 -8t20 -24t25 -41t19.5 -58.5t9 -77.5q0 -128 -97.5 -225t-252.5 -97q-45 0 -99 8t-65 8
q-25 0 -50.5 -21.5t-25.5 -55.5q0 -31 23.5 -50.5t58.5 -19.5h262q144 0 241 -78t97 -209q0 -149 -118 -248.5t-331 -99.5q-109 0 -192.5 25t-130.5 66.5t-70.5 89.5t-23.5 100q0 121 122 194v6q-13 4 -29.5 11.5t-39.5 25.5t-40.5 40.5t-30.5 59t-13 78.5zM348 473
q0 -64 41 -105.5t103 -41.5q63 0 102 41t39 106t-39 106.5t-102 41.5q-62 0 -103 -42t-41 -106zM303 -309q0 -54 48.5 -87.5t131.5 -33.5q86 0 138.5 35.5t52.5 93.5q0 37 -34.5 68.5t-115.5 31.5q-76 0 -133 -8q-17 -6 -34.5 -15.5t-35.5 -32.5t-18 -52z" />
    <glyph glyph-name="h" unicode="h" horiz-adv-x="1064" 
d="M123 39v1356q0 15 12 27t27 12h174q15 0 27 -12t12 -27v-623q36 27 93.5 47.5t123.5 20.5q76 0 138 -22.5t103.5 -61t70 -91.5t41.5 -111t13 -122v-393q0 -15 -11.5 -27t-26.5 -12h-166q-17 0 -28 11.5t-11 27.5v395q0 84 -44 134t-118 50q-69 0 -116 -40t-62 -105v-434
q0 -39 -43 -39h-170q-15 0 -27 12t-12 27z" />
    <glyph glyph-name="i" unicode="i" horiz-adv-x="493" 
d="M244 1110q-58 0 -99 41t-41 100t41 100.5t99 41.5q60 0 101.5 -41.5t41.5 -100.5t-41.5 -100t-101.5 -41zM123 39v741q0 17 11.5 28t27.5 11h170q16 0 27.5 -11t11.5 -28v-741q0 -15 -12 -27t-27 -12h-170q-15 0 -27 12t-12 27z" />
    <glyph glyph-name="j" unicode="j" horiz-adv-x="495" 
d="M246 1110q-58 0 -99 41t-41 100t41 100.5t99 41.5q60 0 101.5 -41.5t41.5 -100.5t-41.5 -100t-101.5 -41zM123 -221v1001q0 17 11.5 28t27.5 11h172q16 0 27.5 -11t11.5 -28v-1001q0 -197 -106 -305.5t-275 -108.5q-75 0 -143 25.5t-99 54.5q-10 7 -12 22t4 25l68 131
q6 12 21 15t28 -5q69 -41 121 -41q69 0 106 49t37 138z" />
    <glyph glyph-name="k" unicode="k" horiz-adv-x="1001" 
d="M123 39v1356q0 15 12 27t27 12h174q15 0 27 -12t12 -27v-887l282 287q28 24 52 24h186q26 0 34.5 -21t-7.5 -38l-306 -311l365 -392q16 -17 7.5 -37t-34.5 -20h-221q-23 0 -35 16l-323 369v-346q0 -15 -12 -27t-27 -12h-174q-15 0 -27 12t-12 27z" />
    <glyph glyph-name="l" unicode="l" horiz-adv-x="495" 
d="M123 39v1356q0 15 12 27t27 12h172q15 0 27 -12t12 -27v-1356q0 -15 -12 -27t-27 -12h-172q-15 0 -27 12t-12 27z" />
    <glyph glyph-name="m" unicode="m" horiz-adv-x="1595" 
d="M123 39v741q0 17 11.5 28t27.5 11h76q27 0 34 -22l29 -78q16 18 38 36t56.5 38.5t81.5 33.5t98 13q162 0 267 -127q17 18 40.5 36.5t60.5 40.5t86.5 36t100.5 14q95 0 166 -33.5t112 -91.5t61 -129.5t20 -155.5v-391q0 -16 -11 -27.5t-28 -11.5h-166q-17 0 -28 11.5
t-11 27.5v405q0 81 -39 127.5t-114 46.5q-33 0 -63 -9t-49 -21.5t-33.5 -25t-20.5 -21.5l-6 -9q2 -40 2 -77v-416q0 -15 -12 -27t-27 -12h-154q-17 0 -28 11.5t-11 27.5v405q0 82 -37.5 128t-113.5 46q-69 0 -111 -38.5t-61 -90.5v-450q0 -15 -12 -27t-27 -12h-166
q-15 0 -27 12t-12 27z" />
    <glyph glyph-name="n" unicode="n" horiz-adv-x="1062" 
d="M123 39v741q0 17 11.5 28t27.5 11h78q24 0 34 -24l29 -76q16 17 37.5 34t58 38.5t87.5 35t106 13.5q94 0 166 -33.5t114 -91.5t63 -129t21 -154v-393q0 -15 -11.5 -27t-26.5 -12h-168q-17 0 -28 11.5t-11 27.5v405q0 80 -40.5 127t-113.5 47q-72 0 -123 -40t-69 -89v-450
q0 -22 -11.5 -30.5t-40.5 -8.5h-151q-15 0 -27 12t-12 27z" />
    <glyph glyph-name="o" unicode="o" horiz-adv-x="958" 
d="M59 412q0 114 56.5 212.5t153.5 157t210 58.5t210 -58.5t153.5 -157t56.5 -212.5q0 -177 -123.5 -304.5t-296.5 -127.5t-296.5 127.5t-123.5 304.5zM283 412q0 -88 56.5 -149.5t139.5 -61.5q82 0 139.5 61.5t57.5 149.5q0 86 -57.5 146t-139.5 60q-83 0 -139.5 -59.5
t-56.5 -146.5z" />
    <glyph glyph-name="p" unicode="p" 
d="M375 25v-600q0 -39 -49 -39h-164q-15 0 -27 12t-12 27v1355q0 17 11.5 28t27.5 11h80q25 0 34 -24l27 -68q30 39 102.5 76t161.5 37q167 0 281.5 -126t114.5 -304q0 -180 -119.5 -305t-286.5 -125q-100 0 -182 45zM365 248q6 -5 18.5 -13t54 -21t86.5 -13q85 0 142 61
t57 148q0 88 -54 148t-137 60q-69 0 -112 -40.5t-55 -83.5v-246z" />
    <glyph glyph-name="q" unicode="q" 
d="M61 410q0 178 114.5 304t281.5 126q89 0 161.5 -37t102.5 -76l27 68q9 24 34 24h80q16 0 27.5 -11t11.5 -28v-1355q0 -15 -12 -27t-27 -12h-164q-49 0 -49 39v600q-82 -45 -182 -45q-167 0 -286.5 125t-119.5 305zM301 406q0 -87 56.5 -146t142.5 -59q45 0 85 11.5
t57 23.5l17 12v246q-12 43 -55 83.5t-112 40.5q-83 0 -137 -62t-54 -150z" />
    <glyph glyph-name="r" unicode="r" horiz-adv-x="698" 
d="M123 39v741q0 17 11.5 28t27.5 11h78q26 0 36 -26l29 -80q20 28 45 52.5t77 49.5t110 25q77 0 126 -23t31 -59l-76 -133q-8 -14 -21.5 -19.5t-25.5 0.5q-36 12 -59 12q-55 0 -93 -27t-52 -56v-496q0 -39 -48 -39h-157q-15 0 -27 12t-12 27z" />
    <glyph glyph-name="s" unicode="s" horiz-adv-x="745" 
d="M90 55q-24 20 -12 43l55 111q6 15 20 18.5t27 -4.5q93 -49 187 -49q69 0 69 51q0 28 -28 49.5t-109 53.5q-119 46 -175 111.5t-56 158.5q0 102 76.5 172t224.5 70q157 0 252 -64q14 -9 19.5 -24.5t-1.5 -30.5l-51 -105q-7 -13 -22 -16t-27 2q-92 43 -170 43
q-70 0 -70 -47q0 -28 39 -49q14 -6 74 -31q52 -20 90 -38t75 -43.5t60 -54t37 -67.5t14 -86q0 -105 -88 -177t-238 -72q-92 0 -162.5 22.5t-109.5 52.5z" />
    <glyph glyph-name="t" unicode="t" horiz-adv-x="706" 
d="M166 244v360h-70q-15 0 -26 12t-11 27v137q0 17 11 28t26 11h70v228q0 15 12 26.5t27 11.5l168 2q15 0 26 -11.5t11 -26.5v-230h180q17 0 28 -11t11 -28v-137q0 -16 -11 -27.5t-28 -11.5h-180v-328q0 -39 16.5 -52t46.5 -13q37 0 100 22q35 12 45 -22l41 -129
q6 -15 -0.5 -29t-21.5 -20q-7 -4 -44 -16t-96 -24.5t-104 -12.5q-227 0 -227 264z" />
    <glyph glyph-name="u" unicode="u" horiz-adv-x="1030" 
d="M109 383v397q0 17 11.5 28t26.5 11h168q16 0 27.5 -11t11.5 -28v-403q0 -82 40 -129t110 -47q61 0 107.5 47t56.5 106v426q0 23 10 31t35 8h155q16 0 27.5 -11t11.5 -28v-741q0 -15 -12 -27t-27 -12h-75q-27 0 -39 31l-25 67q-2 -2 -15.5 -14.5t-20.5 -18.5t-24 -18.5
t-30.5 -20t-35 -17.5t-42.5 -15.5t-49 -9.5t-57 -4q-92 0 -160.5 33t-108 90.5t-58.5 127.5t-19 152z" />
    <glyph glyph-name="v" unicode="v" horiz-adv-x="856" 
d="M387 0l-373 770q-10 20 -2 34.5t31 14.5h178q26 0 37 -22l166 -381h4l176 381q11 22 49 22h160q23 0 31.5 -14.5t-2.5 -34.5l-375 -770q-12 -20 -35 -20h-10q-23 0 -35 20z" />
    <glyph glyph-name="w" unicode="w" horiz-adv-x="1261" 
d="M293 2l-256 770q-9 20 2 33.5t33 13.5h147q10 0 22 -7t15 -17l123 -367h2l209 393q10 19 33 19h16q22 0 33 -19l207 -393h2l123 367q5 16 15.5 20t31.5 4h133q22 0 33 -13.5t4 -33.5l-256 -770q-7 -22 -37 -22h-8q-22 0 -33 18l-258 477h-2l-256 -477q-11 -18 -33 -18
h-10q-28 0 -35 22z" />
    <glyph glyph-name="x" unicode="x" horiz-adv-x="923" 
d="M74 0q-25 0 -32 19.5t7 39.5l266 359l-258 342q-15 20 -5 39.5t36 19.5h170q25 0 40.5 -5t27.5 -23l133 -193h2l135 193q19 28 61 28h185q26 0 33 -19.5t-9 -39.5l-258 -340l260 -361q14 -20 7 -39.5t-31 -19.5h-180q-35 0 -58 33l-145 205h-2l-156 -222q-12 -16 -33 -16
h-196z" />
    <glyph glyph-name="y" unicode="y" horiz-adv-x="948" 
d="M350 57l-334 709q-9 20 1.5 36.5t33.5 16.5h185q23 0 34 -22l207 -463h2l205 463q7 14 17.5 18t31.5 4h164q25 0 35.5 -16.5t-0.5 -36.5l-627 -1356q-12 -24 -35 -24h-176q-23 0 -34 16.5t-1 38.5z" />
    <glyph glyph-name="z" unicode="z" horiz-adv-x="749" 
d="M61 39v20l291 537v4h-233q-15 0 -26 12t-11 27v141q0 17 11 28t26 11h540q24 0 35.5 -17.5t-0.5 -37.5l-297 -541v-6h221q17 0 28 -11t11 -28v-139q0 -16 -11 -27.5t-28 -11.5h-518q-15 0 -27 12t-12 27z" />
    <glyph glyph-name="braceleft" unicode="{" horiz-adv-x="806" 
d="M211 -74v252q0 61 -45.5 96t-95.5 43q-12 2 -21.5 12t-9.5 25v101q0 26 29 34q16 4 46 18.5t63.5 49t33.5 74.5v260q0 94 17.5 172.5t46.5 135t70 101t85.5 72t96 46t97.5 26.5t95 10q38 3 41 -35l8 -129q1 -16 -8 -25.5t-21 -11.5q-126 -27 -200 -119t-74 -243v-215
q0 -61 -23 -113.5t-56.5 -84t-55 -47t-35.5 -21.5v-9q26 -11 50.5 -27.5t54 -46t47.5 -77t18 -105.5v-219q0 -151 74 -241.5t200 -116.5q32 -9 29 -39l-8 -129q-2 -15 -14 -25.5t-27 -9.5q-49 2 -95 10t-97.5 26t-96 45.5t-85.5 72t-70 100.5t-46.5 134.5t-17.5 172.5z" />
    <glyph glyph-name="bar" unicode="|" horiz-adv-x="368" 
d="M133 -578v2096q0 17 11.5 27.5t27.5 10.5h27q15 0 26 -10.5t11 -27.5v-2096q0 -15 -12 -25.5t-27 -10.5h-25q-15 0 -27 10.5t-12 25.5z" />
    <glyph glyph-name="braceright" unicode="}" horiz-adv-x="806" 
d="M342 -74v219q0 58 18 105.5t47.5 77t54 46t50.5 27.5v9q-14 6 -35.5 21.5t-55 47t-56.5 84t-23 113.5v215q0 151 -74 243t-200 119q-12 2 -21 11.5t-8 25.5l8 129q3 38 41 35q70 -3 134.5 -18t135 -54.5t121.5 -99.5t84 -160.5t33 -230.5v-260q0 -40 33.5 -74.5t63.5 -49
t46 -18.5q29 -8 29 -34v-101q0 -15 -9.5 -25t-21.5 -12q-50 -8 -95.5 -43t-45.5 -96v-252q0 -94 -17.5 -172.5t-46.5 -134.5t-70 -100.5t-85.5 -72t-96 -45.5t-97.5 -26t-95 -10q-15 -1 -27 9.5t-14 25.5l-8 129q-3 30 29 39q126 26 200 116.5t74 241.5z" />
    <glyph glyph-name="asciitilde" unicode="~" horiz-adv-x="1091" 
d="M160 397q-57 57 -92 90q-10 11 -11.5 25t6.5 25q6 8 17 21.5t45 48.5t68.5 61.5t83.5 48.5t94 22q41 0 83 -15t62 -27.5t62 -41.5q3 -2 15.5 -10.5t17 -11.5t17 -10.5t19 -10.5t18.5 -8.5t21 -7.5t20 -4t21 -2q82 0 152 106q12 15 29 15.5t30 -11.5l86 -90
q11 -9 12 -23.5t-8 -25.5q-6 -8 -16.5 -21.5t-43.5 -48.5t-67 -61.5t-82 -48t-92 -21.5q-16 0 -31 1.5t-30 5.5t-26.5 7t-26.5 10t-23 10.5t-24 13.5t-21 13t-22.5 14.5t-20.5 13.5q-28 20 -41.5 28.5t-40 18.5t-51.5 10q-83 0 -152 -105q-11 -15 -28 -16t-29 12z" />
    <glyph glyph-name="uni00A0" unicode="&#xa0;" horiz-adv-x="452" 
 />
    <glyph glyph-name="exclamdown" unicode="&#xa1;" horiz-adv-x="544" 
d="M274 502q-70 0 -120 50.5t-50 119.5t50 118.5t120 49.5q68 0 117 -49.5t49 -118.5t-49.5 -119.5t-116.5 -50.5zM201 229q2 12 14 22.5t25 10.5h65q13 0 25 -10.5t14 -22.5l80 -571v-233q0 -15 -12 -27t-27 -12h-225q-15 0 -27 12t-12 27v229z" />
    <glyph glyph-name="cent" unicode="&#xa2;" horiz-adv-x="843" 
d="M315 8q-123 47 -199.5 155.5t-76.5 246.5q0 118 61 217.5t161 156t214 56.5q24 0 64 -4l22 84q5 15 18.5 22.5t28.5 3.5l25 -6q15 -3 22.5 -16.5t3.5 -30.5l-24 -86q78 -36 143 -113q11 -13 8 -30t-18 -27l-94 -90q-22 -19 -51 6q-16 19 -45 37l-105 -387q33 0 59.5 6
t48.5 20.5t31.5 22t30.5 27.5q25 25 51 6l88 -76q35 -28 15 -57q-110 -172 -324 -172q-23 0 -59 4l-54 -197q-3 -15 -17.5 -22.5t-29.5 -4.5l-22 7q-15 3 -23.5 16.5t-5.5 28.5zM375 231l104 385q-83 -1 -140.5 -61t-57.5 -145q0 -57 25 -104t69 -75z" />
    <glyph glyph-name="sterling" unicode="&#xa3;" horiz-adv-x="993" 
d="M135 39v37q128 243 76 520h-88q-15 0 -26 12t-11 27v27q0 15 11 26.5t26 11.5h63q-4 15 -18.5 69.5t-21.5 84t-14 77.5t-7 89q0 198 124 316t310 118q67 0 125 -14.5t105 -43t68 -44t52 -43.5q12 -9 13 -25.5t-9 -28.5l-100 -120q-10 -14 -27 -15.5t-28 8.5
q-12 11 -32 26.5t-72.5 42t-92.5 26.5q-74 0 -127 -53.5t-53 -139.5q0 -60 36 -181.5t42 -148.5h237q17 0 28 -11.5t11 -26.5v-29q0 -15 -11 -26t-28 -11h-217q11 -66 5 -174t-33 -195h401q15 0 26 -11t11 -28v-149q0 -15 -11 -27t-26 -12h-678q-15 0 -27 12t-12 27z" />
    <glyph glyph-name="currency" unicode="&#xa4;" horiz-adv-x="933" 
d="M197 330l-80 82q-11 10 -11 27t11 28l98 98q-25 55 -24.5 115.5t26.5 114.5l-98 98q-11 11 -11 28t11 27l82 80q11 10 28 10t27 -10l96 -96q54 26 115 26t115 -26l96 96q10 10 26.5 10t28.5 -10l80 -82q11 -11 11.5 -26.5t-9.5 -26.5l-96 -96q53 -119 2 -234l96 -96
q11 -11 11 -27t-11 -28l-82 -80q-11 -11 -26.5 -11.5t-26.5 9.5l-98 98q-117 -55 -234 0l-98 -98q-10 -10 -27 -10t-28 10zM465 575q45 0 75.5 30.5t30.5 74.5q0 46 -30 76t-76 30q-45 0 -75 -30t-30 -76q0 -44 30.5 -74.5t74.5 -30.5z" />
    <glyph glyph-name="yen" unicode="&#xa5;" horiz-adv-x="1296" 
d="M285 246q-15 0 -26 12t-11 27v26q0 15 11 27t26 12h227v142h-227q-15 0 -26 11.5t-11 26.5v27q0 15 11 27t26 12h227v94l-467 684q-12 20 -1.5 40t34.5 20h211q19 0 33 -19l327 -471l328 471q14 19 33 19h209q24 0 34 -20t-2 -40l-473 -682v-96h223q17 0 28 -11.5
t11 -27.5v-29q0 -15 -11 -25.5t-28 -10.5h-223v-142h223q17 0 28 -11.5t11 -27.5v-28q0 -15 -11 -26t-28 -11h-223v-207q0 -15 -12 -27t-27 -12h-188q-17 0 -28 11.5t-11 27.5v207h-227z" />
    <glyph glyph-name="brokenbar" unicode="&#xa6;" horiz-adv-x="645" 
d="M309 803q-15 0 -27 11t-12 26v678q0 17 11.5 27.5t27.5 10.5h27q15 0 26 -10.5t11 -27.5v-678q0 -15 -12 -26t-27 -11h-25zM270 100q0 17 11.5 28t27.5 11h27q15 0 26 -11t11 -28v-678q0 -15 -12 -25.5t-27 -10.5h-25q-15 0 -27 10.5t-12 25.5v678z" />
    <glyph glyph-name="section" unicode="&#xa7;" horiz-adv-x="1048" 
d="M145 -180q29 48 72 16q1 0 33.5 -20.5t70 -41.5t92 -39t99.5 -18q70 0 122 36.5t52 103.5q0 43 -21 80t-59.5 66.5t-77 50.5t-88.5 42q-368 152 -368 418q0 155 147 279q-147 136 -147 290q0 69 25.5 133t76.5 118.5t138.5 87t199.5 32.5q70 0 138.5 -15.5t121 -40.5
t81 -42t50.5 -33q14 -8 19.5 -26.5t-4.5 -36.5l-84 -121q-25 -39 -68 -11q-155 103 -264 103q-82 0 -129 -39.5t-47 -91.5q0 -65 55.5 -116t175.5 -99q69 -27 119.5 -51.5t109.5 -63.5t96.5 -81.5t63 -103t25.5 -130.5q0 -86 -46 -159.5t-104 -125.5q150 -138 150 -299
q0 -75 -32 -144t-89.5 -121.5t-143 -84t-186.5 -31.5q-87 0 -165 18t-131.5 46.5t-82.5 48.5t-49 39q-12 12 -17 20t-4.5 20.5t11.5 28.5zM317 532q0 -33 13.5 -61t30.5 -47t57 -42.5t67.5 -37t86.5 -40.5q30 -14 46 -21q3 2 8.5 6t20 19t25 32t19.5 45.5t9 60.5
q0 145 -309 240l-6.5 -6.5t-10 -9.5t-12 -13t-13 -17.5t-12 -20.5t-10.5 -25t-7 -29t-3 -33z" />
    <glyph glyph-name="dieresis" unicode="&#xa8;" horiz-adv-x="847" 
d="M641 1128q-54 0 -91.5 39t-37.5 93t37.5 91.5t91.5 37.5t92.5 -37.5t38.5 -91.5t-38.5 -93t-92.5 -39zM229 1128q-54 0 -91.5 39t-37.5 93t37.5 91.5t91.5 37.5t92.5 -37.5t38.5 -91.5t-38.5 -93t-92.5 -39z" />
    <glyph glyph-name="copyright" unicode="&#xa9;" horiz-adv-x="1646" 
d="M86 717q0 200 98.5 369.5t267.5 268.5t369 99q150 0 286.5 -58.5t235.5 -157.5t157.5 -235t58.5 -286q0 -120 -37.5 -232t-106 -202.5t-159 -158.5t-203 -105t-232.5 -37q-200 0 -369 98.5t-267.5 267.5t-98.5 369zM246 717q0 -156 77 -288.5t209.5 -210t288.5 -77.5
q157 0 289.5 77.5t209.5 210t77 288.5q0 157 -77 289.5t-209.5 209t-289.5 76.5q-117 0 -223.5 -45.5t-183.5 -122t-122.5 -183.5t-45.5 -224zM457 713q0 161 112 273t271 112q129 0 229 -78q14 -12 15 -28.5t-11 -30.5l-69 -78q-8 -11 -24.5 -11.5t-27.5 7.5
q-45 32 -110 32q-81 0 -135 -56.5t-54 -135.5q0 -82 54 -137.5t135 -55.5q58 0 108 33q12 9 27 8t24 -12l74 -82q11 -12 10.5 -28.5t-12.5 -28.5q-102 -86 -233 -86q-158 0 -270.5 112.5t-112.5 270.5z" />
    <glyph glyph-name="ordfeminine" unicode="&#xaa;" horiz-adv-x="636" 
d="M248 815q-90 0 -147.5 57.5t-57.5 151.5q0 84 65 138.5t177 54.5q28 0 55.5 -4.5t41.5 -8.5l13 -4q0 61 -17 86t-69 25q-50 0 -159 -25q-29 -6 -35 31l-13 67q-6 28 19 39q14 7 79 19t128 12q131 0 182 -63.5t51 -200.5v-330q0 -12 -9 -20.5t-20 -8.5h-55q-17 0 -28 21
q-2 7 -8.5 21.5t-8.5 21.5q-25 -23 -44 -37.5t-57.5 -28.5t-82.5 -14zM289 946q34 0 64.5 22t39.5 50v67q-10 9 -38.5 16t-53.5 7q-38 0 -64 -23.5t-26 -58.5q0 -34 21.5 -57t56.5 -23z" />
    <glyph glyph-name="guillemotleft" unicode="&#xab;" horiz-adv-x="964" 
d="M463 397q-17 23 0 49l223 304q14 24 37 24h117q26 0 34.5 -19t-4.5 -44l-139 -285l133 -301q11 -25 3 -43.5t-33 -18.5h-127q-18 0 -31 17zM266 80l-213 317q-17 23 0 49l223 304q14 24 37 24h117q26 0 34.5 -19t-3.5 -44l-139 -285l133 -301q11 -25 2.5 -43.5
t-33.5 -18.5h-127q-18 0 -31 17z" />
    <glyph glyph-name="logicalnot" unicode="&#xac;" horiz-adv-x="1032" 
d="M86 614q-15 0 -27 12t-12 27v115q0 15 12 27t27 12h805q16 0 27.5 -12.5t11.5 -26.5v-463q0 -15 -12 -26t-27 -11h-115q-15 0 -27 11t-12 26v309h-651z" />
    <glyph glyph-name="uni00AD" unicode="&#xad;" horiz-adv-x="710" 
d="M127 393q-17 0 -28 11t-11 26v137q0 17 11 28t28 11h457q17 0 28 -11t11 -28v-137q0 -15 -11 -26t-28 -11h-457z" />
    <glyph glyph-name="registered" unicode="&#xae;" horiz-adv-x="1646" 
d="M86 717q0 200 98.5 369.5t267.5 268.5t369 99q150 0 286.5 -58.5t235.5 -157.5t157.5 -235t58.5 -286q0 -120 -37.5 -232t-106 -202.5t-159 -158.5t-203 -105t-232.5 -37q-200 0 -369 98.5t-267.5 267.5t-98.5 369zM246 717q0 -156 77 -288.5t209.5 -210t288.5 -77.5
q157 0 289.5 77.5t209.5 210t77 288.5q0 157 -77 289.5t-209.5 209t-289.5 76.5q-117 0 -223.5 -45.5t-183.5 -122t-122.5 -183.5t-45.5 -224zM547 383v672q0 16 11 27.5t28 11.5h317q101 0 176.5 -69.5t75.5 -184.5q0 -157 -145 -228l94 -213q9 -22 -2 -38.5t-33 -16.5
h-111q-24 0 -36 29l-91 229h-106v-219q0 -16 -11 -27.5t-28 -11.5h-100q-17 0 -28 11.5t-11 27.5zM719 754h162q36 0 60 24t24 60q0 37 -23.5 60.5t-60.5 23.5h-162v-168z" />
    <glyph glyph-name="macron" unicode="&#xaf;" horiz-adv-x="847" 
d="M162 1167q-17 0 -28 11t-11 26v70q0 17 11 28t28 11h524q17 0 28 -11t11 -28v-70q0 -15 -11 -26t-28 -11h-524z" />
    <glyph glyph-name="degree" unicode="&#xb0;" horiz-adv-x="634" 
d="M317 901q-115 0 -195.5 80.5t-80.5 196.5t80.5 196t195.5 80q114 0 195.5 -80.5t81.5 -195.5t-81.5 -196t-195.5 -81zM317 1073q40 0 70.5 32t30.5 73q0 40 -30.5 70t-70.5 30q-41 0 -72.5 -30t-31.5 -70q0 -41 31.5 -73t72.5 -32z" />
    <glyph glyph-name="plusminus" unicode="&#xb1;" horiz-adv-x="1146" 
d="M477 532v211h-307q-15 0 -27 12t-12 27v115q0 15 12 27t27 12h307v303q0 15 12 26t27 11h115q15 0 27 -11t12 -26v-303h307q15 0 26 -12t11 -27v-115q0 -15 -11 -27t-26 -12h-307v-211q0 -15 -12 -25.5t-27 -10.5h-115q-15 0 -27 10.5t-12 25.5zM131 135v115q0 15 12 27
t27 12h807q15 0 26 -12t11 -27v-115q0 -15 -11 -27t-26 -12h-807q-15 0 -27 12t-12 27z" />
    <glyph glyph-name="twosuperior" unicode="&#xb2;" horiz-adv-x="567" 
d="M76 1032q-21 0 -21 19v34l226 258q51 57 51 103q0 31 -23 51.5t-59 20.5q-26 0 -51 -13t-39 -28q-19 -13 -33 6l-45 63q-10 11 -10 21.5t16 21.5q84 70 193 70q97 0 157 -52t60 -137q0 -84 -76 -176l-111 -131h164q8 0 13.5 -5.5t5.5 -12.5v-94q0 -19 -19 -19h-399z" />
    <glyph glyph-name="threesuperior" unicode="&#xb3;" horiz-adv-x="542" 
d="M250 1012q-120 0 -195 67q-17 17 -2 37l45 60q13 19 35 4l5 -4q6 -3 14.5 -7.5t20 -9.5t26.5 -8.5t30 -3.5q40 0 63 17t23 46q0 30 -25 49t-71 19h-59q-31 0 -31 29v63q0 29 31 29h59q38 0 61 17.5t23 45.5t-22 45t-56 17q-43 0 -80 -33q-8 -6 -15 -5.5t-15 11.5l-49 59
q-8 8 -8 19.5t10 17.5q8 7 22 18t61.5 29.5t98.5 18.5q99 0 160 -46.5t61 -123.5q0 -51 -31.5 -88t-72.5 -55v-3q47 -18 84.5 -56.5t37.5 -98.5q0 -82 -68.5 -129t-170.5 -47z" />
    <glyph glyph-name="acute" unicode="&#xb4;" horiz-adv-x="618" 
d="M182 1081q-38 -15 -53 13l-35 73q-12 23 12 39l334 199q13 10 30 8.5t24 -14.5l59 -105q18 -40 -12 -55z" />
    <glyph glyph-name="mu" unicode="&#xb5;" horiz-adv-x="1073" 
d="M371 -8v-567q0 -15 -12 -27t-27 -12h-168q-15 0 -27 12t-12 27v1355q0 17 11.5 28t27.5 11h168q16 0 27.5 -11t11.5 -28v-407q3 -75 42.5 -117.5t106.5 -42.5q61 0 107.5 47.5t56.5 106.5v413q0 23 10 31t35 8h156q16 0 27.5 -11t11.5 -28v-741q0 -15 -12 -27t-27 -12
h-76q-27 0 -39 31l-25 67q-2 -2 -15.5 -14.5t-20.5 -18.5t-24 -18.5t-30.5 -20t-35 -17.5t-42.5 -15.5t-49 -9.5t-57 -4q-53 0 -100 12z" />
    <glyph glyph-name="paragraph" unicode="&#xb6;" horiz-adv-x="1435" 
d="M465 575q-175 0 -300.5 125.5t-125.5 305.5q0 176 115.5 302t281.5 126l934 -2q15 0 27 -12t12 -27v-95q0 -17 -11.5 -27.5t-27.5 -10.5h-160v-1835q0 -16 -11 -27.5t-28 -11.5h-110q-15 0 -27 12t-12 27v1835h-279v-1835q0 -15 -11.5 -27t-26.5 -12h-111q-15 0 -27 12
t-12 27v1150h-90z" />
    <glyph glyph-name="periodcentered" unicode="&#xb7;" horiz-adv-x="528" 
d="M262 342q-74 0 -128 54t-54 128q0 78 54 133.5t128 55.5q78 0 133.5 -55.5t55.5 -133.5q0 -74 -55.5 -128t-133.5 -54z" />
    <glyph glyph-name="cedilla" unicode="&#xb8;" horiz-adv-x="505" 
d="M111 0h135v-106q93 -12 145.5 -68t52.5 -143q0 -89 -63 -152t-154 -63q-45 0 -86.5 19.5t-68.5 51.5q-12 14 -10 30t16 28l41 34q9 9 22 8t21 -10q21 -24 61 -24q30 0 51 22.5t21 53.5q0 39 -37 66.5t-113 33.5q-34 4 -34 37v182z" />
    <glyph glyph-name="onesuperior" unicode="&#xb9;" horiz-adv-x="401" 
d="M170 1032q-9 0 -14.5 5.5t-5.5 13.5v395l-101 -8q-18 0 -18 18l-4 64q0 11 14 22l152 96h104q7 0 12.5 -5t5.5 -13v-569q0 -8 -5.5 -13.5t-12.5 -5.5h-127z" />
    <glyph glyph-name="ordmasculine" unicode="&#xba;" horiz-adv-x="618" 
d="M311 807q-126 0 -193 85t-67 238q0 154 67 239t193 85q125 0 190.5 -85t65.5 -239q0 -153 -66 -238t-190 -85zM311 950q42 0 66 47t24 133q0 87 -24 134t-66 47q-43 0 -66.5 -47t-23.5 -134t23.5 -133.5t66.5 -46.5z" />
    <glyph glyph-name="guillemotright" unicode="&#xbb;" horiz-adv-x="964" 
d="M508 125l133 301l-139 285q-13 25 -4.5 44t34.5 19h117q23 0 37 -24l223 -304q17 -26 0 -49l-213 -317q-13 -17 -30 -17h-127q-25 0 -33.5 18.5t2.5 43.5zM129 63q-25 0 -33.5 18.5t2.5 43.5l133 301l-139 285q-12 25 -3.5 44t34.5 19h117q22 0 36 -24l224 -304
q17 -26 0 -49l-213 -317q-13 -17 -31 -17h-127z" />
    <glyph glyph-name="onequarter" unicode="&#xbc;" horiz-adv-x="1359" 
d="M182 55l703 1358q11 21 35 21h102q23 0 34.5 -18t0.5 -38l-707 -1358q-3 -7 -13.5 -13.5t-21.5 -6.5h-98q-23 0 -34 17.5t-1 37.5zM186 827q-9 0 -14.5 5.5t-5.5 13.5v395l-100 -8q-19 0 -19 18l-4 64q0 11 14 22l152 97h104q7 0 13 -6t6 -13v-569q0 -8 -6 -13.5
t-13 -5.5h-127zM719 133v105l334 362q6 6 16 6h84q7 0 12.5 -5t5.5 -13v-348h82q7 0 13 -5.5t6 -11.5v-88q0 -7 -5.5 -12.5t-13.5 -5.5h-82v-99q0 -8 -5.5 -13t-12.5 -5h-115q-8 0 -14 5.5t-6 12.5v99h-281q-7 0 -12.5 5t-5.5 11zM868 238h152v170z" />
    <glyph glyph-name="onehalf" unicode="&#xbd;" horiz-adv-x="1353" 
d="M182 55l703 1358q11 21 35 21h102q23 0 34.5 -18t0.5 -38l-707 -1358q-3 -7 -13.5 -13.5t-21.5 -6.5h-98q-23 0 -34 17.5t-1 37.5zM186 827q-9 0 -14.5 5.5t-5.5 13.5v395l-100 -8q-19 0 -19 18l-4 64q0 11 14 22l152 97h104q7 0 13 -6t6 -13v-569q0 -8 -6 -13.5
t-13 -5.5h-127zM801 18v35l225 258q51 57 51 103q0 31 -23 51t-59 20q-26 0 -51 -13t-39 -28q-19 -13 -33 7l-45 63q-10 11 -9.5 21.5t16.5 21.5q84 70 192 70q97 0 157 -52t60 -137q0 -84 -76 -176l-110 -131h164q7 0 12.5 -5.5t5.5 -12.5v-95q0 -18 -18 -18h-400
q-20 0 -20 18z" />
    <glyph glyph-name="threequarters" unicode="&#xbe;" horiz-adv-x="1435" 
d="M262 807q-119 0 -194 67q-17 17 -2 37l45 60q13 18 34 4l5 -3q6 -4 15 -9t20.5 -9.5t26.5 -8t30 -3.5q40 0 63 17.5t23 46.5q0 30 -25.5 48.5t-71.5 18.5h-59q-31 0 -31 29v63q0 29 31 29h59q38 0 61 17.5t23 45.5t-21.5 45t-55.5 17q-43 0 -80 -33q-8 -6 -15.5 -5.5
t-15.5 11.5l-49 60q-8 8 -8 19.5t10 17.5q8 7 22 18t61.5 29t98.5 18q99 0 160 -46.5t61 -123.5q0 -51 -31.5 -88t-72.5 -55v-2q47 -18 85 -57t38 -99q0 -82 -68.5 -129t-171.5 -47zM258 55l703 1358q11 21 34 21h103q23 0 34.5 -18t0.5 -38l-707 -1358q-3 -7 -13.5 -13.5
t-21.5 -6.5h-98q-23 0 -34 17.5t-1 37.5zM795 133v105l333 362q6 6 17 6h84q7 0 12.5 -5t5.5 -13v-348h82q7 0 13 -5.5t6 -11.5v-88q0 -7 -5.5 -12.5t-13.5 -5.5h-82v-99q0 -8 -5.5 -13t-12.5 -5h-115q-8 0 -14 5.5t-6 12.5v99h-281q-7 0 -12.5 5t-5.5 11zM944 238h152v170z
" />
    <glyph glyph-name="questiondown" unicode="&#xbf;" horiz-adv-x="888" 
d="M475 502q-69 0 -119.5 50.5t-50.5 119.5t50.5 118.5t119.5 49.5t118.5 -49.5t49.5 -118.5t-49.5 -119.5t-118.5 -50.5zM39 -291q0 58 23 110t57.5 87.5t75 70.5t75 60.5t57.5 56t23 58.5v67q0 19 10.5 31t30.5 12h166q16 0 27.5 -11t11.5 -28v-86q0 -54 -29.5 -103
t-71 -85.5t-83.5 -71t-71.5 -73.5t-29.5 -78q0 -58 45 -98t119 -40q43 0 82 13.5t59.5 29t45.5 37t34 27.5q25 15 45 -2l97 -94q12 -11 11.5 -27t-11.5 -27q-6 -7 -17 -19.5t-49 -43.5t-81 -54.5t-112.5 -43t-142.5 -19.5q-164 0 -280.5 98t-116.5 246z" />
    <glyph glyph-name="Agrave" unicode="&#xc0;" horiz-adv-x="1357" 
d="M35 0q-23 0 -33.5 16.5t-1.5 36.5l637 1379q11 22 35 22h20q24 0 35 -22l631 -1379q9 -20 -1.5 -36.5t-33.5 -16.5h-178q-23 0 -36 9.5t-24 31.5l-100 221h-612l-101 -221q-16 -41 -59 -41h-178zM473 489h412l-205 451h-6zM823 1573l-358 158q-14 6 -18 21t6 34l57 106
q7 13 24 13.5t29 -7.5l336 -200q9 -5 13 -15.5t-1 -23.5l-37 -72q-13 -30 -51 -14z" />
    <glyph glyph-name="Aacute" unicode="&#xc1;" horiz-adv-x="1357" 
d="M35 0q-23 0 -33.5 16.5t-1.5 36.5l637 1379q11 22 35 22h20q24 0 35 -22l631 -1379q9 -20 -1.5 -36.5t-33.5 -16.5h-178q-23 0 -36 9.5t-24 31.5l-100 221h-612l-101 -221q-16 -41 -59 -41h-178zM473 489h412l-205 451h-6zM535 1573q-39 -16 -52 14l-37 72
q-5 13 -0.5 23.5t13.5 15.5l336 200q37 23 53 -6l57 -106q10 -19 6 -34t-18 -21z" />
    <glyph glyph-name="Acircumflex" unicode="&#xc2;" horiz-adv-x="1357" 
d="M35 0q-23 0 -33.5 16.5t-1.5 36.5l637 1379q11 22 35 22h20q24 0 35 -22l631 -1379q9 -20 -1.5 -36.5t-33.5 -16.5h-178q-23 0 -36 9.5t-24 31.5l-100 221h-612l-101 -221q-16 -41 -59 -41h-178zM473 489h412l-205 451h-6zM479 1569q-19 -10 -28.5 -8.5t-18.5 14.5
l-53 76q-6 11 -2 21.5t14 17.5l266 206q20 17 43 0l267 -206q10 -7 14 -17.5t-2 -21.5l-53 -76q-9 -13 -18.5 -14.5t-28.5 8.5l-199 125z" />
    <glyph glyph-name="Atilde" unicode="&#xc3;" horiz-adv-x="1357" 
d="M35 0q-23 0 -33.5 16.5t-1.5 36.5l637 1379q11 22 35 22h20q24 0 35 -22l631 -1379q9 -20 -1.5 -36.5t-33.5 -16.5h-178q-23 0 -36 9.5t-24 31.5l-100 221h-612l-101 -221q-16 -41 -59 -41h-178zM473 489h412l-205 451h-6zM432 1616l-59 43q-10 7 -14 22t1 25
q12 23 18 33.5t29 41.5t43.5 48.5t54 33t68.5 15.5q36 0 68 -17.5t52.5 -39t47 -39t52.5 -17.5q24 0 43 19t28.5 39t26 31t35.5 -5l57 -41q26 -20 2 -63l-8 -13q-8 -14 -10.5 -18.5t-12 -19t-16 -21.5t-18 -20t-21 -20.5t-23.5 -17t-27 -14.5t-29.5 -8.5t-33.5 -3.5
q-36 0 -70 18t-56 39.5t-48.5 39.5t-48.5 18q-24 0 -43 -19t-27.5 -39.5t-24.5 -32.5t-36 3z" />
    <glyph glyph-name="Adieresis" unicode="&#xc4;" horiz-adv-x="1357" 
d="M35 0q-23 0 -33.5 16.5t-1.5 36.5l637 1379q11 22 35 22h20q24 0 35 -22l631 -1379q9 -20 -1.5 -36.5t-33.5 -16.5h-178q-23 0 -36 9.5t-24 31.5l-100 221h-612l-101 -221q-16 -41 -59 -41h-178zM473 489h412l-205 451h-6zM930 1587q-54 0 -91.5 38.5t-37.5 92.5
t37.5 91.5t91.5 37.5t92.5 -37.5t38.5 -91.5t-38.5 -92.5t-92.5 -38.5zM424 1587q-54 0 -91.5 38.5t-37.5 92.5t37.5 91.5t91.5 37.5t92.5 -37.5t38.5 -91.5t-38.5 -92.5t-92.5 -38.5z" />
    <glyph glyph-name="Aring" unicode="&#xc5;" horiz-adv-x="1357" 
d="M35 0q-23 0 -33.5 16.5t-1.5 36.5l637 1379q11 22 35 22h20q24 0 35 -22l631 -1379q9 -20 -1.5 -36.5t-33.5 -16.5h-178q-23 0 -36 9.5t-24 31.5l-100 221h-612l-101 -221q-16 -41 -59 -41h-178zM473 489h412l-205 451h-6zM678 1544q-97 0 -164.5 67.5t-67.5 164.5
t67.5 164t164.5 67q96 0 163.5 -67.5t67.5 -163.5t-67.5 -164t-163.5 -68zM678 1673q39 0 68.5 31.5t29.5 71.5t-29 69t-69 29t-71.5 -29.5t-31.5 -68.5q0 -40 31.5 -71.5t71.5 -31.5z" />
    <glyph glyph-name="AE" unicode="&#xc6;" horiz-adv-x="1843" 
d="M2 0q-23 0 -30 16.5t5 36.5l822 1317q2 3 7.5 11.5t7 11t6.5 9t7 8.5l7 7t8.5 6.5t9 4.5t10.5 3.5t12 1.5t15 1h809q17 0 28 -11.5t11 -27.5v-168q0 -16 -11 -27.5t-28 -11.5h-613v-336h512q15 0 27 -12t12 -27v-170q0 -17 -11.5 -28t-27.5 -11h-512v-358h613
q17 0 28 -11.5t11 -27.5v-168q0 -16 -11 -27.5t-28 -11.5h-836q-17 0 -28 11.5t-11 27.5v223h-430l-145 -231q-21 -31 -51 -31h-195zM537 489h286v463z" />
    <glyph glyph-name="Ccedilla" unicode="&#xc7;" horiz-adv-x="1404" 
d="M692 -8q-172 29 -310.5 131t-218 257.5t-79.5 334.5q0 151 58.5 288t157 235.5t235.5 157t288 58.5q152 0 270.5 -47t225.5 -143q13 -12 13.5 -29t-11.5 -29l-125 -129q-10 -12 -24.5 -12t-26.5 12q-65 57 -147.5 89t-168.5 32q-128 0 -233.5 -65.5t-164 -174.5
t-58.5 -237q0 -127 59 -235.5t165 -173t234 -64.5q170 0 314 117q12 10 27 9.5t24 -9.5l127 -132q11 -11 10 -27.5t-12 -27.5q-201 -195 -494 -198v-86q93 -12 146 -68t53 -143q0 -89 -63 -152t-154 -63q-45 0 -87 19.5t-69 51.5q-12 14 -10 30t16 28l41 34q9 9 22 8t21 -10
q21 -24 62 -24q30 0 51 22.5t21 53.5q0 39 -37 66.5t-113 33.5q-35 5 -35 37v174z" />
    <glyph glyph-name="Egrave" unicode="&#xc8;" horiz-adv-x="1204" 
d="M186 39v1356q0 16 11 27.5t28 11.5h834q17 0 28 -11.5t11 -27.5v-168q0 -16 -11 -27.5t-28 -11.5h-606v-336h505q15 0 27 -12t12 -27v-170q0 -17 -11.5 -28t-27.5 -11h-505v-358h606q17 0 28 -11.5t11 -27.5v-168q0 -16 -11 -27.5t-28 -11.5h-834q-17 0 -28 11.5
t-11 27.5zM799 1573l-359 158q-14 6 -18 21t6 34l57 106q7 13 24.5 13.5t29.5 -7.5l335 -200q9 -5 13.5 -15.5t-0.5 -23.5l-37 -72q-13 -30 -51 -14z" />
    <glyph glyph-name="Eacute" unicode="&#xc9;" horiz-adv-x="1204" 
d="M186 39v1356q0 16 11 27.5t28 11.5h834q17 0 28 -11.5t11 -27.5v-168q0 -16 -11 -27.5t-28 -11.5h-606v-336h505q15 0 27 -12t12 -27v-170q0 -17 -11.5 -28t-27.5 -11h-505v-358h606q17 0 28 -11.5t11 -27.5v-168q0 -16 -11 -27.5t-28 -11.5h-834q-17 0 -28 11.5
t-11 27.5zM512 1573q-38 -16 -51 14l-37 72q-5 13 -1 23.5t13 15.5l336 200q37 23 53 -6l58 -106q10 -19 5.5 -34t-18.5 -21z" />
    <glyph glyph-name="Ecircumflex" unicode="&#xca;" horiz-adv-x="1204" 
d="M186 39v1356q0 16 11 27.5t28 11.5h834q17 0 28 -11.5t11 -27.5v-168q0 -16 -11 -27.5t-28 -11.5h-606v-336h505q15 0 27 -12t12 -27v-170q0 -17 -11.5 -28t-27.5 -11h-505v-358h606q17 0 28 -11.5t11 -27.5v-168q0 -16 -11 -27.5t-28 -11.5h-834q-17 0 -28 11.5
t-11 27.5zM444 1569q-19 -10 -28.5 -8.5t-18.5 14.5l-53 76q-6 11 -2 21.5t14 17.5l267 206q20 17 43 0l266 -206q10 -7 14 -17.5t-2 -21.5l-53 -76q-9 -13 -18.5 -14.5t-28.5 8.5l-199 125z" />
    <glyph glyph-name="Edieresis" unicode="&#xcb;" horiz-adv-x="1204" 
d="M186 39v1356q0 16 11 27.5t28 11.5h834q17 0 28 -11.5t11 -27.5v-168q0 -16 -11 -27.5t-28 -11.5h-606v-336h505q15 0 27 -12t12 -27v-170q0 -17 -11.5 -28t-27.5 -11h-505v-358h606q17 0 28 -11.5t11 -27.5v-168q0 -16 -11 -27.5t-28 -11.5h-834q-17 0 -28 11.5
t-11 27.5zM905 1587q-54 0 -91.5 38.5t-37.5 92.5t37.5 91.5t91.5 37.5t92.5 -37.5t38.5 -91.5t-38.5 -92.5t-92.5 -38.5zM399 1587q-54 0 -91.5 38.5t-37.5 92.5t37.5 91.5t91.5 37.5t92.5 -37.5t38.5 -91.5t-38.5 -92.5t-92.5 -38.5z" />
    <glyph glyph-name="Igrave" unicode="&#xcc;" horiz-adv-x="641" 
d="M186 39v1356q0 15 12 27t27 12h191q15 0 27 -12t12 -27v-1356q0 -15 -12 -27t-27 -12h-191q-15 0 -27 12t-12 27zM463 1573l-359 158q-14 6 -18 21t6 34l58 106q7 13 24 13.5t29 -7.5l336 -200q9 -5 13 -15.5t-1 -23.5l-37 -72q-13 -30 -51 -14z" />
    <glyph glyph-name="Iacute" unicode="&#xcd;" horiz-adv-x="641" 
d="M186 39v1356q0 15 12 27t27 12h191q15 0 27 -12t12 -27v-1356q0 -15 -12 -27t-27 -12h-191q-15 0 -27 12t-12 27zM176 1573q-38 -16 -51 14l-37 72q-5 13 -1 23.5t13 15.5l336 200q37 23 53 -6l58 -106q10 -19 6 -34t-18 -21z" />
    <glyph glyph-name="Icircumflex" unicode="&#xce;" horiz-adv-x="641" 
d="M186 39v1356q0 15 12 27t27 12h191q15 0 27 -12t12 -27v-1356q0 -15 -12 -27t-27 -12h-191q-15 0 -27 12t-12 27zM117 1569q-19 -10 -28.5 -8.5t-18.5 14.5l-54 76q-6 11 -1.5 21.5t14.5 17.5l266 206q20 17 43 0l266 -206q10 -7 14 -17.5t-2 -21.5l-53 -76
q-9 -13 -18.5 -14.5t-28.5 8.5l-199 125z" />
    <glyph glyph-name="Idieresis" unicode="&#xcf;" horiz-adv-x="641" 
d="M186 39v1356q0 15 12 27t27 12h191q15 0 27 -12t12 -27v-1356q0 -15 -12 -27t-27 -12h-191q-15 0 -27 12t-12 27zM571 1587q-54 0 -91.5 38.5t-37.5 92.5t37.5 91.5t91.5 37.5t92.5 -37.5t38.5 -91.5t-38.5 -92.5t-92.5 -38.5zM66 1587q-54 0 -91.5 38.5t-37.5 92.5
t37.5 91.5t91.5 37.5t92.5 -37.5t38.5 -91.5t-38.5 -92.5t-92.5 -38.5z" />
    <glyph glyph-name="Eth" unicode="&#xd0;" horiz-adv-x="1521" 
d="M197 39v618h-60q-15 0 -26 12t-11 27v27q0 15 11 27t26 12h60v633q0 15 10.5 27t25.5 12h486q145 0 278.5 -57t230 -153t153.5 -228t57 -277q0 -117 -36.5 -227t-103 -198t-155 -154.5t-198 -103t-226.5 -36.5h-486q-15 0 -25.5 12t-10.5 27zM461 250h233q199 0 330 134
t131 335q0 200 -131 333.5t-330 133.5h-233v-424h338q17 0 28 -11.5t11 -27.5v-29q0 -15 -11 -26t-28 -11h-338v-407z" />
    <glyph glyph-name="Ntilde" unicode="&#xd1;" horiz-adv-x="1583" 
d="M186 39v1378q0 15 12 26t27 11h51l852 -905h2v846q0 16 11 27.5t28 11.5h189q15 0 27 -12t12 -27v-1379q0 -15 -12 -25.5t-27 -10.5h-49l-856 940h-2v-881q0 -16 -11 -27.5t-28 -11.5h-187q-15 0 -27 12t-12 27zM545 1616l-60 43q-10 7 -13.5 22t1.5 25q12 23 18 33.5
t29 41.5t43.5 48.5t54 33t68.5 15.5q36 0 68 -17.5t52 -39t46.5 -39t52.5 -17.5q24 0 43 19t28.5 39t26 31t35.5 -5l58 -41q26 -20 2 -63l-8 -13q-8 -14 -10.5 -18.5t-12 -19t-16 -21.5t-18 -20t-21 -20.5t-23.5 -17t-27 -14.5t-29.5 -8.5t-33.5 -3.5q-36 0 -70 18t-56 39.5
t-48.5 39.5t-48.5 18q-24 0 -43 -19t-27.5 -39.5t-24.5 -32.5t-36 3z" />
    <glyph glyph-name="Ograve" unicode="&#xd2;" horiz-adv-x="1638" 
d="M84 715q0 101 26 197t73 177t114.5 149t148.5 115.5t176.5 74t196.5 26.5q151 0 287.5 -58t235 -157t156.5 -236t58 -288t-58 -287.5t-156.5 -234.5t-235 -155.5t-287.5 -57.5t-287.5 57.5t-234.5 155.5t-155.5 234.5t-57.5 287.5zM350 715q0 -193 138 -331t331 -138
q127 0 235.5 63t172 171t63.5 235t-63.5 236t-172 173t-235.5 64t-235 -64t-171 -173t-63 -236zM969 1573l-359 158q-14 6 -18 21t6 34l57 106q7 13 24.5 13.5t29.5 -7.5l335 -200q9 -5 13.5 -15.5t-0.5 -23.5l-37 -72q-13 -30 -51 -14z" />
    <glyph glyph-name="Oacute" unicode="&#xd3;" horiz-adv-x="1638" 
d="M84 715q0 101 26 197t73 177t114.5 149t148.5 115.5t176.5 74t196.5 26.5q151 0 287.5 -58t235 -157t156.5 -236t58 -288t-58 -287.5t-156.5 -234.5t-235 -155.5t-287.5 -57.5t-287.5 57.5t-234.5 155.5t-155.5 234.5t-57.5 287.5zM350 715q0 -193 138 -331t331 -138
q127 0 235.5 63t172 171t63.5 235t-63.5 236t-172 173t-235.5 64t-235 -64t-171 -173t-63 -236zM678 1573q-38 -16 -51 14l-37 72q-5 13 -1 23.5t13 15.5l336 200q37 23 53 -6l58 -106q10 -19 5.5 -34t-18.5 -21z" />
    <glyph glyph-name="Ocircumflex" unicode="&#xd4;" horiz-adv-x="1638" 
d="M84 715q0 101 26 197t73 177t114.5 149t148.5 115.5t176.5 74t196.5 26.5q151 0 287.5 -58t235 -157t156.5 -236t58 -288t-58 -287.5t-156.5 -234.5t-235 -155.5t-287.5 -57.5t-287.5 57.5t-234.5 155.5t-155.5 234.5t-57.5 287.5zM350 715q0 -193 138 -331t331 -138
q127 0 235.5 63t172 171t63.5 235t-63.5 236t-172 173t-235.5 64t-235 -64t-171 -173t-63 -236zM618 1569q-19 -10 -28.5 -8.5t-18.5 14.5l-53 76q-6 11 -2 21.5t14 17.5l267 206q20 17 43 0l266 -206q10 -7 14 -17.5t-2 -21.5l-53 -76q-9 -13 -18.5 -14.5t-28.5 8.5
l-199 125z" />
    <glyph glyph-name="Otilde" unicode="&#xd5;" horiz-adv-x="1638" 
d="M84 715q0 101 26 197t73 177t114.5 149t148.5 115.5t176.5 74t196.5 26.5q151 0 287.5 -58t235 -157t156.5 -236t58 -288t-58 -287.5t-156.5 -234.5t-235 -155.5t-287.5 -57.5t-287.5 57.5t-234.5 155.5t-155.5 234.5t-57.5 287.5zM350 715q0 -193 138 -331t331 -138
q127 0 235.5 63t172 171t63.5 235t-63.5 236t-172 173t-235.5 64t-235 -64t-171 -173t-63 -236zM575 1616l-59 43q-10 7 -13.5 22t1.5 25q12 23 18 33.5t29 41.5t43.5 48.5t54 33t68.5 15.5q36 0 68 -17.5t52 -39t46.5 -39t52.5 -17.5q24 0 43 19t28.5 39t26 31t35.5 -5
l57 -41q26 -20 2 -63q-1 -1 -8 -13.5t-10.5 -18t-12.5 -19t-15 -21.5t-17.5 -20.5t-21 -20t-23 -17t-27 -14.5t-30 -8.5t-33.5 -3.5q-36 0 -70 18t-56 39.5t-48.5 39.5t-48.5 18q-24 0 -43 -19t-28 -39.5t-25 -32.5t-36 3z" />
    <glyph glyph-name="Odieresis" unicode="&#xd6;" horiz-adv-x="1638" 
d="M84 715q0 101 26 197t73 177t114.5 149t148.5 115.5t176.5 74t196.5 26.5q151 0 287.5 -58t235 -157t156.5 -236t58 -288t-58 -287.5t-156.5 -234.5t-235 -155.5t-287.5 -57.5t-287.5 57.5t-234.5 155.5t-155.5 234.5t-57.5 287.5zM350 715q0 -193 138 -331t331 -138
q127 0 235.5 63t172 171t63.5 235t-63.5 236t-172 173t-235.5 64t-235 -64t-171 -173t-63 -236zM1071 1587q-54 0 -91.5 38.5t-37.5 92.5t37.5 91.5t91.5 37.5t92.5 -37.5t38.5 -91.5t-38.5 -92.5t-92.5 -38.5zM565 1587q-54 0 -91.5 38.5t-37.5 92.5t37.5 91.5t91.5 37.5
t92.5 -37.5t38.5 -91.5t-38.5 -92.5t-92.5 -38.5z" />
    <glyph glyph-name="multiply" unicode="&#xd7;" horiz-adv-x="950" 
d="M205 358l-82 82q-11 10 -11 27t11 27l217 217l-217 217q-11 10 -11 27t11 28l80 82q11 11 28 11t27 -11l217 -217l217 219q11 10 26.5 9.5t26.5 -11.5l82 -82q11 -11 11.5 -26.5t-9.5 -26.5l-217 -219l217 -217q10 -12 9.5 -28.5t-11.5 -27.5l-82 -80
q-11 -11 -26.5 -11.5t-26.5 9.5l-217 219l-217 -217q-10 -10 -26 -10t-27 10z" />
    <glyph glyph-name="Oslash" unicode="&#xd8;" horiz-adv-x="1636" 
d="M129 47q-11 11 -11.5 26.5t9.5 26.5l133 131q-176 205 -176 484q0 101 26 197t73 177t114.5 149t148.5 115.5t176.5 74t196.5 26.5q135 0 260 -47.5t224 -132.5l139 137q10 11 26 11t27 -11l21 -20q10 -11 10 -26.5t-10 -27.5l-140 -139q85 -99 132.5 -222.5t47.5 -258.5
q0 -151 -58 -287.5t-156.5 -235t-235 -156.5t-287.5 -58q-283 0 -483 178l-133 -133q-11 -10 -26.5 -9.5t-26.5 11.5zM453 424l661 659q-137 105 -295 105q-127 0 -235 -64t-171 -173t-63 -236q0 -160 103 -291zM526 348q130 -102 293 -102q193 0 332 139t139 332
q0 168 -104 291z" />
    <glyph glyph-name="Ugrave" unicode="&#xd9;" horiz-adv-x="1476" 
d="M168 543v852q0 15 12 27t27 12h194q17 0 28 -11.5t11 -27.5v-838q0 -133 83 -222t214 -89t215 89t84 220v840q0 16 11 27.5t28 11.5h195q15 0 27 -12t12 -27v-852q0 -115 -44 -219t-120 -179.5t-182.5 -120t-225.5 -44.5q-158 0 -289 75.5t-205.5 204.5t-74.5 283z
M881 1573l-359 158q-14 6 -18 21t6 34l57 106q7 13 24.5 13.5t29.5 -7.5l335 -200q9 -5 13.5 -15.5t-0.5 -23.5l-37 -72q-13 -30 -51 -14z" />
    <glyph glyph-name="Uacute" unicode="&#xda;" horiz-adv-x="1476" 
d="M168 543v852q0 15 12 27t27 12h194q17 0 28 -11.5t11 -27.5v-838q0 -133 83 -222t214 -89t215 89t84 220v840q0 16 11 27.5t28 11.5h195q15 0 27 -12t12 -27v-852q0 -115 -44 -219t-120 -179.5t-182.5 -120t-225.5 -44.5q-158 0 -289 75.5t-205.5 204.5t-74.5 283z
M598 1573q-38 -16 -51 14l-37 72q-5 13 -1 23.5t13 15.5l336 200q37 23 53 -6l58 -106q10 -19 5.5 -34t-18.5 -21z" />
    <glyph glyph-name="Ucircumflex" unicode="&#xdb;" horiz-adv-x="1476" 
d="M168 543v852q0 15 12 27t27 12h194q17 0 28 -11.5t11 -27.5v-838q0 -133 83 -222t214 -89t215 89t84 220v840q0 16 11 27.5t28 11.5h195q15 0 27 -12t12 -27v-852q0 -115 -44 -219t-120 -179.5t-182.5 -120t-225.5 -44.5q-158 0 -289 75.5t-205.5 204.5t-74.5 283z
M539 1569q-19 -10 -28.5 -8.5t-18.5 14.5l-54 76q-6 11 -1.5 21.5t14.5 17.5l266 206q20 17 43 0l266 -206q10 -7 14 -17.5t-2 -21.5l-53 -76q-9 -13 -18.5 -14.5t-28.5 8.5l-199 125z" />
    <glyph glyph-name="Udieresis" unicode="&#xdc;" horiz-adv-x="1476" 
d="M168 543v852q0 15 12 27t27 12h194q17 0 28 -11.5t11 -27.5v-838q0 -133 83 -222t214 -89t215 89t84 220v840q0 16 11 27.5t28 11.5h195q15 0 27 -12t12 -27v-852q0 -115 -44 -219t-120 -179.5t-182.5 -120t-225.5 -44.5q-158 0 -289 75.5t-205.5 204.5t-74.5 283z
M989 1587q-54 0 -91.5 38.5t-37.5 92.5t37.5 91.5t91.5 37.5t92.5 -37.5t38.5 -91.5t-38.5 -92.5t-92.5 -38.5zM483 1587q-54 0 -91.5 38.5t-37.5 92.5t37.5 91.5t91.5 37.5t92.5 -37.5t38.5 -91.5t-38.5 -92.5t-92.5 -38.5z" />
    <glyph glyph-name="Yacute" unicode="&#xdd;" horiz-adv-x="1193" 
d="M461 39v651l-467 684q-12 20 -1.5 40t34.5 20h209q18 0 32 -19l328 -471l328 471q14 19 32 19h211q24 0 34.5 -20t-1.5 -40l-473 -682v-653q0 -15 -12 -27t-27 -12h-188q-17 0 -28 11.5t-11 27.5zM453 1573q-39 -16 -52 14l-36 72q-5 13 -1 23.5t13 15.5l336 200
q37 23 53 -6l57 -106q10 -19 6 -34t-18 -21z" />
    <glyph glyph-name="Thorn" unicode="&#xde;" horiz-adv-x="1210" 
d="M186 39v1356q0 16 11 27.5t28 11.5h189q15 0 27 -12t12 -27v-221h254q124 1 229.5 -60t167 -166t61.5 -227q0 -125 -61.5 -231t-166.5 -168t-228 -62h-256v-221q0 -15 -12 -27t-27 -12h-189q-17 0 -28 11.5t-11 27.5zM453 510h237q87 0 149 61.5t62 151.5q0 84 -62 141.5
t-149 57.5h-237v-412z" />
    <glyph glyph-name="germandbls" unicode="&#xdf;" horiz-adv-x="1058" 
d="M123 39v805q0 300 129.5 455t355.5 155q65 0 125 -19.5t109.5 -57t79.5 -101t30 -143.5q0 -62 -25 -127.5t-55.5 -110.5t-55.5 -94.5t-25 -83.5q0 -24 21.5 -56t52 -68.5t61 -79t52 -100t21.5 -118.5q0 -81 -29 -143.5t-78 -99t-107 -54.5t-121 -18q-18 0 -27.5 0.5
t-26.5 4t-26 12.5t-11 23l-18 138q-2 15 8.5 27.5t26.5 11.5q61 -3 107 24t46 80q0 36 -22 74t-53.5 71.5t-62.5 68.5t-53 78t-22 87q0 47 26 108.5t57 112t57 112t26 109.5q0 49 -32 80t-80 31q-39 0 -74 -20t-66.5 -63t-50 -122.5t-18.5 -187.5v-801q0 -15 -12 -27
t-27 -12h-174q-15 0 -27 12t-12 27z" />
    <glyph glyph-name="agrave" unicode="&#xe0;" horiz-adv-x="872" 
d="M63 260q0 112 88 185t240 73q36 0 73.5 -5.5t57.5 -10.5l19 -6q1 77 -24 109t-83 32q-54 0 -122.5 -10t-106.5 -21q-40 -11 -47 37l-19 107q-8 39 29 51q12 5 49 13t103.5 17t125.5 9q94 0 157 -23.5t97.5 -72t48 -110.5t13.5 -151v-444q0 -15 -12 -27t-27 -12h-74
q-22 0 -35 29l-24 55q-114 -104 -250 -104q-124 0 -200.5 75.5t-76.5 204.5zM289 260q0 -46 29.5 -76t76.5 -30q45 0 88 28t54 51v113q-56 25 -115 25q-60 0 -96.5 -30.5t-36.5 -80.5zM608 1081l-358 158q-32 16 -12 55l57 105q7 13 23.5 14.5t29.5 -8.5l336 -199
q10 -5 13.5 -16t-1.5 -23l-37 -73q-13 -29 -51 -13z" />
    <glyph glyph-name="aacute" unicode="&#xe1;" horiz-adv-x="872" 
d="M63 260q0 112 88 185t240 73q36 0 73.5 -5.5t57.5 -10.5l19 -6q1 77 -24 109t-83 32q-54 0 -122.5 -10t-106.5 -21q-40 -11 -47 37l-19 107q-8 39 29 51q12 5 49 13t103.5 17t125.5 9q94 0 157 -23.5t97.5 -72t48 -110.5t13.5 -151v-444q0 -15 -12 -27t-27 -12h-74
q-22 0 -35 29l-24 55q-114 -104 -250 -104q-124 0 -200.5 75.5t-76.5 204.5zM289 260q0 -46 29.5 -76t76.5 -30q45 0 88 28t54 51v113q-56 25 -115 25q-60 0 -96.5 -30.5t-36.5 -80.5zM319 1081q-38 -15 -53 13l-35 73q-11 23 13 39l334 199q13 10 29.5 8.5t23.5 -14.5
l59 -105q18 -40 -12 -55z" />
    <glyph glyph-name="acircumflex" unicode="&#xe2;" horiz-adv-x="872" 
d="M63 260q0 112 88 185t240 73q36 0 73.5 -5.5t57.5 -10.5l19 -6q1 77 -24 109t-83 32q-54 0 -122.5 -10t-106.5 -21q-40 -11 -47 37l-19 107q-8 39 29 51q12 5 49 13t103.5 17t125.5 9q94 0 157 -23.5t97.5 -72t48 -110.5t13.5 -151v-444q0 -15 -12 -27t-27 -12h-74
q-22 0 -35 29l-24 55q-114 -104 -250 -104q-124 0 -200.5 75.5t-76.5 204.5zM289 260q0 -46 29.5 -76t76.5 -30q45 0 88 28t54 51v113q-56 25 -115 25q-60 0 -96.5 -30.5t-36.5 -80.5zM193 1083l-54 76q-6 11 -1.5 21.5t14.5 17.5l266 207q20 17 43 0l266 -207
q10 -7 14 -17.5t-2 -21.5l-53 -76q-9 -13 -18.5 -14.5t-28.5 8.5l-199 125l-200 -125q-19 -10 -28.5 -8.5t-18.5 14.5z" />
    <glyph glyph-name="atilde" unicode="&#xe3;" horiz-adv-x="872" 
d="M63 260q0 112 88 185t240 73q36 0 73.5 -5.5t57.5 -10.5l19 -6q1 77 -24 109t-83 32q-54 0 -122.5 -10t-106.5 -21q-40 -11 -47 37l-19 107q-8 39 29 51q12 5 49 13t103.5 17t125.5 9q94 0 157 -23.5t97.5 -72t48 -110.5t13.5 -151v-444q0 -15 -12 -27t-27 -12h-74
q-22 0 -35 29l-24 55q-114 -104 -250 -104q-124 0 -200.5 75.5t-76.5 204.5zM289 260q0 -46 29.5 -76t76.5 -30q45 0 88 28t54 51v113q-56 25 -115 25q-60 0 -96.5 -30.5t-36.5 -80.5zM199 1151l-60 43q-10 7 -13.5 22t1.5 25q12 23 18 33.5t29 41.5t43.5 48.5t54 33
t68.5 15.5q36 0 68 -17.5t52 -39t46.5 -39t52.5 -17.5q24 0 43 19t28.5 39t26 31t35.5 -5l58 -41q26 -20 2 -63l-8 -14q-8 -13 -10.5 -17.5t-12 -19t-16 -21.5t-18 -20t-21 -20.5t-23.5 -17t-27 -14.5t-29.5 -8.5t-33.5 -3.5q-36 0 -70 18t-56 39.5t-48.5 39.5t-48.5 18
q-24 0 -43 -19t-27.5 -39.5t-24.5 -32.5t-36 3z" />
    <glyph glyph-name="adieresis" unicode="&#xe4;" horiz-adv-x="872" 
d="M63 260q0 112 88 185t240 73q36 0 73.5 -5.5t57.5 -10.5l19 -6q1 77 -24 109t-83 32q-54 0 -122.5 -10t-106.5 -21q-40 -11 -47 37l-19 107q-8 39 29 51q12 5 49 13t103.5 17t125.5 9q94 0 157 -23.5t97.5 -72t48 -110.5t13.5 -151v-444q0 -15 -12 -27t-27 -12h-74
q-22 0 -35 29l-24 55q-114 -104 -250 -104q-124 0 -200.5 75.5t-76.5 204.5zM289 260q0 -46 29.5 -76t76.5 -30q45 0 88 28t54 51v113q-56 25 -115 25q-60 0 -96.5 -30.5t-36.5 -80.5zM653 1128q-54 0 -91.5 39t-37.5 93t37.5 91.5t91.5 37.5t92.5 -37.5t38.5 -91.5
t-38.5 -93t-92.5 -39zM242 1128q-54 0 -91.5 39t-37.5 93t37.5 91.5t91.5 37.5t92.5 -37.5t38.5 -91.5t-38.5 -93t-92.5 -39z" />
    <glyph glyph-name="aring" unicode="&#xe5;" horiz-adv-x="872" 
d="M63 260q0 112 88 185t240 73q36 0 73.5 -5.5t57.5 -10.5l19 -6q1 77 -24 109t-83 32q-54 0 -122.5 -10t-106.5 -21q-40 -11 -47 37l-19 107q-8 39 29 51q12 5 49 13t103.5 17t125.5 9q94 0 157 -23.5t97.5 -72t48 -110.5t13.5 -151v-444q0 -15 -12 -27t-27 -12h-74
q-22 0 -35 29l-24 55q-114 -104 -250 -104q-124 0 -200.5 75.5t-76.5 204.5zM289 260q0 -46 29.5 -76t76.5 -30q45 0 88 28t54 51v113q-56 25 -115 25q-60 0 -96.5 -30.5t-36.5 -80.5zM451 991q-97 0 -164.5 67.5t-67.5 164.5t67.5 164t164.5 67q96 0 163.5 -67.5
t67.5 -163.5q0 -97 -68 -164.5t-163 -67.5zM451 1120q39 0 68.5 31.5t29.5 71.5t-29 69t-69 29t-71.5 -29.5t-31.5 -68.5q0 -40 31.5 -71.5t71.5 -31.5z" />
    <glyph glyph-name="ae" unicode="&#xe6;" horiz-adv-x="1372" 
d="M61 260q0 113 86.5 185.5t233.5 72.5q37 0 76 -4t59 -8l21 -4q-3 83 -25.5 116t-87.5 33q-94 0 -223 -33q-15 -2 -29.5 8t-17.5 25l-19 111q-1 14 9 26t24 15q151 37 278 37q182 0 248 -84q108 84 246 84q160 0 271.5 -107.5t111.5 -273.5q0 -20 -1 -31.5t-4.5 -27.5
t-13 -23.5t-24.5 -7.5h-522q8 -70 60.5 -125.5t133.5 -55.5q84 0 162 54q35 23 53 0l82 -97q24 -32 -2 -53q-121 -112 -305 -112q-195 0 -307 133q-37 -47 -113.5 -90t-177.5 -43q-127 0 -205 76t-78 204zM776 514h307q-3 58 -46.5 97.5t-102.5 39.5q-61 0 -105.5 -39
t-52.5 -98zM287 266q0 -49 33.5 -79.5t80.5 -30.5q25 0 48.5 9t38.5 21.5t26.5 25t17.5 21.5l5 9v106q-55 27 -127 27q-51 0 -87 -30.5t-36 -78.5z" />
    <glyph glyph-name="ccedilla" unicode="&#xe7;" horiz-adv-x="876" 
d="M369 0q-134 39 -221 151t-87 259q0 118 61.5 217.5t161.5 156t214 56.5q182 0 303 -146q11 -13 8 -30t-18 -27l-95 -90q-22 -19 -51 6q-58 65 -141 65t-142 -61t-59 -147q0 -88 58 -148.5t141 -60.5q38 0 70 12t48.5 25t38.5 34l7 7q25 25 51 6l88 -76q35 -28 14 -57
q-112 -169 -315 -172v-84q93 -12 145.5 -68t52.5 -143q0 -89 -63 -152t-154 -63q-45 0 -86.5 19.5t-68.5 51.5q-12 14 -10 30t16 28l41 34q9 9 22 8t21 -10q21 -24 61 -24q30 0 51 22.5t21 53.5q0 39 -37 66.5t-113 33.5q-34 4 -34 37v180z" />
    <glyph glyph-name="egrave" unicode="&#xe8;" horiz-adv-x="911" 
d="M61 410q0 115 53 213t149.5 157.5t215.5 59.5q160 0 271.5 -108.5t111.5 -272.5q0 -28 -4 -56q-1 -15 -13 -24.5t-26 -9.5h-524q5 -69 59 -124t138 -55q88 0 159 52q35 21 54 0l83 -97q11 -11 11.5 -25.5t-13.5 -27.5q-121 -112 -305 -112q-182 0 -301 125t-119 305z
M313 512h310q-5 57 -48.5 98t-101.5 41q-61 0 -106.5 -40t-53.5 -99zM618 1081l-358 158q-32 16 -12 55l57 105q7 13 23.5 14.5t29.5 -8.5l336 -199q10 -5 14 -16t-1 -23l-37 -73q-13 -29 -52 -13z" />
    <glyph glyph-name="eacute" unicode="&#xe9;" horiz-adv-x="911" 
d="M61 410q0 115 53 213t149.5 157.5t215.5 59.5q160 0 271.5 -108.5t111.5 -272.5q0 -28 -4 -56q-1 -15 -13 -24.5t-26 -9.5h-524q5 -69 59 -124t138 -55q88 0 159 52q35 21 54 0l83 -97q11 -11 11.5 -25.5t-13.5 -27.5q-121 -112 -305 -112q-182 0 -301 125t-119 305z
M313 512h310q-5 57 -48.5 98t-101.5 41q-61 0 -106.5 -40t-53.5 -99zM328 1081q-38 -15 -54 13l-34 73q-12 23 12 39l334 199q13 10 29.5 8.5t23.5 -14.5l59 -105q18 -40 -12 -55z" />
    <glyph glyph-name="ecircumflex" unicode="&#xea;" horiz-adv-x="911" 
d="M61 410q0 115 53 213t149.5 157.5t215.5 59.5q160 0 271.5 -108.5t111.5 -272.5q0 -28 -4 -56q-1 -15 -13 -24.5t-26 -9.5h-524q5 -69 59 -124t138 -55q88 0 159 52q35 21 54 0l83 -97q11 -11 11.5 -25.5t-13.5 -27.5q-121 -112 -305 -112q-182 0 -301 125t-119 305z
M313 512h310q-5 57 -48.5 98t-101.5 41q-61 0 -106.5 -40t-53.5 -99zM227 1083l-53 76q-6 11 -2 21.5t14 17.5l267 207q20 17 43 0l266 -207q10 -7 14 -17.5t-2 -21.5l-53 -76q-9 -13 -18.5 -14.5t-28.5 8.5l-199 125l-201 -125q-19 -10 -28.5 -8.5t-18.5 14.5z" />
    <glyph glyph-name="edieresis" unicode="&#xeb;" horiz-adv-x="911" 
d="M61 410q0 115 53 213t149.5 157.5t215.5 59.5q160 0 271.5 -108.5t111.5 -272.5q0 -28 -4 -56q-1 -15 -13 -24.5t-26 -9.5h-524q5 -69 59 -124t138 -55q88 0 159 52q35 21 54 0l83 -97q11 -11 11.5 -25.5t-13.5 -27.5q-121 -112 -305 -112q-182 0 -301 125t-119 305z
M313 512h310q-5 57 -48.5 98t-101.5 41q-61 0 -106.5 -40t-53.5 -99zM680 1128q-54 0 -91.5 39t-37.5 93t37.5 91.5t91.5 37.5t92.5 -37.5t38.5 -91.5t-38.5 -93t-92.5 -39zM268 1128q-54 0 -91.5 39t-37.5 93t37.5 91.5t91.5 37.5t92.5 -37.5t38.5 -91.5t-38.5 -93
t-92.5 -39z" />
    <glyph glyph-name="igrave" unicode="&#xec;" horiz-adv-x="493" 
d="M387 1081l-358 158q-13 7 -17.5 20.5t4.5 34.5l58 105q7 13 23.5 14.5t29.5 -8.5l336 -199q10 -5 13.5 -16t-1.5 -23l-37 -73q-13 -29 -51 -13zM123 39v741q0 17 11.5 28t27.5 11h170q16 0 27.5 -11t11.5 -28v-741q0 -15 -12 -27t-27 -12h-170q-15 0 -27 12t-12 27z" />
    <glyph glyph-name="iacute" unicode="&#xed;" horiz-adv-x="493" 
d="M98 1081q-38 -15 -53 13l-35 73q-11 23 13 39l333 199q13 10 30 8.5t24 -14.5l59 -105q18 -40 -12 -55zM123 39v741q0 17 11.5 28t27.5 11h170q16 0 27.5 -11t11.5 -28v-741q0 -15 -12 -27t-27 -12h-170q-15 0 -27 12t-12 27z" />
    <glyph glyph-name="icircumflex" unicode="&#xee;" horiz-adv-x="493" 
d="M123 39v741q0 17 11.5 28t27.5 11h170q16 0 27.5 -11t11.5 -28v-741q0 -15 -12 -27t-27 -12h-170q-15 0 -27 12t-12 27zM-4 1083l-53 76q-6 11 -2 21.5t14 17.5l266 207q20 17 43 0l266 -207q10 -7 14.5 -17.5t-1.5 -21.5l-54 -76q-9 -13 -18.5 -14.5t-28.5 8.5l-198 125
l-201 -125q-19 -10 -28.5 -8.5t-18.5 14.5z" />
    <glyph glyph-name="idieresis" unicode="&#xef;" horiz-adv-x="493" 
d="M451 1128q-54 0 -91.5 39t-37.5 93t37.5 91.5t91.5 37.5t92.5 -37.5t38.5 -91.5t-38.5 -93t-92.5 -39zM39 1128q-54 0 -91.5 39t-37.5 93t37.5 91.5t91.5 37.5t92.5 -37.5t38.5 -91.5t-38.5 -93t-92.5 -39zM123 39v741q0 17 11.5 28t27.5 11h170q16 0 27.5 -11t11.5 -28
v-741q0 -15 -12 -27t-27 -12h-170q-15 0 -27 12t-12 27z" />
    <glyph glyph-name="eth" unicode="&#xf0;" horiz-adv-x="1081" 
d="M59 449q0 85 24 158t64.5 125t94 89t113.5 54.5t122 17.5q65 0 133 -19t101 -38q-42 145 -215 270l-166 -96q-14 -7 -28.5 -3.5t-22.5 15.5l-15 27q-8 12 -4.5 28t16.5 23l119 67q-71 40 -135 62q-54 17 -37 59l47 121q12 42 58 29q161 -66 280 -146l142 82q15 7 30 2.5
t23 -18.5l14 -23q8 -13 4.5 -29.5t-16.5 -23.5l-107 -61q139 -118 225.5 -286t86.5 -390q0 -117 -31.5 -218.5t-91 -179t-154 -122.5t-211.5 -45q-189 0 -326 138t-137 331zM291 453q0 -97 68.5 -168.5t164.5 -71.5q48 0 88.5 18t68 48t46.5 69t28 81t9 85
q-21 67 -83.5 122.5t-154.5 55.5q-98 0 -166.5 -70t-68.5 -169z" />
    <glyph glyph-name="ntilde" unicode="&#xf1;" horiz-adv-x="1062" 
d="M123 39v741q0 17 11.5 28t27.5 11h78q24 0 34 -24l29 -76q16 17 37.5 34t58 38.5t87.5 35t106 13.5q94 0 166 -33.5t114 -91.5t63 -129t21 -154v-393q0 -15 -11.5 -27t-26.5 -12h-168q-17 0 -28 11.5t-11 27.5v405q0 80 -40.5 127t-113.5 47q-72 0 -123 -40t-69 -89v-450
q0 -22 -11.5 -30.5t-40.5 -8.5h-151q-15 0 -27 12t-12 27zM303 1151l-59 43q-10 7 -14 22t1 25q12 23 18 33.5t29 41.5t43.5 48.5t54 33t68.5 15.5q36 0 68 -17.5t52.5 -39t47 -39t52.5 -17.5q24 0 43 19t28.5 39t26 31t35.5 -5l57 -41q26 -20 2 -63l-8 -14
q-8 -13 -10.5 -17.5t-12 -19t-16 -21.5t-18 -20t-21 -20.5t-23.5 -17t-27 -14.5t-29.5 -8.5t-33.5 -3.5q-36 0 -70 18t-56 39.5t-48.5 39.5t-48.5 18q-24 0 -43 -19t-27.5 -39.5t-24.5 -32.5t-36 3z" />
    <glyph glyph-name="ograve" unicode="&#xf2;" horiz-adv-x="958" 
d="M59 412q0 114 56.5 212.5t153.5 157t210 58.5t210 -58.5t153.5 -157t56.5 -212.5q0 -177 -123.5 -304.5t-296.5 -127.5t-296.5 127.5t-123.5 304.5zM283 412q0 -88 56.5 -149.5t139.5 -61.5q82 0 139.5 61.5t57.5 149.5q0 86 -57.5 146t-139.5 60q-83 0 -139.5 -59.5
t-56.5 -146.5zM627 1081l-359 158q-32 16 -12 55l57 105q7 13 24 14.5t30 -8.5l335 -199q10 -5 14 -16t-1 -23l-37 -73q-13 -29 -51 -13z" />
    <glyph glyph-name="oacute" unicode="&#xf3;" horiz-adv-x="958" 
d="M59 412q0 114 56.5 212.5t153.5 157t210 58.5t210 -58.5t153.5 -157t56.5 -212.5q0 -177 -123.5 -304.5t-296.5 -127.5t-296.5 127.5t-123.5 304.5zM283 412q0 -88 56.5 -149.5t139.5 -61.5q82 0 139.5 61.5t57.5 149.5q0 86 -57.5 146t-139.5 60q-83 0 -139.5 -59.5
t-56.5 -146.5zM334 1081q-38 -15 -53 13l-35 73q-12 23 12 39l334 199q13 10 29.5 8.5t23.5 -14.5l60 -105q8 -21 4 -35t-17 -20z" />
    <glyph glyph-name="ocircumflex" unicode="&#xf4;" horiz-adv-x="958" 
d="M59 412q0 114 56.5 212.5t153.5 157t210 58.5t210 -58.5t153.5 -157t56.5 -212.5q0 -177 -123.5 -304.5t-296.5 -127.5t-296.5 127.5t-123.5 304.5zM283 412q0 -88 56.5 -149.5t139.5 -61.5q82 0 139.5 61.5t57.5 149.5q0 86 -57.5 146t-139.5 60q-83 0 -139.5 -59.5
t-56.5 -146.5zM229 1083l-53 76q-6 11 -2 21.5t14 17.5l267 207q20 17 43 0l266 -207q10 -7 14 -17.5t-2 -21.5l-53 -76q-9 -13 -18.5 -14.5t-28.5 8.5l-199 125l-201 -125q-19 -10 -28.5 -8.5t-18.5 14.5z" />
    <glyph glyph-name="otilde" unicode="&#xf5;" horiz-adv-x="958" 
d="M59 412q0 114 56.5 212.5t153.5 157t210 58.5t210 -58.5t153.5 -157t56.5 -212.5q0 -177 -123.5 -304.5t-296.5 -127.5t-296.5 127.5t-123.5 304.5zM283 412q0 -88 56.5 -149.5t139.5 -61.5q82 0 139.5 61.5t57.5 149.5q0 86 -57.5 146t-139.5 60q-83 0 -139.5 -59.5
t-56.5 -146.5zM231 1151l-59 43q-10 7 -13.5 22t1.5 25q12 23 18 33.5t29 41.5t43.5 48.5t54 33t68.5 15.5q36 0 68 -17.5t52 -39t46.5 -39t52.5 -17.5q24 0 43 19t28.5 39t26 31t35.5 -5l57 -41q26 -20 2 -63q-1 -1 -8 -13.5t-10.5 -18t-12.5 -19t-15 -21.5t-17.5 -20.5
t-21 -20t-23 -17t-27 -14.5t-30 -8.5t-33.5 -3.5q-36 0 -70 18t-56 39.5t-49 39.5t-49 18q-24 0 -43 -19t-27.5 -39.5t-24.5 -32.5t-36 3z" />
    <glyph glyph-name="odieresis" unicode="&#xf6;" horiz-adv-x="958" 
d="M59 412q0 114 56.5 212.5t153.5 157t210 58.5t210 -58.5t153.5 -157t56.5 -212.5q0 -177 -123.5 -304.5t-296.5 -127.5t-296.5 127.5t-123.5 304.5zM283 412q0 -88 56.5 -149.5t139.5 -61.5q82 0 139.5 61.5t57.5 149.5q0 86 -57.5 146t-139.5 60q-83 0 -139.5 -59.5
t-56.5 -146.5zM682 1128q-54 0 -91.5 39t-37.5 93t37.5 91.5t91.5 37.5t92.5 -37.5t38.5 -91.5t-38.5 -93t-92.5 -39zM270 1128q-54 0 -91.5 39t-37.5 93t37.5 91.5t91.5 37.5t92.5 -37.5t38.5 -91.5t-38.5 -93t-92.5 -39z" />
    <glyph glyph-name="divide" unicode="&#xf7;" horiz-adv-x="1034" 
d="M512 965q-58 0 -99.5 42t-41.5 99q0 58 41.5 99.5t99.5 41.5t99.5 -41.5t41.5 -99.5q0 -57 -41.5 -99t-99.5 -42zM115 612q-15 0 -27 12t-12 27v115q0 15 12 27t27 12h807q15 0 25.5 -12t10.5 -27v-115q0 -15 -10.5 -27t-25.5 -12h-807zM371 328q0 58 40.5 98.5
t98.5 40.5q59 0 100 -40.5t41 -98.5q0 -59 -41.5 -100.5t-99.5 -41.5t-98.5 41.5t-40.5 100.5z" />
    <glyph glyph-name="oslash" unicode="&#xf8;" horiz-adv-x="958" 
d="M104 49q-11 11 -11.5 26.5t9.5 26.5l45 45q-86 117 -86 267q0 114 56.5 212t153.5 156t210 58q141 0 258 -95l54 54q11 12 26.5 11.5t26.5 -11.5l20 -21q12 -10 12 -25.5t-12 -27.5l-53 -53q86 -117 86 -258q0 -116 -56 -216t-152.5 -159t-209.5 -59q-144 0 -260 92
l-43 -45q-10 -11 -27.5 -10.5t-27.5 12.5zM307 311l275 277q-43 30 -101 30q-83 0 -139.5 -59t-56.5 -145q0 -57 22 -103zM379 229q45 -28 102 -28q81 0 138 62.5t57 150.5q0 48 -23 96z" />
    <glyph glyph-name="ugrave" unicode="&#xf9;" horiz-adv-x="1030" 
d="M109 383v397q0 17 11.5 28t26.5 11h168q16 0 27.5 -11t11.5 -28v-403q0 -82 40 -129t110 -47q61 0 107.5 47t56.5 106v426q0 23 10 31t35 8h155q16 0 27.5 -11t11.5 -28v-741q0 -15 -12 -27t-27 -12h-75q-27 0 -39 31l-25 67q-2 -2 -15.5 -14.5t-20.5 -18.5t-24 -18.5
t-30.5 -20t-35 -17.5t-42.5 -15.5t-49 -9.5t-57 -4q-92 0 -160.5 33t-108 90.5t-58.5 127.5t-19 152zM664 1081l-359 158q-32 16 -12 55l57 105q7 13 23.5 14.5t29.5 -8.5l336 -199q10 -5 14 -16t-1 -23l-37 -73q-13 -29 -51 -13z" />
    <glyph glyph-name="uacute" unicode="&#xfa;" horiz-adv-x="1030" 
d="M109 383v397q0 17 11.5 28t26.5 11h168q16 0 27.5 -11t11.5 -28v-403q0 -82 40 -129t110 -47q61 0 107.5 47t56.5 106v426q0 23 10 31t35 8h155q16 0 27.5 -11t11.5 -28v-741q0 -15 -12 -27t-27 -12h-75q-27 0 -39 31l-25 67q-2 -2 -15.5 -14.5t-20.5 -18.5t-24 -18.5
t-30.5 -20t-35 -17.5t-42.5 -15.5t-49 -9.5t-57 -4q-92 0 -160.5 33t-108 90.5t-58.5 127.5t-19 152zM373 1081q-38 -15 -54 13l-34 73q-12 23 12 39l334 199q13 10 29.5 8.5t23.5 -14.5l59 -105q18 -40 -12 -55z" />
    <glyph glyph-name="ucircumflex" unicode="&#xfb;" horiz-adv-x="1030" 
d="M109 383v397q0 17 11.5 28t26.5 11h168q16 0 27.5 -11t11.5 -28v-403q0 -82 40 -129t110 -47q61 0 107.5 47t56.5 106v426q0 23 10 31t35 8h155q16 0 27.5 -11t11.5 -28v-741q0 -15 -12 -27t-27 -12h-75q-27 0 -39 31l-25 67q-2 -2 -15.5 -14.5t-20.5 -18.5t-24 -18.5
t-30.5 -20t-35 -17.5t-42.5 -15.5t-49 -9.5t-57 -4q-92 0 -160.5 33t-108 90.5t-58.5 127.5t-19 152zM264 1083l-53 76q-6 11 -2 21.5t14 17.5l266 207q20 17 43 0l267 -207q10 -7 14 -17.5t-2 -21.5l-53 -76q-9 -13 -18.5 -14.5t-28.5 8.5l-199 125l-201 -125
q-19 -10 -28.5 -8.5t-18.5 14.5z" />
    <glyph glyph-name="udieresis" unicode="&#xfc;" horiz-adv-x="1030" 
d="M109 383v397q0 17 11.5 28t26.5 11h168q16 0 27.5 -11t11.5 -28v-403q0 -82 40 -129t110 -47q61 0 107.5 47t56.5 106v426q0 23 10 31t35 8h155q16 0 27.5 -11t11.5 -28v-741q0 -15 -12 -27t-27 -12h-75q-27 0 -39 31l-25 67q-2 -2 -15.5 -14.5t-20.5 -18.5t-24 -18.5
t-30.5 -20t-35 -17.5t-42.5 -15.5t-49 -9.5t-57 -4q-92 0 -160.5 33t-108 90.5t-58.5 127.5t-19 152zM731 1128q-54 0 -91.5 39t-37.5 93t37.5 91.5t91.5 37.5t92.5 -37.5t38.5 -91.5t-38.5 -93t-92.5 -39zM319 1128q-54 0 -91.5 39t-37.5 93t37.5 91.5t91.5 37.5t93 -37.5
t39 -91.5t-39 -93t-93 -39z" />
    <glyph glyph-name="yacute" unicode="&#xfd;" horiz-adv-x="948" 
d="M350 57l-334 709q-9 20 1.5 36.5t33.5 16.5h185q23 0 34 -22l207 -463h2l205 463q7 14 17.5 18t31.5 4h164q25 0 35.5 -16.5t-0.5 -36.5l-627 -1356q-12 -24 -35 -24h-176q-23 0 -34 16.5t-1 38.5zM336 1081q-38 -15 -53 13l-35 73q-12 23 12 39l334 199q13 10 29.5 8.5
t23.5 -14.5l60 -105q8 -21 4 -35t-17 -20z" />
    <glyph glyph-name="thorn" unicode="&#xfe;" 
d="M375 25v-603q0 -15 -12 -26.5t-27 -11.5h-174q-15 0 -27 11.5t-12 26.5v1973q0 15 12 27t27 12h174q15 0 27 -12t12 -27v-615q96 58 192 58q167 0 281.5 -125.5t114.5 -302.5q0 -182 -121 -306t-295 -124q-79 0 -172 45zM375 258q17 -21 57.5 -38t93.5 -17
q86 0 142.5 59.5t56.5 147.5q0 87 -54.5 147.5t-140.5 60.5q-63 0 -105 -26t-50 -51v-283z" />
    <glyph glyph-name="ydieresis" unicode="&#xff;" horiz-adv-x="948" 
d="M350 57l-334 709q-9 20 1.5 36.5t33.5 16.5h185q23 0 34 -22l207 -463h2l205 463q7 14 17.5 18t31.5 4h164q25 0 35.5 -16.5t-0.5 -36.5l-627 -1356q-12 -24 -35 -24h-176q-23 0 -34 16.5t-1 38.5zM682 1128q-54 0 -91.5 39t-37.5 93t37.5 91.5t91.5 37.5t92.5 -37.5
t38.5 -91.5t-38.5 -93t-92.5 -39zM270 1128q-54 0 -91.5 39t-37.5 93t37.5 91.5t91.5 37.5t92.5 -37.5t38.5 -91.5t-38.5 -93t-92.5 -39z" />
    <glyph glyph-name="Amacron" unicode="&#x100;" horiz-adv-x="1357" 
d="M35 0q-23 0 -33.5 16.5t-1.5 36.5l637 1379q11 22 35 22h20q24 0 35 -22l631 -1379q9 -20 -1.5 -36.5t-33.5 -16.5h-178q-23 0 -36 9.5t-24 31.5l-100 221h-612l-101 -221q-16 -41 -59 -41h-178zM473 489h412l-205 451h-6zM416 1655q-17 0 -28 11t-11 26v69q0 17 11 28
t28 11h524q17 0 28 -11t11 -28v-69q0 -15 -11 -26t-28 -11h-524z" />
    <glyph glyph-name="amacron" unicode="&#x101;" horiz-adv-x="872" 
d="M63 260q0 112 88 185t240 73q36 0 73.5 -5.5t57.5 -10.5l19 -6q1 77 -24 109t-83 32q-54 0 -122.5 -10t-106.5 -21q-40 -11 -47 37l-19 107q-8 39 29 51q12 5 49 13t103.5 17t125.5 9q94 0 157 -23.5t97.5 -72t48 -110.5t13.5 -151v-444q0 -15 -12 -27t-27 -12h-74
q-22 0 -35 29l-24 55q-114 -104 -250 -104q-124 0 -200.5 75.5t-76.5 204.5zM289 260q0 -46 29.5 -76t76.5 -30q45 0 88 28t54 51v113q-56 25 -115 25q-60 0 -96.5 -30.5t-36.5 -80.5zM182 1167q-17 0 -28 11t-11 26v70q0 17 11 28t28 11h525q17 0 27.5 -11t10.5 -28v-70
q0 -15 -10.5 -26t-27.5 -11h-525z" />
    <glyph glyph-name="Abreve" unicode="&#x102;" horiz-adv-x="1357" 
d="M35 0q-23 0 -33.5 16.5t-1.5 36.5l637 1379q11 22 35 22h20q24 0 35 -22l631 -1379q9 -20 -1.5 -36.5t-33.5 -16.5h-178q-23 0 -36 9.5t-24 31.5l-100 221h-612l-101 -221q-16 -41 -59 -41h-178zM473 489h412l-205 451h-6zM680 1569q-111 0 -191.5 68.5t-95.5 172.5
q-3 18 7 30.5t30 12.5h76q27 0 35 -28q16 -48 53 -78.5t86 -30.5q44 0 81.5 32.5t53.5 76.5q3 13 13.5 20.5t21.5 7.5h80q18 0 28.5 -12.5t8.5 -30.5q-17 -104 -97.5 -172.5t-189.5 -68.5z" />
    <glyph glyph-name="abreve" unicode="&#x103;" horiz-adv-x="872" 
d="M63 260q0 112 88 185t240 73q36 0 73.5 -5.5t57.5 -10.5l19 -6q1 77 -24 109t-83 32q-54 0 -122.5 -10t-106.5 -21q-40 -11 -47 37l-19 107q-8 39 29 51q12 5 49 13t103.5 17t125.5 9q94 0 157 -23.5t97.5 -72t48 -110.5t13.5 -151v-444q0 -15 -12 -27t-27 -12h-74
q-22 0 -35 29l-24 55q-114 -104 -250 -104q-124 0 -200.5 75.5t-76.5 204.5zM289 260q0 -46 29.5 -76t76.5 -30q45 0 88 28t54 51v113q-56 25 -115 25q-60 0 -96.5 -30.5t-36.5 -80.5zM459 1081q-111 0 -191.5 69t-95.5 173q-3 19 7 32t30 13h76q26 0 34 -29
q15 -48 52.5 -78t87.5 -30q44 0 81.5 31.5t53.5 76.5q3 12 13.5 20.5t21.5 8.5h80q18 0 28 -13t8 -32q-17 -104 -97 -173t-189 -69z" />
    <glyph glyph-name="Aogonek" unicode="&#x104;" horiz-adv-x="1357" 
d="M35 0q-23 0 -33.5 16.5t-1.5 36.5l637 1379q11 22 35 22h20q24 0 35 -22l631 -1379q9 -20 -1.5 -36.5t-33.5 -16.5h-125q-92 -92 -92 -197q0 -56 35.5 -93.5t99.5 -37.5q18 0 34.5 3t35.5 9t24 7q17 4 29 -6t12 -29v-62q0 -26 -28 -38q-84 -21 -136 -21
q-113 0 -186.5 57.5t-73.5 167.5q0 53 18 102.5t46.5 84.5t44.5 50.5t31 27.5l-107 237h-612l-101 -221q-16 -41 -59 -41h-178zM473 489h412l-205 451h-6z" />
    <glyph glyph-name="aogonek" unicode="&#x105;" horiz-adv-x="872" 
d="M61 260q0 112 88 185t240 73q36 0 73.5 -5.5t57.5 -10.5l19 -6q2 81 -24.5 119t-94.5 38q-67 0 -217 -32q-40 -8 -47 36l-19 93q-8 39 29 51q12 5 49 13t103.5 17t125.5 9q94 0 157 -23.5t97.5 -72t48 -110.5t13.5 -151v-444q0 -15 -12 -27t-27 -12h-8q-92 -92 -92 -197
q0 -56 35.5 -93.5t99.5 -37.5q18 0 34.5 3t35.5 9t24 7q17 4 29 -6t12 -29v-62q0 -26 -29 -38q-84 -21 -135 -21q-113 0 -186.5 57.5t-73.5 167.5q0 45 14.5 89t34 74t42 54.5t36 36t18.5 13.5l-24 57q-114 -104 -250 -104q-124 0 -200.5 75.5t-76.5 204.5zM287 260
q0 -47 29.5 -78.5t76.5 -31.5q46 0 89 30.5t53 59.5v106q-56 25 -115 25q-60 0 -96.5 -30.5t-36.5 -80.5z" />
    <glyph glyph-name="Cacute" unicode="&#x106;" horiz-adv-x="1400" 
d="M82 715q0 151 58.5 288t157 235.5t235.5 157t288 58.5q152 0 270.5 -47t225.5 -143q13 -12 13.5 -29t-11.5 -29l-125 -129q-10 -12 -24.5 -12t-26.5 12q-65 57 -147.5 89t-168.5 32q-128 0 -233.5 -65.5t-164 -174.5t-58.5 -237q0 -127 59 -235.5t165 -173t234 -64.5
q170 0 314 117q12 10 27 9.5t24 -9.5l127 -132q11 -11 10 -27.5t-12 -27.5q-204 -198 -498 -198q-101 0 -197 26t-177 73t-149 114.5t-115.5 148.5t-74 176.5t-26.5 196.5zM686 1573q-38 -16 -51 14l-37 72q-5 13 -1 23.5t13 15.5l336 200q37 23 53 -6l58 -106
q10 -19 5.5 -34t-18.5 -21z" />
    <glyph glyph-name="cacute" unicode="&#x107;" horiz-adv-x="872" 
d="M59 410q0 118 61.5 217.5t161.5 156t214 56.5q182 0 303 -146q10 -14 7 -30t-18 -27l-94 -90q-22 -19 -51 6q-58 65 -141 65t-142 -61t-59 -147q0 -88 58 -148.5t141 -60.5q38 0 70 12t48.5 25t38.5 34l7 7q25 25 51 6l88 -76q35 -28 14 -57q-110 -172 -323 -172
q-176 0 -305.5 124.5t-129.5 305.5zM350 1081q-38 -15 -53 13l-35 73q-12 23 12 39l334 199q13 10 30 8.5t24 -14.5l59 -105q18 -40 -12 -55z" />
    <glyph glyph-name="Ccircumflex" unicode="&#x108;" horiz-adv-x="1400" 
d="M82 715q0 151 58.5 288t157 235.5t235.5 157t288 58.5q152 0 270.5 -47t225.5 -143q13 -12 13.5 -29t-11.5 -29l-125 -129q-10 -12 -24.5 -12t-26.5 12q-65 57 -147.5 89t-168.5 32q-128 0 -233.5 -65.5t-164 -174.5t-58.5 -237q0 -127 59 -235.5t165 -173t234 -64.5
q170 0 314 117q12 10 27 9.5t24 -9.5l127 -132q11 -11 10 -27.5t-12 -27.5q-204 -198 -498 -198q-101 0 -197 26t-177 73t-149 114.5t-115.5 148.5t-74 176.5t-26.5 196.5zM621 1569q-31 -17 -48 6l-53 76q-6 11 -2 21.5t14 17.5l267 206q20 17 43 0l266 -206
q10 -7 14 -17.5t-2 -21.5l-53 -76q-9 -13 -18.5 -14.5t-28.5 8.5l-199 125z" />
    <glyph glyph-name="ccircumflex" unicode="&#x109;" horiz-adv-x="872" 
d="M59 410q0 118 61.5 217.5t161.5 156t214 56.5q182 0 303 -146q10 -14 7 -30t-18 -27l-94 -90q-22 -19 -51 6q-58 65 -141 65t-142 -61t-59 -147q0 -88 58 -148.5t141 -60.5q38 0 70 12t48.5 25t38.5 34l7 7q25 25 51 6l88 -76q35 -28 14 -57q-110 -172 -323 -172
q-176 0 -305.5 124.5t-129.5 305.5zM248 1083l-53 76q-6 11 -2 21.5t14 17.5l266 207q20 17 43 0l266 -207q10 -7 14.5 -17.5t-1.5 -21.5l-54 -76q-9 -13 -18.5 -14.5t-28.5 8.5l-198 125l-201 -125q-19 -10 -28.5 -8.5t-18.5 14.5z" />
    <glyph glyph-name="Cdotaccent" unicode="&#x10a;" horiz-adv-x="1400" 
d="M82 715q0 151 58.5 288t157 235.5t235.5 157t288 58.5q152 0 270.5 -47t225.5 -143q13 -12 13.5 -29t-11.5 -29l-125 -129q-10 -12 -24.5 -12t-26.5 12q-65 57 -147.5 89t-168.5 32q-128 0 -233.5 -65.5t-164 -174.5t-58.5 -237q0 -127 59 -235.5t165 -173t234 -64.5
q170 0 314 117q12 10 27 9.5t24 -9.5l127 -132q11 -11 10 -27.5t-12 -27.5q-204 -198 -498 -198q-101 0 -197 26t-177 73t-149 114.5t-115.5 148.5t-74 176.5t-26.5 196.5zM823 1599q-61 0 -104 43t-43 105q0 61 43 104t104 43q62 0 105 -43t43 -104t-43.5 -104.5
t-104.5 -43.5z" />
    <glyph glyph-name="cdotaccent" unicode="&#x10b;" horiz-adv-x="872" 
d="M59 410q0 118 61.5 217.5t161.5 156t214 56.5q182 0 303 -146q10 -14 7 -30t-18 -27l-94 -90q-22 -19 -51 6q-58 65 -141 65t-142 -61t-59 -147q0 -88 58 -148.5t141 -60.5q38 0 70 12t48.5 25t38.5 34l7 7q25 25 51 6l88 -76q35 -28 14 -57q-110 -172 -323 -172
q-176 0 -305.5 124.5t-129.5 305.5zM496 1098q-62 0 -105 43t-43 104t43 104.5t105 43.5q61 0 104 -43t43 -105q0 -61 -42.5 -104t-104.5 -43z" />
    <glyph glyph-name="Ccaron" unicode="&#x10c;" horiz-adv-x="1400" 
d="M82 715q0 151 58.5 288t157 235.5t235.5 157t288 58.5q152 0 270.5 -47t225.5 -143q13 -12 13.5 -29t-11.5 -29l-125 -129q-10 -12 -24.5 -12t-26.5 12q-65 57 -147.5 89t-168.5 32q-128 0 -233.5 -65.5t-164 -174.5t-58.5 -237q0 -127 59 -235.5t165 -173t234 -64.5
q170 0 314 117q12 10 27 9.5t24 -9.5l127 -132q11 -11 10 -27.5t-12 -27.5q-204 -198 -498 -198q-101 0 -197 26t-177 73t-149 114.5t-115.5 148.5t-74 176.5t-26.5 196.5zM799 1565l-267 207q-10 7 -14 17t2 21l53 76q17 23 48 6l198 -125l201 125q19 10 28.5 8.5
t18.5 -14.5l53 -76q6 -11 2 -21t-14 -17l-266 -207q-20 -17 -43 0z" />
    <glyph glyph-name="ccaron" unicode="&#x10d;" horiz-adv-x="872" 
d="M59 410q0 118 61.5 217.5t161.5 156t214 56.5q182 0 303 -146q10 -14 7 -30t-18 -27l-94 -90q-22 -19 -51 6q-58 65 -141 65t-142 -61t-59 -147q0 -88 58 -148.5t141 -60.5q38 0 70 12t48.5 25t38.5 34l7 7q25 25 51 6l88 -76q35 -28 14 -57q-110 -172 -323 -172
q-176 0 -305.5 124.5t-129.5 305.5zM473 1073l-266 207q-10 7 -14 17.5t2 21.5l53 76q9 13 18.5 14.5t28.5 -8.5l199 -125l200 125q19 10 28.5 8.5t18.5 -14.5l54 -76q6 -11 1.5 -21.5t-14.5 -17.5l-266 -207q-20 -17 -43 0z" />
    <glyph glyph-name="Dcaron" unicode="&#x10e;" horiz-adv-x="1511" 
d="M186 39v1356q0 15 11 27t26 12h486q145 0 278 -57t229.5 -153t153.5 -228t57 -277q0 -146 -57 -279.5t-153.5 -229.5t-229 -153t-278.5 -57h-486q-15 0 -26 12t-11 27zM451 250h233q199 0 330 134t131 335q0 200 -131 333.5t-330 133.5h-233v-936zM694 1565l-266 207
q-10 7 -14 17t2 21l53 76q9 13 18.5 14.5t28.5 -8.5l199 -125l200 125q31 17 48 -6l53 -76q6 -11 2 -21t-14 -17l-267 -207q-20 -17 -43 0z" />
    <glyph glyph-name="dcaron" unicode="&#x10f;" horiz-adv-x="1085" 
d="M61 410q0 183 113 306.5t293 123.5q84 0 182 -37v592q0 15 12 27t27 12h174q15 0 27 -12t12 -27v-1356q0 -15 -12 -27t-27 -12h-80q-13 0 -23.5 11t-15.5 28l-20 63q-4 -5 -11.5 -13t-33.5 -29t-54.5 -37.5t-74.5 -29.5t-94 -13q-166 0 -280 126t-114 304zM299 410
q0 -88 52.5 -148.5t133.5 -60.5q73 0 115.5 42t56.5 91v237q-6 5 -18.5 13t-54 21t-86.5 13q-85 0 -142 -60.5t-57 -147.5zM1180 866l-29 29q-10 11 -8.5 24.5t12.5 22.5q13 9 31 26t45 49t45 78.5t18 96.5l-4 -1q-3 -1 -9 -2.5t-13 -3t-16.5 -2.5t-18.5 -1q-57 0 -97 39
t-40 96q0 58 41.5 97.5t103.5 39.5q67 0 118.5 -52.5t51.5 -166.5q0 -208 -184 -371q-26 -19 -47 2z" />
    <glyph glyph-name="Dcroat" unicode="&#x110;" horiz-adv-x="1521" 
d="M197 39v618h-60q-15 0 -26 12t-11 27v27q0 15 11 27t26 12h60v633q0 15 10.5 27t25.5 12h486q145 0 278.5 -57t230 -153t153.5 -228t57 -277q0 -117 -36.5 -227t-103 -198t-155 -154.5t-198 -103t-226.5 -36.5h-486q-15 0 -25.5 12t-10.5 27zM461 250h233q199 0 330 134
t131 335q0 200 -131 333.5t-330 133.5h-233v-424h338q17 0 28 -11.5t11 -27.5v-29q0 -15 -11 -26t-28 -11h-338v-407z" />
    <glyph glyph-name="dcroat" unicode="&#x111;" 
d="M61 410q0 183 113 306.5t293 123.5q84 0 182 -37v289h-235q-17 0 -28 10.5t-11 25.5v29q0 16 11 27.5t28 11.5h235v199q0 15 12 27t27 12h174q15 0 27 -12t12 -27v-199h68q15 0 26 -12t11 -27v-27q0 -15 -11 -26.5t-26 -11.5h-68v-1053q0 -15 -12 -27t-27 -12h-80
q-13 0 -23.5 11t-15.5 28l-20 63q-4 -5 -11.5 -13t-33.5 -29t-54.5 -37.5t-74.5 -29.5t-94 -13q-166 0 -280 126t-114 304zM299 410q0 -88 52.5 -148.5t133.5 -60.5q73 0 115.5 42t56.5 91v233q-6 5 -18.5 13t-54 21t-86.5 13q-86 0 -142.5 -58.5t-56.5 -145.5z" />
    <glyph glyph-name="Emacron" unicode="&#x112;" horiz-adv-x="1204" 
d="M186 39v1356q0 16 11 27.5t28 11.5h834q17 0 28 -11.5t11 -27.5v-168q0 -16 -11 -27.5t-28 -11.5h-606v-336h505q15 0 27 -12t12 -27v-170q0 -17 -11.5 -28t-27.5 -11h-505v-358h606q17 0 28 -11.5t11 -27.5v-168q0 -16 -11 -27.5t-28 -11.5h-834q-17 0 -28 11.5
t-11 27.5zM387 1655q-17 0 -28 11t-11 26v69q0 17 11 28t28 11h524q17 0 28 -11t11 -28v-69q0 -15 -11 -26t-28 -11h-524z" />
    <glyph glyph-name="emacron" unicode="&#x113;" horiz-adv-x="911" 
d="M61 410q0 115 53 213t149.5 157.5t215.5 59.5q160 0 271.5 -108.5t111.5 -272.5q0 -28 -4 -56q-1 -15 -13 -24.5t-26 -9.5h-524q5 -69 59 -124t138 -55q88 0 159 52q35 21 54 0l83 -97q11 -11 11.5 -25.5t-13.5 -27.5q-121 -112 -305 -112q-182 0 -301 125t-119 305z
M313 512h310q-5 57 -48.5 98t-101.5 41q-61 0 -106.5 -40t-53.5 -99zM211 1167q-17 0 -28 11t-11 26v70q0 17 11 28t28 11h524q17 0 28 -11t11 -28v-70q0 -15 -11 -26t-28 -11h-524z" />
    <glyph glyph-name="Ebreve" unicode="&#x114;" horiz-adv-x="1204" 
d="M186 39v1356q0 16 11 27.5t28 11.5h834q17 0 28 -11.5t11 -27.5v-168q0 -16 -11 -27.5t-28 -11.5h-606v-336h505q15 0 27 -12t12 -27v-170q0 -17 -11.5 -28t-27.5 -11h-505v-358h606q17 0 28 -11.5t11 -27.5v-168q0 -16 -11 -27.5t-28 -11.5h-834q-17 0 -28 11.5
t-11 27.5zM659 1569q-111 0 -191 68.5t-95 172.5q-3 18 7 30.5t30 12.5h75q27 0 35 -28q16 -48 53 -78.5t86 -30.5q44 0 82 32.5t54 76.5q3 13 13 20.5t21 7.5h80q18 0 28.5 -12.5t8.5 -30.5q-17 -104 -97.5 -172.5t-189.5 -68.5z" />
    <glyph glyph-name="ebreve" unicode="&#x115;" horiz-adv-x="911" 
d="M61 410q0 115 53 213t149.5 157.5t215.5 59.5q160 0 271.5 -108.5t111.5 -272.5q0 -28 -4 -56q-1 -15 -13 -24.5t-26 -9.5h-524q5 -69 59 -124t138 -55q88 0 159 52q35 21 54 0l83 -97q11 -11 11.5 -25.5t-13.5 -27.5q-121 -112 -305 -112q-182 0 -301 125t-119 305z
M313 512h310q-5 57 -48.5 98t-101.5 41q-61 0 -106.5 -40t-53.5 -99zM475 1081q-111 0 -191.5 69t-95.5 173q-3 19 7 32t30 13h76q13 0 22.5 -8.5t12.5 -20.5q15 -49 52 -78.5t87 -29.5q44 0 81.5 31.5t53.5 76.5q3 12 13.5 20.5t21.5 8.5h80q18 0 28.5 -13t8.5 -32
q-17 -104 -97.5 -173t-189.5 -69z" />
    <glyph glyph-name="Edotaccent" unicode="&#x116;" horiz-adv-x="1204" 
d="M186 39v1356q0 16 11 27.5t28 11.5h834q17 0 28 -11.5t11 -27.5v-168q0 -16 -11 -27.5t-28 -11.5h-606v-336h505q15 0 27 -12t12 -27v-170q0 -17 -11.5 -28t-27.5 -11h-505v-358h606q17 0 28 -11.5t11 -27.5v-168q0 -16 -11 -27.5t-28 -11.5h-834q-17 0 -28 11.5
t-11 27.5zM659 1599q-61 0 -104 43t-43 105q0 61 43 104t104 43q62 0 105 -43t43 -104t-43.5 -104.5t-104.5 -43.5z" />
    <glyph glyph-name="edotaccent" unicode="&#x117;" horiz-adv-x="911" 
d="M61 410q0 115 53 213t149.5 157.5t215.5 59.5q160 0 271.5 -108.5t111.5 -272.5q0 -28 -4 -56q-1 -15 -13 -24.5t-26 -9.5h-524q5 -69 59 -124t138 -55q88 0 159 52q35 21 54 0l83 -97q11 -11 11.5 -25.5t-13.5 -27.5q-121 -112 -305 -112q-182 0 -301 125t-119 305z
M313 512h310q-5 57 -48.5 98t-101.5 41q-61 0 -106.5 -40t-53.5 -99zM475 1098q-61 0 -104 43t-43 104q0 62 43 105t104 43t104.5 -43.5t43.5 -104.5t-43 -104t-105 -43z" />
    <glyph glyph-name="Eogonek" unicode="&#x118;" horiz-adv-x="1204" 
d="M186 39v1356q0 16 11 27.5t28 11.5h834q17 0 28 -11.5t11 -27.5v-168q0 -16 -11 -27.5t-28 -11.5h-606v-336h505q15 0 27 -12t12 -27v-170q0 -17 -11.5 -28t-27.5 -11h-505v-358h606q17 0 28 -11.5t11 -27.5v-141q0 -21 -6 -35t-10 -18t-17 -13q-94 -94 -94 -197
q0 -56 35.5 -93.5t99.5 -37.5q18 0 34.5 3t35.5 9t24 7q17 4 29 -6t12 -29v-62q0 -26 -29 -38q-84 -21 -135 -21q-113 0 -186.5 57.5t-73.5 167.5q0 137 113 240h-705q-17 0 -28 11.5t-11 27.5z" />
    <glyph glyph-name="eogonek" unicode="&#x119;" horiz-adv-x="913" 
d="M313 -240q0 122 99 226q-156 25 -253.5 144t-97.5 280q0 115 53 213t149.5 157.5t215.5 59.5q160 0 271.5 -108.5t111.5 -272.5q0 -28 -4 -56q-1 -15 -13 -24.5t-26 -9.5h-524q5 -69 59 -125t138 -56q85 0 159 54q39 23 54 0q17 -17 41.5 -48t41.5 -49q11 -11 11.5 -25.5
t-13.5 -27.5q-95 -88 -241 -108q-78 -87 -78 -181q0 -56 35.5 -93.5t99.5 -37.5q18 0 34.5 3t35.5 9t24 7q17 4 29 -6t12 -29v-62q0 -26 -28 -38q-84 -21 -136 -21q-113 0 -186.5 57.5t-73.5 167.5zM313 512h310q-5 57 -48.5 98t-101.5 41q-61 0 -106.5 -40t-53.5 -99z" />
    <glyph glyph-name="Ecaron" unicode="&#x11a;" horiz-adv-x="1204" 
d="M186 39v1356q0 16 11 27.5t28 11.5h834q17 0 28 -11.5t11 -27.5v-168q0 -16 -11 -27.5t-28 -11.5h-606v-336h505q15 0 27 -12t12 -27v-170q0 -17 -11.5 -28t-27.5 -11h-505v-358h606q17 0 28 -11.5t11 -27.5v-168q0 -16 -11 -27.5t-28 -11.5h-834q-17 0 -28 11.5
t-11 27.5zM625 1565l-267 207q-10 7 -14 17t2 21l53 76q9 13 18.5 14.5t28.5 -8.5l199 -125l201 125q19 10 28.5 8.5t18.5 -14.5l53 -76q6 -11 2 -21t-14 -17l-266 -207q-20 -17 -43 0z" />
    <glyph glyph-name="ecaron" unicode="&#x11b;" horiz-adv-x="911" 
d="M61 410q0 115 53 213t149.5 157.5t215.5 59.5q160 0 271.5 -108.5t111.5 -272.5q0 -28 -4 -56q-1 -15 -13 -24.5t-26 -9.5h-524q5 -69 59 -124t138 -55q88 0 159 52q35 21 54 0l83 -97q11 -11 11.5 -25.5t-13.5 -27.5q-121 -112 -305 -112q-182 0 -301 125t-119 305z
M313 512h310q-5 57 -48.5 98t-101.5 41q-61 0 -106.5 -40t-53.5 -99zM453 1073l-267 207q-10 7 -14 17.5t2 21.5l53 76q9 13 18.5 14.5t28.5 -8.5l199 -125l201 125q19 10 28.5 8.5t18.5 -14.5l53 -76q6 -11 2 -21.5t-14 -17.5l-266 -207q-20 -17 -43 0z" />
    <glyph glyph-name="Gcircumflex" unicode="&#x11c;" horiz-adv-x="1458" 
d="M84 715q0 151 58 288t156 235.5t234.5 157t286.5 58.5q136 0 265 -49.5t235 -140.5q12 -12 13 -29t-11 -29l-127 -133q-25 -25 -53 0q-134 119 -310 119q-125 0 -231 -65t-166.5 -174.5t-60.5 -235.5q0 -125 61 -233t167.5 -172t232.5 -64q112 0 243 51v174h-164
q-17 0 -28 11t-11 26v162q0 17 11 28t28 11h394q15 0 25.5 -12t10.5 -27v-525q0 -20 -16 -32q-9 -5 -25 -14t-68 -32t-108 -40.5t-140 -32t-167 -14.5q-150 0 -286.5 57.5t-234.5 155t-156 233.5t-58 287zM616 1569q-19 -10 -28.5 -8.5t-18.5 14.5l-53 76q-6 11 -2 21.5
t14 17.5l267 206q20 17 43 0l266 -206q10 -7 14 -17.5t-2 -21.5l-53 -76q-9 -13 -18.5 -14.5t-28.5 8.5l-199 125z" />
    <glyph glyph-name="gcircumflex" unicode="&#x11d;" horiz-adv-x="946" 
d="M37 61q0 45 16 85t38.5 65.5t44.5 44.5t38 27l16 8q-7 8 -17 22.5t-27 64.5t-17 105q0 145 103 251t253 106h373q17 0 28 -11t11 -28v-68q0 -28 -23 -35l-114 -36q3 -3 8.5 -8t20 -24t25 -41t19.5 -58.5t9 -77.5q0 -128 -97.5 -225t-252.5 -97q-45 0 -99 8t-65 8
q-25 0 -50.5 -21.5t-25.5 -55.5q0 -31 23.5 -50.5t58.5 -19.5h262q144 0 241 -78t97 -209q0 -149 -118 -248.5t-331 -99.5q-109 0 -192.5 25t-130.5 66.5t-70.5 89.5t-23.5 100q0 121 122 194v6q-13 4 -29.5 11.5t-39.5 25.5t-40.5 40.5t-30.5 59t-13 78.5zM348 473
q0 -64 41 -105.5t103 -41.5q63 0 102 41t39 106t-39 106.5t-102 41.5q-62 0 -103 -42t-41 -106zM303 -309q0 -54 48.5 -87.5t131.5 -33.5q86 0 138.5 35.5t52.5 93.5q0 37 -34.5 68.5t-115.5 31.5q-76 0 -133 -8q-17 -6 -34.5 -15.5t-35.5 -32.5t-18 -52zM264 1083l-53 76
q-6 11 -2 21.5t14 17.5l266 207q20 17 43 0l267 -207q10 -7 14 -17.5t-2 -21.5l-53 -76q-9 -13 -18.5 -14.5t-28.5 8.5l-199 125l-201 -125q-19 -10 -28.5 -8.5t-18.5 14.5z" />
    <glyph glyph-name="Gbreve" unicode="&#x11e;" horiz-adv-x="1458" 
d="M84 715q0 151 58 288t156 235.5t234.5 157t286.5 58.5q136 0 265 -49.5t235 -140.5q12 -12 13 -29t-11 -29l-127 -133q-25 -25 -53 0q-134 119 -310 119q-125 0 -231 -65t-166.5 -174.5t-60.5 -235.5q0 -125 61 -233t167.5 -172t232.5 -64q112 0 243 51v174h-164
q-17 0 -28 11t-11 26v162q0 17 11 28t28 11h394q15 0 25.5 -12t10.5 -27v-525q0 -20 -16 -32q-9 -5 -25 -14t-68 -32t-108 -40.5t-140 -32t-167 -14.5q-150 0 -286.5 57.5t-234.5 155t-156 233.5t-58 287zM821 1569q-111 0 -191 68.5t-95 172.5q-3 18 6.5 30.5t29.5 12.5h76
q27 0 35 -28q16 -48 53 -78.5t86 -30.5q44 0 81.5 32.5t53.5 76.5q3 13 13.5 20.5t21.5 7.5h80q18 0 28.5 -12.5t8.5 -30.5q-17 -104 -97.5 -172.5t-189.5 -68.5z" />
    <glyph glyph-name="gbreve" unicode="&#x11f;" horiz-adv-x="946" 
d="M37 61q0 45 16 85t38.5 65.5t44.5 44.5t38 27l16 8q-7 8 -17 22.5t-27 64.5t-17 105q0 145 103 251t253 106h373q17 0 28 -11t11 -28v-68q0 -28 -23 -35l-114 -36q3 -3 8.5 -8t20 -24t25 -41t19.5 -58.5t9 -77.5q0 -128 -97.5 -225t-252.5 -97q-45 0 -99 8t-65 8
q-25 0 -50.5 -21.5t-25.5 -55.5q0 -31 23.5 -50.5t58.5 -19.5h262q144 0 241 -78t97 -209q0 -149 -118 -248.5t-331 -99.5q-109 0 -192.5 25t-130.5 66.5t-70.5 89.5t-23.5 100q0 121 122 194v6q-13 4 -29.5 11.5t-39.5 25.5t-40.5 40.5t-30.5 59t-13 78.5zM348 473
q0 -64 41 -105.5t103 -41.5q63 0 102 41t39 106t-39 106.5t-102 41.5q-62 0 -103 -42t-41 -106zM303 -309q0 -54 48.5 -87.5t131.5 -33.5q86 0 138.5 35.5t52.5 93.5q0 37 -34.5 68.5t-115.5 31.5q-76 0 -133 -8q-17 -6 -34.5 -15.5t-35.5 -32.5t-18 -52zM510 1081
q-111 0 -191.5 69t-95.5 173q-3 19 7 32t30 13h76q13 0 22.5 -8.5t12.5 -20.5q15 -49 52 -78.5t87 -29.5q44 0 81.5 31.5t53.5 76.5q3 12 13.5 20.5t21.5 8.5h80q18 0 28.5 -13t8.5 -32q-17 -104 -97.5 -173t-189.5 -69z" />
    <glyph glyph-name="Gdotaccent" unicode="&#x120;" horiz-adv-x="1458" 
d="M84 715q0 151 58 288t156 235.5t234.5 157t286.5 58.5q136 0 265 -49.5t235 -140.5q12 -12 13 -29t-11 -29l-127 -133q-25 -25 -53 0q-134 119 -310 119q-125 0 -231 -65t-166.5 -174.5t-60.5 -235.5q0 -125 61 -233t167.5 -172t232.5 -64q112 0 243 51v174h-164
q-17 0 -28 11t-11 26v162q0 17 11 28t28 11h394q15 0 25.5 -12t10.5 -27v-525q0 -20 -16 -32q-9 -5 -25 -14t-68 -32t-108 -40.5t-140 -32t-167 -14.5q-150 0 -286.5 57.5t-234.5 155t-156 233.5t-58 287zM821 1599q-61 0 -104 43t-43 105q0 61 43 104t104 43q62 0 105 -43
t43 -104t-43.5 -104.5t-104.5 -43.5z" />
    <glyph glyph-name="gdotaccent" unicode="&#x121;" horiz-adv-x="946" 
d="M37 61q0 45 16 85t38.5 65.5t44.5 44.5t38 27l16 8q-7 8 -17 22.5t-27 64.5t-17 105q0 145 103 251t253 106h373q17 0 28 -11t11 -28v-68q0 -28 -23 -35l-114 -36q3 -3 8.5 -8t20 -24t25 -41t19.5 -58.5t9 -77.5q0 -128 -97.5 -225t-252.5 -97q-45 0 -99 8t-65 8
q-25 0 -50.5 -21.5t-25.5 -55.5q0 -31 23.5 -50.5t58.5 -19.5h262q144 0 241 -78t97 -209q0 -149 -118 -248.5t-331 -99.5q-109 0 -192.5 25t-130.5 66.5t-70.5 89.5t-23.5 100q0 121 122 194v6q-13 4 -29.5 11.5t-39.5 25.5t-40.5 40.5t-30.5 59t-13 78.5zM348 473
q0 -64 41 -105.5t103 -41.5q63 0 102 41t39 106t-39 106.5t-102 41.5q-62 0 -103 -42t-41 -106zM303 -309q0 -54 48.5 -87.5t131.5 -33.5q86 0 138.5 35.5t52.5 93.5q0 37 -34.5 68.5t-115.5 31.5q-76 0 -133 -8q-17 -6 -34.5 -15.5t-35.5 -32.5t-18 -52zM506 1098
q-62 0 -105 43t-43 104t43 104.5t105 43.5q61 0 104 -43t43 -105q0 -61 -42.5 -104t-104.5 -43z" />
    <glyph glyph-name="Gcommaaccent" unicode="&#x122;" horiz-adv-x="1458" 
d="M84 715q0 151 58 288t156 235.5t234.5 157t286.5 58.5q136 0 265 -49.5t235 -140.5q12 -12 13 -29t-11 -29l-127 -133q-25 -25 -53 0q-134 119 -310 119q-125 0 -231 -65t-166.5 -174.5t-60.5 -235.5q0 -125 61 -233t167.5 -172t232.5 -64q112 0 243 51v174h-164
q-17 0 -28 11t-11 26v162q0 17 11 28t28 11h394q15 0 25.5 -12t10.5 -27v-525q0 -20 -16 -32q-9 -5 -25 -14t-68 -32t-108 -40.5t-140 -32t-167 -14.5q-150 0 -286.5 57.5t-234.5 155t-156 233.5t-58 287zM811 -186q67 0 118.5 -53t51.5 -167q0 -207 -184 -370
q-27 -20 -47 2l-31 29q-9 11 -7 24.5t13 22.5q13 9 30.5 26t44.5 49t45 78t19 96l-4 -1q-3 -1 -9 -2.5t-13 -3t-17 -2.5t-20 -1q-56 0 -96.5 39.5t-40.5 95.5q0 57 42.5 97.5t104.5 40.5z" />
    <glyph glyph-name="gcommaaccent" unicode="&#x123;" horiz-adv-x="946" 
d="M516 1083q-67 0 -118.5 53t-51.5 167q0 207 184 370q28 21 48 -2l30 -29q9 -11 7 -24.5t-13 -22.5q-13 -9 -30.5 -26t-44.5 -49t-45 -78t-19 -96l3 1l10 2.5t13 3t17 2.5t20 1q56 0 97 -39.5t41 -95.5q0 -57 -42.5 -97.5t-105.5 -40.5zM37 61q0 45 16 85t38.5 65.5
t44.5 44.5t38 27l16 8q-7 8 -17 22.5t-27 64.5t-17 105q0 145 103 251t253 106h373q17 0 28 -11t11 -28v-68q0 -28 -23 -35l-114 -36q3 -3 8.5 -8t20 -24t25 -41t19.5 -58.5t9 -77.5q0 -128 -97.5 -225t-252.5 -97q-45 0 -99 8t-65 8q-25 0 -50.5 -21.5t-25.5 -55.5
q0 -31 23.5 -50.5t58.5 -19.5h262q144 0 241 -78t97 -209q0 -149 -118 -248.5t-331 -99.5q-109 0 -192.5 25t-130.5 66.5t-70.5 89.5t-23.5 100q0 121 122 194v6q-13 4 -29.5 11.5t-39.5 25.5t-40.5 40.5t-30.5 59t-13 78.5zM348 473q0 -64 41 -105.5t103 -41.5q63 0 102 41
t39 106t-39 106.5t-102 41.5q-62 0 -103 -42t-41 -106zM303 -309q0 -54 48.5 -87.5t131.5 -33.5q86 0 138.5 35.5t52.5 93.5q0 37 -34.5 68.5t-115.5 31.5q-76 0 -133 -8q-17 -6 -34.5 -15.5t-35.5 -32.5t-18 -52z" />
    <glyph glyph-name="Hcircumflex" unicode="&#x124;" horiz-adv-x="1574" 
d="M186 39v1356q0 15 12 27t27 12h191q17 0 28 -11.5t11 -27.5v-543h667v543q0 16 11 27.5t28 11.5h189q15 0 27 -12t12 -27v-1356q0 -15 -12 -27t-27 -12h-189q-17 0 -28 11.5t-11 27.5v565h-667v-565q0 -16 -11 -27.5t-28 -11.5h-191q-15 0 -27 12t-12 27zM596 1569
q-19 -10 -28.5 -8.5t-18.5 14.5l-53 76q-6 11 -2 21.5t14 17.5l266 206q20 17 43 0l266 -206q10 -7 14.5 -17.5t-1.5 -21.5l-54 -76q-9 -13 -18.5 -14.5t-28.5 8.5l-198 125z" />
    <glyph glyph-name="hcircumflex" unicode="&#x125;" horiz-adv-x="1064" 
d="M123 39v1356q0 15 12 27t27 12h174q15 0 27 -12t12 -27v-623q36 27 93.5 47.5t123.5 20.5q76 0 138 -22.5t103.5 -61t70 -91.5t41.5 -111t13 -122v-393q0 -15 -11.5 -27t-26.5 -12h-166q-17 0 -28 11.5t-11 27.5v395q0 84 -44 134t-118 50q-69 0 -116 -40t-62 -105v-434
q0 -39 -43 -39h-170q-15 0 -27 12t-12 27zM-4 1528l-53 76q-6 11 -2 21t14 17l266 207q20 17 43 0l266 -207q27 -18 13 -38l-54 -76q-9 -13 -18.5 -14.5t-28.5 8.5l-198 125l-201 -125q-19 -10 -28.5 -8.5t-18.5 14.5z" />
    <glyph glyph-name="Hbar" unicode="&#x126;" horiz-adv-x="1574" 
d="M186 39v1053h-53q-15 0 -26 11.5t-11 26.5v27q0 15 11 27t26 12h53v199q0 15 12 27t27 12h191q17 0 28 -11.5t11 -27.5v-199h667v199q0 16 11 27.5t28 11.5h189q15 0 27 -12t12 -27v-199h53q17 0 28 -11.5t11 -27.5v-29q0 -15 -11 -25.5t-28 -10.5h-53v-1053
q0 -15 -12 -27t-27 -12h-189q-17 0 -28 11.5t-11 27.5v565h-667v-565q0 -16 -11 -27.5t-28 -11.5h-191q-15 0 -27 12t-12 27zM455 852h667v240h-667v-240z" />
    <glyph glyph-name="hbar" unicode="&#x127;" horiz-adv-x="1064" 
d="M123 39v1053h-64q-15 0 -25.5 11.5t-10.5 26.5v27q0 15 10.5 27t25.5 12h64v199q0 15 12 27t27 12h174q15 0 27 -12t12 -27v-199h237q17 0 28 -11.5t11 -27.5v-29q0 -15 -11 -25.5t-28 -10.5h-237v-320q36 27 93.5 47.5t123.5 20.5q76 0 138 -22.5t103.5 -61t70 -91.5
t41.5 -111t13 -122v-393q0 -15 -11.5 -27t-26.5 -12h-166q-17 0 -28 11.5t-11 27.5v391q0 84 -44 134t-118 50q-69 0 -116 -40t-62 -105v-430q0 -39 -43 -39h-170q-15 0 -27 12t-12 27z" />
    <glyph glyph-name="Itilde" unicode="&#x128;" horiz-adv-x="641" 
d="M186 39v1356q0 15 12 27t27 12h191q15 0 27 -12t12 -27v-1356q0 -15 -12 -27t-27 -12h-191q-15 0 -27 12t-12 27zM76 1616l-60 43q-10 7 -13.5 22t1.5 25q12 23 18 33.5t29 41.5t43.5 48.5t54 33t68.5 15.5q36 0 68 -17.5t52 -39t46.5 -39t52.5 -17.5q24 0 43 19t28.5 39
t26 31t35.5 -5l58 -41q26 -20 2 -63l-8 -13q-8 -14 -10.5 -18.5t-12 -19t-16 -21.5t-18 -20t-21 -20.5t-23.5 -17t-27 -14.5t-29.5 -8.5t-33.5 -3.5q-36 0 -70 18t-56 39.5t-48.5 39.5t-48.5 18q-24 0 -43 -19t-27.5 -39.5t-24.5 -32.5t-36 3z" />
    <glyph glyph-name="itilde" unicode="&#x129;" horiz-adv-x="493" 
d="M2 1151l-59 43q-10 7 -14 22t1 25q12 23 18 33.5t29 41.5t43.5 48.5t54 33t68.5 15.5q36 0 68 -17.5t52 -39t46.5 -39t52.5 -17.5q24 0 43 19t28.5 39t26.5 31t36 -5l57 -41q26 -20 2 -63l-8 -14q-8 -13 -10.5 -17.5t-12 -19t-16 -21.5t-18 -20t-21 -20.5t-23.5 -17
t-27 -14.5t-29.5 -8.5t-33.5 -3.5q-36 0 -70 18t-56 39.5t-48.5 39.5t-48.5 18q-24 0 -43 -19t-27.5 -39.5t-24.5 -32.5t-36 3zM123 39v741q0 17 11.5 28t27.5 11h170q16 0 27.5 -11t11.5 -28v-741q0 -15 -12 -27t-27 -12h-170q-15 0 -27 12t-12 27z" />
    <glyph glyph-name="Imacron" unicode="&#x12a;" horiz-adv-x="641" 
d="M186 39v1356q0 15 12 27t27 12h191q15 0 27 -12t12 -27v-1356q0 -15 -12 -27t-27 -12h-191q-15 0 -27 12t-12 27zM59 1655q-17 0 -28 11t-11 26v69q0 17 11 28t28 11h525q17 0 28 -11t11 -28v-69q0 -15 -11 -26t-28 -11h-525z" />
    <glyph glyph-name="imacron" unicode="&#x12b;" horiz-adv-x="493" 
d="M-14 1167q-17 0 -28 11t-11 26v70q0 17 11 28t28 11h524q17 0 28 -11t11 -28v-70q0 -15 -11 -26t-28 -11h-524zM123 39v741q0 17 11.5 28t27.5 11h170q16 0 27.5 -11t11.5 -28v-741q0 -15 -12 -27t-27 -12h-170q-15 0 -27 12t-12 27z" />
    <glyph glyph-name="Ibreve" unicode="&#x12c;" horiz-adv-x="641" 
d="M186 39v1356q0 15 12 27t27 12h191q15 0 27 -12t12 -27v-1356q0 -15 -12 -27t-27 -12h-191q-15 0 -27 12t-12 27zM322 1569q-111 0 -191.5 68.5t-95.5 172.5q-3 18 7 30.5t30 12.5h75q27 0 35 -28q16 -48 53.5 -78.5t86.5 -30.5q44 0 81.5 32.5t53.5 76.5q3 13 13.5 20.5
t21.5 7.5h79q18 0 28.5 -12.5t8.5 -30.5q-17 -104 -97 -172.5t-189 -68.5z" />
    <glyph glyph-name="ibreve" unicode="&#x12d;" horiz-adv-x="493" 
d="M248 1081q-111 0 -191.5 69t-95.5 173q-3 19 7 32t30 13h76q13 0 22.5 -8.5t12.5 -20.5q15 -49 52 -78.5t87 -29.5q44 0 81.5 31.5t53.5 76.5q3 12 13.5 20.5t21.5 8.5h80q18 0 28.5 -13t8.5 -32q-17 -104 -97.5 -173t-189.5 -69zM123 39v741q0 17 11.5 28t27.5 11h170
q16 0 27.5 -11t11.5 -28v-741q0 -15 -12 -27t-27 -12h-170q-15 0 -27 12t-12 27z" />
    <glyph glyph-name="Iogonek" unicode="&#x12e;" horiz-adv-x="641" 
d="M186 39v1356q0 15 12 27t27 12h191q15 0 27 -12t12 -27v-1356q0 -15 -12 -27t-27 -12h-37q-92 -92 -92 -197q0 -56 35.5 -93.5t99.5 -37.5q18 0 34.5 3t35.5 9t24 7q17 4 29 -6t12 -29v-62q0 -26 -29 -38q-84 -21 -135 -21q-113 0 -186.5 57.5t-73.5 167.5q0 137 113 240
h-21q-15 0 -27 12t-12 27z" />
    <glyph glyph-name="iogonek" unicode="&#x12f;" horiz-adv-x="493" 
d="M244 1110q-58 0 -99 41t-41 100t41 100.5t99 41.5q60 0 101.5 -41.5t41.5 -100.5t-41.5 -100t-101.5 -41zM123 39v741q0 17 11.5 28t27.5 11h170q16 0 27.5 -11t11.5 -28v-741q0 -15 -12 -27t-27 -12h-37q-92 -92 -92 -197q0 -56 35.5 -93.5t99.5 -37.5q18 0 34.5 3
t35.5 9t24 7q17 4 29 -6t12 -29v-62q0 -26 -29 -38q-84 -21 -135 -21q-113 0 -186.5 57.5t-73.5 167.5q0 137 113 240q-15 0 -27 12t-12 27z" />
    <glyph glyph-name="Idotaccent" unicode="&#x130;" horiz-adv-x="641" 
d="M186 39v1356q0 15 12 27t27 12h191q15 0 27 -12t12 -27v-1356q0 -15 -12 -27t-27 -12h-191q-15 0 -27 12t-12 27zM322 1599q-62 0 -105 43.5t-43 104.5t43 104t105 43t104.5 -43t42.5 -104q0 -62 -43 -105t-104 -43z" />
    <glyph glyph-name="dotlessi" unicode="&#x131;" horiz-adv-x="493" 
d="M123 39v741q0 17 11.5 28t27.5 11h170q16 0 27.5 -11t11.5 -28v-741q0 -15 -12 -27t-27 -12h-170q-15 0 -27 12t-12 27z" />
    <glyph glyph-name="IJ" unicode="&#x132;" horiz-adv-x="1536" 
d="M186 39v1356q0 15 12 27t27 12h191q15 0 27 -12t12 -27v-1356q0 -15 -12 -27t-27 -12h-191q-15 0 -27 12t-12 27zM647 129q-17 27 4 51l107 109q32 27 61 -2q61 -66 135 -66q66 0 115 54t49 153v967q0 16 11 27.5t28 11.5h193q17 0 28 -11.5t11 -27.5v-967
q0 -208 -122.5 -328t-308.5 -120q-190 0 -311 149z" />
    <glyph glyph-name="ij" unicode="&#x133;" 
d="M244 1110q-58 0 -99 41t-41 100t41 100.5t99 41.5q60 0 101.5 -41.5t41.5 -100.5t-41.5 -100t-101.5 -41zM123 39v741q0 17 11.5 28t27.5 11h170q16 0 27.5 -11t11.5 -28v-741q0 -15 -12 -27t-27 -12h-170q-15 0 -27 12t-12 27zM774 1110q-58 0 -98.5 41t-40.5 100
t40.5 100.5t98.5 41.5q60 0 102 -41.5t42 -100.5t-42 -100t-102 -41zM651 -221v1001q0 17 11.5 28t27.5 11h172q16 0 27.5 -11t11.5 -28v-1001q0 -197 -106 -305.5t-275 -108.5q-75 0 -142.5 25.5t-98.5 54.5q-10 7 -12.5 22t3.5 25l68 131q6 12 21 15t28 -5q69 -41 121 -41
q69 0 106 49t37 138z" />
    <glyph glyph-name="Jcircumflex" unicode="&#x134;" horiz-adv-x="856" 
d="M-33 129q-17 27 4 51l107 109q32 27 61 -2q61 -66 135 -66q66 0 115 54t49 153v967q0 16 11 27.5t28 11.5h193q17 0 28 -11.5t11 -27.5v-967q0 -208 -122 -328t-308 -120q-191 0 -312 149zM377 1569q-19 -10 -28.5 -8.5t-18.5 14.5l-54 76q-6 11 -1.5 21.5t14.5 17.5
l266 206q20 17 43 0l266 -206q10 -7 14.5 -17.5t-1.5 -21.5l-54 -76q-9 -13 -18.5 -14.5t-28.5 8.5l-198 125z" />
    <glyph glyph-name="jcircumflex" unicode="&#x135;" horiz-adv-x="495" 
d="M123 -221v1001q0 17 11.5 28t27.5 11h172q16 0 27.5 -11t11.5 -28v-1001q0 -197 -106 -305.5t-275 -108.5q-75 0 -143 25.5t-99 54.5q-10 7 -12 22t4 25l68 131q6 12 21 15t28 -5q69 -41 121 -41q69 0 106 49t37 138zM-2 1083l-53 76q-6 11 -2 21.5t14 17.5l266 207
q20 17 43 0l266 -207q10 -7 14.5 -17.5t-1.5 -21.5l-53 -76q-17 -23 -48 -6l-198 125l-201 -125q-19 -10 -28.5 -8.5t-18.5 14.5z" />
    <glyph glyph-name="Kcommaaccent" unicode="&#x136;" horiz-adv-x="1341" 
d="M186 49v1335q0 21 14.5 35.5t35.5 14.5h180q20 0 34.5 -15t14.5 -35v-553l516 582q17 21 39 21h205q29 0 40.5 -25.5t-8.5 -48.5l-534 -602l573 -686q16 -20 5 -46t-41 -26h-224q-28 0 -37 14l-534 660v-625q0 -20 -14.5 -34.5t-34.5 -14.5h-180q-22 0 -36 14t-14 35z
M715 -186q67 0 118.5 -53t51.5 -167q0 -206 -185 -370q-27 -20 -47 2l-30 29q-9 11 -7 24.5t13 22.5q13 9 30.5 26t44.5 49t45 78t19 96l-4 -1q-3 -1 -9 -2.5t-13 -3t-17 -2.5t-20 -1q-56 0 -97 39.5t-41 95.5q0 57 42.5 97.5t105.5 40.5z" />
    <glyph glyph-name="kcommaaccent" unicode="&#x137;" horiz-adv-x="1001" 
d="M123 39v1356q0 15 12 27t27 12h174q15 0 27 -12t12 -27v-887l282 287q28 24 52 24h186q26 0 34.5 -21t-7.5 -38l-306 -311l365 -392q16 -17 7.5 -37t-34.5 -20h-221q-23 0 -35 16l-323 369v-346q0 -15 -12 -27t-27 -12h-174q-15 0 -27 12t-12 27zM532 -186
q67 0 118.5 -53t51.5 -167q0 -207 -184 -370q-27 -20 -47 2l-31 29q-9 11 -7 24.5t13 22.5q13 9 31 26t45 49t45 78t19 96l-4 -1q-3 -1 -9 -2.5t-13.5 -3t-17.5 -2.5t-20 -1q-56 0 -96.5 39.5t-40.5 95.5q0 57 42.5 97.5t104.5 40.5z" />
    <glyph glyph-name="kgreenlandic" unicode="&#x138;" horiz-adv-x="1009" 
d="M123 39v741q0 15 12 27t27 12h174q15 0 27 -12t12 -27v-325l309 340q21 24 51 24h187q25 0 33.5 -21t-7.5 -38l-340 -361l373 -342q16 -17 7.5 -37t-34.5 -20h-221q-14 0 -35 16l-323 316v-293q0 -15 -12 -27t-27 -12h-174q-15 0 -27 12t-12 27z" />
    <glyph glyph-name="Lacute" unicode="&#x139;" horiz-adv-x="1034" 
d="M186 39v1356q0 16 11 27.5t28 11.5h189q15 0 27 -12t12 -27v-1149h522q17 0 28 -11.5t11 -27.5v-168q0 -16 -11 -27.5t-28 -11.5h-750q-17 0 -28 11.5t-11 27.5zM174 1573q-38 -16 -51 14l-37 72q-5 13 -1 23.5t13 15.5l336 200q37 23 53 -6l58 -106q10 -19 5.5 -34
t-18.5 -21z" />
    <glyph glyph-name="lacute" unicode="&#x13a;" horiz-adv-x="495" 
d="M123 39v1356q0 15 12 27t27 12h172q15 0 27 -12t12 -27v-1356q0 -15 -12 -27t-27 -12h-172q-15 0 -27 12t-12 27zM100 1526q-38 -15 -53 12l-35 74q-11 23 13 39l333 198q13 10 30 8.5t24 -14.5l59 -104q18 -41 -12 -56z" />
    <glyph glyph-name="Lcommaaccent" unicode="&#x13b;" horiz-adv-x="1036" 
d="M186 39v1356q0 16 11 27.5t28 11.5h189q15 0 27 -12t12 -27v-1149h522q17 0 28 -11.5t11 -27.5v-168q0 -16 -11 -27.5t-28 -11.5h-750q-17 0 -28 11.5t-11 27.5zM598 -186q67 0 118.5 -53t51.5 -167q0 -207 -184 -370q-27 -20 -47 2l-31 29q-9 11 -7 24.5t13 22.5
q13 9 30.5 26t44.5 49t45 78t19 96l-3 -1l-10 -2.5t-13 -3t-17 -2.5t-20 -1q-56 0 -96.5 39.5t-40.5 95.5q0 57 42.5 97.5t104.5 40.5z" />
    <glyph glyph-name="lcommaaccent" unicode="&#x13c;" horiz-adv-x="495" 
d="M123 39v1356q0 15 12 27t27 12h172q15 0 27 -12t12 -27v-1356q0 -15 -12 -27t-27 -12h-172q-15 0 -27 12t-12 27zM240 -186q67 0 118.5 -53t51.5 -167q0 -206 -185 -370q-27 -20 -47 2l-31 29q-9 11 -6.5 24.5t13.5 22.5q13 9 30.5 26t44.5 49t45 78t19 96l-3 -1
l-10 -2.5t-13.5 -3t-17.5 -2.5t-20 -1q-56 0 -96.5 39.5t-40.5 95.5q0 57 42.5 97.5t105.5 40.5z" />
    <glyph glyph-name="Lcaron" unicode="&#x13d;" horiz-adv-x="1034" 
d="M186 39v1356q0 16 11 27.5t28 11.5h189q15 0 27 -12t12 -27v-1149h522q17 0 28 -11.5t11 -27.5v-168q0 -16 -11 -27.5t-28 -11.5h-750q-17 0 -28 11.5t-11 27.5zM813 1454q67 0 118.5 -52.5t51.5 -166.5q0 -208 -184 -371q-27 -20 -47 2l-31 29q-9 11 -7 24.5t13 22.5
q13 9 31 26t44.5 49t44.5 78.5t19 96.5l-4 -1q-3 -1 -9 -2.5t-13 -3t-17 -2.5t-20 -1q-56 0 -96.5 39.5t-40.5 95.5q0 57 42 97t105 40z" />
    <glyph glyph-name="lcaron" unicode="&#x13e;" horiz-adv-x="557" 
d="M123 39v1356q0 15 12 27t27 12h172q15 0 27 -12t12 -27v-1356q0 -15 -12 -27t-27 -12h-172q-15 0 -27 12t-12 27zM651 866l-28 29q-10 11 -8.5 24.5t12.5 22.5q13 9 31 26t45 49t45 78.5t18 96.5l-4 -1q-3 -1 -9 -2.5t-13 -3t-16.5 -2.5t-18.5 -1q-57 0 -97.5 39
t-40.5 96t42 97t104 40q67 0 118.5 -52.5t51.5 -166.5q0 -207 -185 -371q-26 -19 -47 2z" />
    <glyph glyph-name="Ldot" unicode="&#x13f;" horiz-adv-x="1181" 
d="M186 39v1356q0 16 11 27.5t28 11.5h189q15 0 27 -12t12 -27v-1149h522q17 0 28 -11.5t11 -27.5v-168q0 -16 -11 -27.5t-28 -11.5h-750q-17 0 -28 11.5t-11 27.5zM985 582q-61 0 -104 43t-43 104q0 62 43 105t104 43t104.5 -43.5t43.5 -104.5t-43 -104t-105 -43z" />
    <glyph glyph-name="ldot" unicode="&#x140;" horiz-adv-x="808" 
d="M123 39v1356q0 15 12 27t27 12h172q15 0 27 -12t12 -27v-1356q0 -15 -12 -27t-27 -12h-172q-15 0 -27 12t-12 27zM651 590q-61 0 -104 43t-43 104q0 62 43 105t104 43t104.5 -43.5t43.5 -104.5t-43 -104t-105 -43z" />
    <glyph glyph-name="Lslash" unicode="&#x141;" horiz-adv-x="1060" 
d="M213 39v588l-47 -25q-12 -8 -28 -3.5t-23 17.5l-15 25q-8 12 -4 28t17 23l100 56v647q0 16 11 27.5t28 11.5h188q15 0 27 -12t12 -27v-492l178 105q15 7 30.5 2.5t23.5 -17.5l14 -26q8 -12 3.5 -27.5t-17.5 -24.5l-232 -135v-534h522q17 0 28 -11.5t11 -27.5v-168
q0 -16 -11 -27.5t-28 -11.5h-749q-17 0 -28 11.5t-11 27.5z" />
    <glyph glyph-name="lslash" unicode="&#x142;" horiz-adv-x="526" 
d="M152 39v598l-70 -39q-34 -19 -53 14l-13 25q-8 12 -4 28t17 23l123 70v637q0 15 11.5 27t26.5 12h172q15 0 27 -12t12 -27v-490l129 76q15 9 30.5 4.5t23.5 -18.5l14 -27q8 -12 3.5 -28t-17.5 -23l-183 -107v-743q0 -15 -12 -27t-27 -12h-172q-15 0 -26.5 12t-11.5 27z
" />
    <glyph glyph-name="Nacute" unicode="&#x143;" horiz-adv-x="1583" 
d="M186 39v1378q0 15 12 26t27 11h51l852 -905h2v846q0 16 11 27.5t28 11.5h189q15 0 27 -12t12 -27v-1379q0 -15 -12 -25.5t-27 -10.5h-49l-856 940h-2v-881q0 -16 -11 -27.5t-28 -11.5h-187q-15 0 -27 12t-12 27zM653 1573q-38 -16 -51 14l-37 72q-5 13 -0.5 23.5
t13.5 15.5l335 200q38 23 54 -6l57 -106q10 -19 6 -34t-18 -21z" />
    <glyph glyph-name="nacute" unicode="&#x144;" horiz-adv-x="1062" 
d="M123 39v741q0 17 11.5 28t27.5 11h78q24 0 34 -24l29 -76q16 17 37.5 34t58 38.5t87.5 35t106 13.5q94 0 166 -33.5t114 -91.5t63 -129t21 -154v-393q0 -15 -11.5 -27t-26.5 -12h-168q-17 0 -28 11.5t-11 27.5v405q0 80 -40.5 127t-113.5 47q-72 0 -123 -40t-69 -89v-450
q0 -22 -11.5 -30.5t-40.5 -8.5h-151q-15 0 -27 12t-12 27zM406 1081q-38 -15 -54 13l-35 73q-11 23 13 39l334 199q13 10 29.5 8.5t23.5 -14.5l59 -105q18 -40 -12 -55z" />
    <glyph glyph-name="Ncommaaccent" unicode="&#x145;" horiz-adv-x="1583" 
d="M186 39v1378q0 15 12 26t27 11h51l852 -905h2v846q0 16 11 27.5t28 11.5h189q15 0 27 -12t12 -27v-1379q0 -15 -12 -25.5t-27 -10.5h-49l-856 940h-2v-881q0 -16 -11 -27.5t-28 -11.5h-187q-15 0 -27 12t-12 27zM817 -186q67 0 118.5 -53t51.5 -167q0 -207 -184 -370
q-27 -20 -47 2l-31 29q-9 11 -7 24.5t13 22.5q13 9 30.5 26t44.5 49t45 78t19 96l-4 -1q-3 -1 -9 -2.5t-13 -3t-17 -2.5t-20 -1q-56 0 -96.5 39.5t-40.5 95.5q0 57 42.5 97.5t104.5 40.5z" />
    <glyph glyph-name="ncommaaccent" unicode="&#x146;" horiz-adv-x="1064" 
d="M123 39v741q0 17 11.5 28t27.5 11h78q24 0 34 -24l29 -76q16 17 37.5 34t58 38.5t87.5 35t106 13.5q94 0 166 -33.5t114 -91.5t63 -129t21 -154v-393q0 -15 -11.5 -27t-26.5 -12h-168q-17 0 -28 11.5t-11 27.5v405q0 80 -40.5 127t-113.5 47q-72 0 -123 -40t-69 -89v-450
q0 -22 -11.5 -30.5t-40.5 -8.5h-151q-15 0 -27 12t-12 27zM530 -186q67 0 118.5 -53t51.5 -167q0 -207 -184 -370q-27 -20 -47 2l-31 29q-9 11 -7 24.5t13 22.5q13 9 31 26t45 49t45 78t19 96l-4 -1q-3 -1 -9 -2.5t-13.5 -3t-17.5 -2.5t-20 -1q-56 0 -96.5 39.5t-40.5 95.5
q0 57 42.5 97.5t104.5 40.5z" />
    <glyph glyph-name="Ncaron" unicode="&#x147;" horiz-adv-x="1583" 
d="M186 39v1378q0 15 12 26t27 11h51l852 -905h2v846q0 16 11 27.5t28 11.5h189q15 0 27 -12t12 -27v-1379q0 -15 -12 -25.5t-27 -10.5h-49l-856 940h-2v-881q0 -16 -11 -27.5t-28 -11.5h-187q-15 0 -27 12t-12 27zM766 1565l-266 207q-27 18 -13 38l54 76q9 13 18.5 14.5
t28.5 -8.5l198 -125l201 125q19 10 28.5 8.5t18.5 -14.5l53 -76q6 -11 2 -21t-14 -17l-266 -207q-20 -17 -43 0z" />
    <glyph glyph-name="ncaron" unicode="&#x148;" horiz-adv-x="1062" 
d="M123 39v741q0 17 11.5 28t27.5 11h78q24 0 34 -24l29 -76q16 17 37.5 34t58 38.5t87.5 35t106 13.5q94 0 166 -33.5t114 -91.5t63 -129t21 -154v-393q0 -15 -11.5 -27t-26.5 -12h-168q-17 0 -28 11.5t-11 27.5v405q0 80 -40.5 127t-113.5 47q-72 0 -123 -40t-69 -89v-450
q0 -22 -11.5 -30.5t-40.5 -8.5h-151q-15 0 -27 12t-12 27zM530 1073l-266 207q-10 7 -14 17.5t2 21.5l53 76q9 13 18.5 14.5t28.5 -8.5l199 -125l201 125q19 10 28.5 8.5t18.5 -14.5l53 -76q6 -11 2 -21.5t-14 -17.5l-267 -207q-20 -17 -43 0z" />
    <glyph glyph-name="napostrophe" unicode="&#x149;" horiz-adv-x="1062" 
d="M123 39v741q0 17 11.5 28t27.5 11h78q24 0 34 -24l29 -76q16 17 37.5 34t58 38.5t87.5 35t106 13.5q94 0 166 -33.5t114 -91.5t63 -129t21 -154v-393q0 -15 -11.5 -27t-26.5 -12h-168q-17 0 -28 11.5t-11 27.5v405q0 80 -40.5 127t-113.5 47q-72 0 -123 -40t-69 -89v-450
q0 -22 -11.5 -30.5t-40.5 -8.5h-151q-15 0 -27 12t-12 27zM-174 1454q67 0 118.5 -52.5t51.5 -166.5q0 -208 -184 -371q-28 -21 -48 2l-30 29q-9 11 -7 24.5t13 22.5q13 9 31 26t44.5 49t44.5 78.5t19 96.5l-3 -1l-10 -2.5t-13 -3t-17 -2.5t-20 -1q-56 0 -97 39.5t-41 95.5
q0 57 42.5 97t105.5 40z" />
    <glyph glyph-name="Eng" unicode="&#x14a;" horiz-adv-x="1583" 
d="M186 39v1378q0 15 12 26t27 11h51l852 -905h2v846q0 16 11 27.5t28 11.5h189q15 0 27 -12t12 -27v-1616q0 -197 -106 -305.5t-275 -108.5q-75 0 -143 25.5t-99 54.5q-10 7 -12 22t4 25l68 131q6 12 21 15t28 -5q69 -41 121 -41q68 0 102.5 48.5t34.5 138.5v383l-688 758
h-2v-881q0 -16 -11 -27.5t-28 -11.5h-187q-15 0 -27 12t-12 27z" />
    <glyph glyph-name="eng" unicode="&#x14b;" horiz-adv-x="1062" 
d="M123 39v741q0 17 11.5 28t27.5 11h78q24 0 34 -24l29 -76q16 17 37.5 34t58 38.5t87.5 35t106 13.5q94 0 166 -33.5t114 -91.5t63 -129t21 -154v-653q0 -197 -106 -305.5t-275 -108.5q-75 0 -142.5 25.5t-98.5 54.5q-10 7 -12 22t4 25l67 131q6 12 21 15t28 -5
q69 -41 121 -41q69 0 108.5 49t39.5 138v653q0 80 -40.5 127t-113.5 47q-72 0 -123 -40t-69 -89v-438q0 -22 -11.5 -30.5t-40.5 -8.5h-151q-15 0 -27 12t-12 27z" />
    <glyph glyph-name="Omacron" unicode="&#x14c;" horiz-adv-x="1638" 
d="M84 715q0 101 26 197t73 177t114.5 149t148.5 115.5t176.5 74t196.5 26.5q151 0 287.5 -58t235 -157t156.5 -236t58 -288t-58 -287.5t-156.5 -234.5t-235 -155.5t-287.5 -57.5t-287.5 57.5t-234.5 155.5t-155.5 234.5t-57.5 287.5zM350 715q0 -193 138 -331t331 -138
q127 0 235.5 63t172 171t63.5 235t-63.5 236t-172 173t-235.5 64t-235 -64t-171 -173t-63 -236zM557 1655q-17 0 -28 11t-11 26v69q0 17 11 28t28 11h524q17 0 28 -11t11 -28v-69q0 -15 -11 -26t-28 -11h-524z" />
    <glyph glyph-name="omacron" unicode="&#x14d;" horiz-adv-x="958" 
d="M59 412q0 114 56.5 212.5t153.5 157t210 58.5t210 -58.5t153.5 -157t56.5 -212.5q0 -177 -123.5 -304.5t-296.5 -127.5t-296.5 127.5t-123.5 304.5zM283 412q0 -88 56.5 -149.5t139.5 -61.5q82 0 139.5 61.5t57.5 149.5q0 86 -57.5 146t-139.5 60q-83 0 -139.5 -59.5
t-56.5 -146.5zM217 1167q-17 0 -28 11t-11 26v70q0 17 11 28t28 11h524q17 0 28 -11t11 -28v-70q0 -15 -11 -26t-28 -11h-524z" />
    <glyph glyph-name="Obreve" unicode="&#x14e;" horiz-adv-x="1638" 
d="M84 715q0 101 26 197t73 177t114.5 149t148.5 115.5t176.5 74t196.5 26.5q151 0 287.5 -58t235 -157t156.5 -236t58 -288t-58 -287.5t-156.5 -234.5t-235 -155.5t-287.5 -57.5t-287.5 57.5t-234.5 155.5t-155.5 234.5t-57.5 287.5zM350 715q0 -193 138 -331t331 -138
q127 0 235.5 63t172 171t63.5 235t-63.5 236t-172 173t-235.5 64t-235 -64t-171 -173t-63 -236zM819 1569q-111 0 -191.5 68.5t-95.5 172.5q-3 18 7 30.5t30 12.5h76q27 0 35 -28q16 -48 53 -78.5t86 -30.5q44 0 81.5 32.5t53.5 76.5q3 13 13.5 20.5t21.5 7.5h80
q18 0 28.5 -12.5t8.5 -30.5q-17 -104 -97.5 -172.5t-189.5 -68.5z" />
    <glyph glyph-name="obreve" unicode="&#x14f;" horiz-adv-x="958" 
d="M59 412q0 114 56.5 212.5t153.5 157t210 58.5t210 -58.5t153.5 -157t56.5 -212.5q0 -177 -123.5 -304.5t-296.5 -127.5t-296.5 127.5t-123.5 304.5zM283 412q0 -88 56.5 -149.5t139.5 -61.5q82 0 139.5 61.5t57.5 149.5q0 86 -57.5 146t-139.5 60q-83 0 -139.5 -59.5
t-56.5 -146.5zM481 1081q-111 0 -191 69t-95 173q-3 19 6.5 32t29.5 13h76q13 0 22.5 -8.5t12.5 -20.5q15 -49 52 -78.5t87 -29.5q44 0 81.5 31.5t53.5 76.5q3 12 13.5 20.5t21.5 8.5h80q18 0 28.5 -13t8.5 -32q-17 -104 -97.5 -173t-189.5 -69z" />
    <glyph glyph-name="Ohungarumlaut" unicode="&#x150;" horiz-adv-x="1638" 
d="M84 715q0 101 26 197t73 177t114.5 149t148.5 115.5t176.5 74t196.5 26.5q151 0 287.5 -58t235 -157t156.5 -236t58 -288t-58 -287.5t-156.5 -234.5t-235 -155.5t-287.5 -57.5t-287.5 57.5t-234.5 155.5t-155.5 234.5t-57.5 287.5zM350 715q0 -193 138 -331t331 -138
q127 0 235.5 63t172 171t63.5 235t-63.5 236t-172 173t-235.5 64t-235 -64t-171 -173t-63 -236zM981 1573q-24 0 -34 11.5t-5 27.5l76 289q11 38 39 38h155q28 0 38.5 -16t-1.5 -35l-159 -284q-16 -31 -37 -31h-72zM641 1573q-24 0 -34 11.5t-5 27.5l76 289q11 38 39 38h155
q28 0 38 -15.5t-1 -35.5l-159 -284q-16 -31 -37 -31h-72z" />
    <glyph glyph-name="ohungarumlaut" unicode="&#x151;" horiz-adv-x="958" 
d="M59 412q0 114 56.5 212.5t153.5 157t210 58.5t210 -58.5t153.5 -157t56.5 -212.5q0 -177 -123.5 -304.5t-296.5 -127.5t-296.5 127.5t-123.5 304.5zM283 412q0 -88 56.5 -149.5t139.5 -61.5q82 0 139.5 61.5t57.5 149.5q0 86 -57.5 146t-139.5 60q-83 0 -139.5 -59.5
t-56.5 -146.5zM623 1067q-24 0 -34 11.5t-5 27.5l75 289q12 39 39 39h156q28 0 38.5 -16.5t-1.5 -35.5l-160 -284q-15 -31 -37 -31h-71zM283 1067q-24 0 -34 11.5t-5 27.5l75 289q12 39 39 39h156q28 0 38 -16t-1 -36l-160 -284q-15 -31 -37 -31h-71z" />
    <glyph glyph-name="OE" unicode="&#x152;" horiz-adv-x="1996" 
d="M84 715q0 101 26 197t73 177t114.5 149t148.5 115.5t176.5 74t196.5 26.5q49 0 99 -5t75 -10l25 -5h833q17 0 28 -11.5t11 -27.5v-168q0 -16 -11 -27.5t-28 -11.5h-606v-336h506q15 0 27 -12t12 -27v-170q0 -17 -11.5 -28t-27.5 -11h-506v-358h606q17 0 28 -11.5
t11 -27.5v-168q0 -16 -11 -27.5t-28 -11.5h-833q-115 -20 -199 -20q-151 0 -287.5 57.5t-234.5 155.5t-155.5 234.5t-57.5 287.5zM350 715q0 -127 63 -236t171 -173t235 -64q94 0 160 26v895q-82 29 -160 29q-127 0 -235 -65t-171 -175t-63 -237z" />
    <glyph glyph-name="oe" unicode="&#x153;" horiz-adv-x="1499" 
d="M59 414q0 114 56.5 212t153.5 156t210 58q84 0 160 -34.5t133 -94.5q116 129 295 129q159 0 271 -108t112 -273q0 -28 -4 -56q-1 -15 -13 -24.5t-26 -9.5h-522q8 -70 60.5 -125.5t133.5 -55.5q84 0 162 54q35 23 53 0l82 -97q24 -32 -2 -53q-53 -50 -131.5 -81
t-173.5 -31q-178 0 -297 129q-56 -61 -132 -95t-161 -34q-173 0 -296.5 128.5t-123.5 305.5zM903 512h307q-3 58 -46.5 97.5t-102.5 39.5q-61 0 -105.5 -39t-52.5 -98zM283 414q0 -88 56.5 -150.5t139.5 -62.5t140 62.5t57 150.5q0 86 -57 145t-140 59t-139.5 -59
t-56.5 -145z" />
    <glyph glyph-name="Racute" unicode="&#x154;" horiz-adv-x="1363" 
d="M186 39v1356q0 16 11 27.5t28 11.5h586q185 0 315.5 -129t130.5 -312q0 -138 -83 -248t-220 -165l281 -521q11 -20 0.5 -39.5t-35.5 -19.5h-215q-24 0 -33 18l-272 543h-227v-522q0 -15 -12 -27t-27 -12h-189q-17 0 -28 11.5t-11 27.5zM455 780h333q82 0 142.5 61.5
t60.5 147.5q0 81 -60.5 140t-142.5 59h-333v-408zM528 1573q-38 -16 -51 14l-37 72q-5 13 -0.5 23.5t13.5 15.5l335 200q38 23 54 -6l57 -106q10 -19 6 -34t-18 -21z" />
    <glyph glyph-name="racute" unicode="&#x155;" horiz-adv-x="698" 
d="M123 39v741q0 17 11.5 28t27.5 11h78q26 0 36 -26l29 -80q20 28 45 52.5t77 49.5t110 25q77 0 126 -23t31 -59l-76 -133q-8 -14 -21.5 -19.5t-25.5 0.5q-36 12 -59 12q-55 0 -93 -27t-52 -56v-496q0 -39 -48 -39h-157q-15 0 -27 12t-12 27zM221 1081q-38 -15 -53 13
l-35 73q-12 23 12 39l334 199q13 10 29.5 8.5t23.5 -14.5l60 -105q18 -40 -12 -55z" />
    <glyph glyph-name="Rcommaaccent" unicode="&#x156;" horiz-adv-x="1363" 
d="M186 39v1356q0 16 11 27.5t28 11.5h586q185 0 315.5 -129t130.5 -312q0 -138 -83 -248t-220 -165l281 -521q11 -20 0.5 -39.5t-35.5 -19.5h-215q-24 0 -33 18l-272 543h-227v-522q0 -15 -12 -27t-27 -12h-189q-17 0 -28 11.5t-11 27.5zM455 780h333q82 0 142.5 61.5
t60.5 147.5q0 81 -60.5 140t-142.5 59h-333v-408zM692 -186q67 0 118.5 -53t51.5 -167q0 -207 -184 -370q-27 -20 -47 2l-31 29q-9 11 -7 24.5t13 22.5q13 9 30.5 26t44.5 49t45 78t19 96l-3 -1l-10 -2.5t-13 -3t-17 -2.5t-20 -1q-56 0 -96.5 39.5t-40.5 95.5
q0 57 42.5 97.5t104.5 40.5z" />
    <glyph glyph-name="rcommaaccent" unicode="&#x157;" horiz-adv-x="698" 
d="M123 39v741q0 17 11.5 28t27.5 11h78q26 0 36 -26l29 -80q20 28 45 52.5t77 49.5t110 25q77 0 126 -23t31 -59l-76 -133q-8 -14 -21.5 -19.5t-25.5 0.5q-36 12 -59 12q-55 0 -93 -27t-52 -56v-496q0 -39 -48 -39h-157q-15 0 -27 12t-12 27zM231 -186q67 0 118.5 -53
t51.5 -167q0 -207 -184 -370q-27 -20 -47 2l-31 29q-9 11 -7 24.5t13 22.5q13 9 31 26t45 49t45 78t19 96l-3 -1l-10 -2.5t-13.5 -3t-17.5 -2.5t-20 -1q-56 0 -96.5 39.5t-40.5 95.5q0 57 42.5 97.5t104.5 40.5z" />
    <glyph glyph-name="Rcaron" unicode="&#x158;" horiz-adv-x="1363" 
d="M186 39v1356q0 16 11 27.5t28 11.5h586q185 0 315.5 -129t130.5 -312q0 -138 -83 -248t-220 -165l281 -521q11 -20 0.5 -39.5t-35.5 -19.5h-215q-24 0 -33 18l-272 543h-227v-522q0 -15 -12 -27t-27 -12h-189q-17 0 -28 11.5t-11 27.5zM455 780h333q82 0 142.5 61.5
t60.5 147.5q0 81 -60.5 140t-142.5 59h-333v-408zM641 1565l-266 207q-27 18 -13 38l54 76q9 13 18.5 14.5t28.5 -8.5l199 -125l200 125q19 10 28.5 8.5t18.5 -14.5l54 -76q14 -20 -13 -38l-266 -207q-20 -17 -43 0z" />
    <glyph glyph-name="rcaron" unicode="&#x159;" horiz-adv-x="698" 
d="M123 39v741q0 17 11.5 28t27.5 11h78q26 0 36 -26l29 -80q20 28 45 52.5t77 49.5t110 25q77 0 126 -23t31 -59l-76 -133q-8 -14 -21.5 -19.5t-25.5 0.5q-36 12 -59 12q-55 0 -93 -27t-52 -56v-496q0 -39 -48 -39h-157q-15 0 -27 12t-12 27zM336 1073l-266 207
q-10 7 -14.5 17.5t1.5 21.5l54 76q9 13 18.5 14.5t28.5 -8.5l198 -125l201 125q19 10 28.5 8.5t18.5 -14.5l53 -76q6 -11 2 -21.5t-14 -17.5l-266 -207q-20 -17 -43 0z" />
    <glyph glyph-name="Sacute" unicode="&#x15a;" horiz-adv-x="1110" 
d="M113 139q-16 16 -19 25.5t8 36.5l74 127q11 20 34 23t36 -9l10 -7q11 -7 24 -15.5t33 -20.5t41 -23t47 -22.5t51 -19.5t52 -13.5t51 -5.5q79 0 132.5 46t53.5 112q0 76 -63.5 133.5t-196.5 111.5q-81 33 -143 69.5t-120.5 89.5t-90 125t-31.5 159q0 71 27 138.5
t80.5 125.5t145 93.5t208.5 35.5q73 0 144.5 -16t125.5 -41.5t86 -44t54 -35.5q15 -9 19 -31t-7 -37l-78 -116q-13 -20 -32.5 -28t-39.5 3q-181 113 -284 113q-82 0 -131 -44.5t-49 -99.5q0 -71 57 -124t184 -105q48 -19 86.5 -37t84.5 -43.5t81 -52t69.5 -62.5t57 -75
t36 -88.5t13.5 -104.5q0 -165 -131 -285t-340 -120q-90 0 -171 18.5t-137.5 47.5t-88 51t-53.5 42zM416 1573q-38 -16 -51 14l-37 72q-5 13 -1 23.5t13 15.5l336 200q37 23 53 -6l57 -106q10 -19 6 -34t-18 -21z" />
    <glyph glyph-name="sacute" unicode="&#x15b;" horiz-adv-x="745" 
d="M90 55q-24 20 -12 43l55 111q6 15 20 18.5t27 -4.5q93 -49 187 -49q69 0 69 51q0 28 -28 49.5t-109 53.5q-119 46 -175 111.5t-56 158.5q0 102 76.5 172t224.5 70q157 0 252 -64q14 -9 19.5 -24.5t-1.5 -30.5l-51 -105q-7 -13 -22 -16t-27 2q-92 43 -170 43
q-70 0 -70 -47q0 -28 39 -49q14 -6 74 -31q52 -20 90 -38t75 -43.5t60 -54t37 -67.5t14 -86q0 -105 -88 -177t-238 -72q-92 0 -162.5 22.5t-109.5 52.5zM236 1081q-38 -15 -54 13l-35 73q-11 23 13 39l334 199q13 10 29.5 8.5t23.5 -14.5l59 -105q18 -40 -12 -55z" />
    <glyph glyph-name="Scircumflex" unicode="&#x15c;" horiz-adv-x="1110" 
d="M113 139q-16 16 -19 25.5t8 36.5l74 127q11 20 34 23t36 -9l10 -7q11 -7 24 -15.5t33 -20.5t41 -23t47 -22.5t51 -19.5t52 -13.5t51 -5.5q79 0 132.5 46t53.5 112q0 76 -63.5 133.5t-196.5 111.5q-81 33 -143 69.5t-120.5 89.5t-90 125t-31.5 159q0 71 27 138.5
t80.5 125.5t145 93.5t208.5 35.5q73 0 144.5 -16t125.5 -41.5t86 -44t54 -35.5q15 -9 19 -31t-7 -37l-78 -116q-13 -20 -32.5 -28t-39.5 3q-181 113 -284 113q-82 0 -131 -44.5t-49 -99.5q0 -71 57 -124t184 -105q48 -19 86.5 -37t84.5 -43.5t81 -52t69.5 -62.5t57 -75
t36 -88.5t13.5 -104.5q0 -165 -131 -285t-340 -120q-90 0 -171 18.5t-137.5 47.5t-88 51t-53.5 42zM354 1569q-19 -10 -28.5 -8.5t-18.5 14.5l-53 76q-6 11 -2 21.5t14 17.5l266 206q20 17 43 0l267 -206q10 -7 14 -17.5t-2 -21.5l-53 -76q-9 -13 -18.5 -14.5t-28.5 8.5
l-199 125z" />
    <glyph glyph-name="scircumflex" unicode="&#x15d;" horiz-adv-x="745" 
d="M90 55q-24 20 -12 43l55 111q6 15 20 18.5t27 -4.5q93 -49 187 -49q69 0 69 51q0 28 -28 49.5t-109 53.5q-119 46 -175 111.5t-56 158.5q0 102 76.5 172t224.5 70q157 0 252 -64q14 -9 19.5 -24.5t-1.5 -30.5l-51 -105q-7 -13 -22 -16t-27 2q-92 43 -170 43
q-70 0 -70 -47q0 -28 39 -49q14 -6 74 -31q52 -20 90 -38t75 -43.5t60 -54t37 -67.5t14 -86q0 -105 -88 -177t-238 -72q-92 0 -162.5 22.5t-109.5 52.5zM123 1083l-53 76q-6 11 -2 21.5t14 17.5l266 207q20 17 43 0l266 -207q10 -7 14.5 -17.5t-1.5 -21.5l-54 -76
q-9 -13 -18.5 -14.5t-28.5 8.5l-198 125l-201 -125q-19 -10 -28.5 -8.5t-18.5 14.5z" />
    <glyph glyph-name="Scedilla" unicode="&#x15e;" horiz-adv-x="1112" 
d="M113 139q-16 16 -19 25.5t8 36.5l74 127q11 20 34 23t36 -9l10 -7q11 -7 24 -15.5t33 -20.5t41 -23t47 -22.5t51 -19.5t52 -13.5t51 -5.5q79 0 132.5 46t53.5 112q0 76 -63.5 133.5t-196.5 111.5q-81 33 -143 69.5t-120.5 89.5t-90 125t-31.5 159q0 71 27 138.5
t80.5 125.5t145 93.5t208.5 35.5q73 0 144.5 -16t125.5 -41.5t86 -44t54 -35.5q15 -9 19 -31t-7 -37l-78 -116q-13 -20 -32.5 -28t-39.5 3q-181 113 -284 113q-82 0 -131 -44.5t-49 -99.5q0 -71 57 -124t184 -105q48 -19 86.5 -37t84.5 -43.5t81 -52t69.5 -62.5t57 -75
t36 -88.5t13.5 -104.5q0 -163 -128 -282.5t-333 -122.5v-86q93 -12 146 -68t53 -143q0 -89 -63 -152t-154 -63q-45 0 -87 19.5t-69 51.5q-12 14 -9.5 30t16.5 28l40 34q9 9 22 8t21 -10q21 -24 62 -24q30 0 51 22.5t21 53.5q0 39 -37 66.5t-113 33.5q-35 5 -35 37v172
q-119 19 -202 64t-123 85z" />
    <glyph glyph-name="scedilla" unicode="&#x15f;" horiz-adv-x="749" 
d="M92 55q-24 20 -12 43l55 111q6 15 20 18.5t27 -4.5q93 -49 187 -49q69 0 69 51q0 28 -28 49.5t-109 53.5q-119 46 -175 111.5t-56 158.5q0 102 76.5 172t224.5 70q157 0 252 -64q14 -9 19.5 -24.5t-1.5 -30.5l-51 -105q-7 -13 -22 -16t-27 2q-92 43 -170 43
q-70 0 -70 -47q0 -28 39 -49q14 -6 74 -31q52 -20 90 -38t75 -43.5t60 -54t37 -67.5t14 -86q0 -101 -81 -171t-220 -76v-88q93 -12 146 -68t53 -143q0 -89 -63 -152t-154 -63q-45 0 -87 19.5t-69 51.5q-12 14 -10 30t16 28l41 34q9 9 22 8t21 -10q21 -24 62 -24
q30 0 50.5 22.5t20.5 53.5q0 39 -37 66.5t-112 33.5q-35 5 -35 37v172q-103 19 -162 65z" />
    <glyph glyph-name="Scaron" unicode="&#x160;" horiz-adv-x="1110" 
d="M113 139q-16 16 -19 25.5t8 36.5l74 127q11 20 34 23t36 -9l10 -7q11 -7 24 -15.5t33 -20.5t41 -23t47 -22.5t51 -19.5t52 -13.5t51 -5.5q79 0 132.5 46t53.5 112q0 76 -63.5 133.5t-196.5 111.5q-81 33 -143 69.5t-120.5 89.5t-90 125t-31.5 159q0 71 27 138.5
t80.5 125.5t145 93.5t208.5 35.5q73 0 144.5 -16t125.5 -41.5t86 -44t54 -35.5q15 -9 19 -31t-7 -37l-78 -116q-13 -20 -32.5 -28t-39.5 3q-181 113 -284 113q-82 0 -131 -44.5t-49 -99.5q0 -71 57 -124t184 -105q48 -19 86.5 -37t84.5 -43.5t81 -52t69.5 -62.5t57 -75
t36 -88.5t13.5 -104.5q0 -165 -131 -285t-340 -120q-90 0 -171 18.5t-137.5 47.5t-88 51t-53.5 42zM535 1565l-267 207q-10 7 -14 17t2 21l53 76q9 13 18.5 14.5t28.5 -8.5l199 -125l201 125q19 10 28.5 8.5t18.5 -14.5l53 -76q6 -11 2 -21t-14 -17l-266 -207q-20 -17 -43 0
z" />
    <glyph glyph-name="scaron" unicode="&#x161;" horiz-adv-x="745" 
d="M90 55q-24 20 -12 43l55 111q6 15 20 18.5t27 -4.5q93 -49 187 -49q69 0 69 51q0 28 -28 49.5t-109 53.5q-119 46 -175 111.5t-56 158.5q0 102 76.5 172t224.5 70q157 0 252 -64q14 -9 19.5 -24.5t-1.5 -30.5l-51 -105q-7 -13 -22 -16t-27 2q-92 43 -170 43
q-70 0 -70 -47q0 -28 39 -49q14 -6 74 -31q52 -20 90 -38t75 -43.5t60 -54t37 -67.5t14 -86q0 -105 -88 -177t-238 -72q-92 0 -162.5 22.5t-109.5 52.5zM358 1073l-266 207q-10 7 -14 17.5t2 21.5l53 76q9 13 18.5 14.5t28.5 -8.5l199 -125l201 125q19 10 28.5 8.5
t18.5 -14.5l53 -76q6 -11 2 -21.5t-14 -17.5l-267 -207q-20 -17 -43 0z" />
    <glyph glyph-name="Tcommaaccent" unicode="&#x162;" horiz-adv-x="1026" 
d="M379 39v1149h-313q-17 0 -28 11.5t-11 27.5v168q0 16 11 27.5t28 11.5h895q17 0 27.5 -11.5t10.5 -27.5v-168q0 -16 -10.5 -27.5t-27.5 -11.5h-314v-1149q0 -15 -12 -27t-27 -12h-190q-15 0 -27 12t-12 27zM502 -186q67 0 118.5 -53t51.5 -167q0 -206 -185 -370
q-27 -20 -47 2l-30 29q-9 11 -7 24.5t13 22.5q13 9 30.5 26t44.5 49t45 78t19 96l-3 -1l-10 -2.5t-13 -3t-17 -2.5t-20 -1q-56 0 -97 39.5t-41 95.5q0 57 42.5 97.5t105.5 40.5z" />
    <glyph glyph-name="tcommaaccent" unicode="&#x163;" horiz-adv-x="708" 
d="M166 244v360h-70q-15 0 -26 12t-11 27v137q0 17 11 28t26 11h70v228q0 15 12 26.5t27 11.5l168 2q15 0 26 -11.5t11 -26.5v-230h180q17 0 28 -11t11 -28v-137q0 -16 -11 -27.5t-28 -11.5h-180v-328q0 -39 16.5 -52t46.5 -13q37 0 100 22q35 12 45 -22l41 -129
q6 -15 -0.5 -29t-21.5 -20q-7 -4 -44 -16t-96 -24.5t-104 -12.5q-227 0 -227 264zM395 -186q67 0 118.5 -53t51.5 -167q0 -207 -184 -370q-27 -20 -47 2l-31 29q-9 11 -7 24.5t13 22.5q13 9 31 26t45 49t45 78t19 96l-3 -1l-10 -2.5t-13.5 -3t-17.5 -2.5t-20 -1
q-56 0 -96.5 39.5t-40.5 95.5q0 57 42.5 97.5t104.5 40.5z" />
    <glyph glyph-name="Tcaron" unicode="&#x164;" horiz-adv-x="1026" 
d="M379 39v1149h-313q-17 0 -28 11.5t-11 27.5v168q0 16 11 27.5t28 11.5h895q17 0 27.5 -11.5t10.5 -27.5v-168q0 -16 -10.5 -27.5t-27.5 -11.5h-314v-1149q0 -15 -12 -27t-27 -12h-190q-15 0 -27 12t-12 27zM489 1565l-266 207q-10 7 -14 17t2 21l53 76q9 13 18.5 14.5
t28.5 -8.5l199 -125l201 125q19 10 28.5 8.5t18.5 -14.5l53 -76q6 -11 2 -21t-14 -17l-267 -207q-20 -17 -43 0z" />
    <glyph glyph-name="tcaron" unicode="&#x165;" horiz-adv-x="706" 
d="M166 244v360h-70q-15 0 -26 12t-11 27v137q0 17 11 28t26 11h70v228q0 15 12 26.5t27 11.5l168 2q15 0 26 -11.5t11 -26.5v-230h180q17 0 28 -11t11 -28v-137q0 -16 -11 -27.5t-28 -11.5h-180v-328q0 -39 16.5 -52t46.5 -13q37 0 100 22q35 12 45 -22l41 -129
q6 -15 -0.5 -29t-21.5 -20q-7 -4 -44 -16t-96 -24.5t-104 -12.5q-227 0 -227 264zM815 866l-29 29q-10 11 -8 24.5t13 22.5q13 9 31 26t45 49t45 78.5t18 96.5l-4 -1q-3 -1 -9 -2.5t-13.5 -3t-17 -2.5t-18.5 -1q-57 0 -97 39t-40 96t42 97t104 40q67 0 118.5 -52.5
t51.5 -166.5q0 -207 -185 -371q-26 -19 -47 2z" />
    <glyph glyph-name="Tbar" unicode="&#x166;" horiz-adv-x="1026" 
d="M379 39v557h-193q-15 0 -25.5 12t-10.5 27v27q0 15 10.5 26.5t25.5 11.5h193v488h-313q-17 0 -28 11.5t-11 27.5v168q0 16 11 27.5t28 11.5h895q17 0 27.5 -11.5t10.5 -27.5v-168q0 -16 -10.5 -27.5t-27.5 -11.5h-314v-488h201q17 0 28 -11.5t11 -26.5v-29q0 -15 -11 -26
t-28 -11h-201v-557q0 -15 -12 -27t-27 -12h-190q-15 0 -27 12t-12 27z" />
    <glyph glyph-name="tbar" unicode="&#x167;" horiz-adv-x="706" 
d="M166 244v104h-64q-15 0 -25.5 12t-10.5 27v27q0 15 10.5 27t25.5 12h64v151h-70q-15 0 -26 12t-11 27v137q0 17 11 28t26 11h70v228q0 15 12 26.5t27 11.5l168 2q15 0 26 -11.5t11 -26.5v-230h180q17 0 28 -11t11 -28v-137q0 -16 -11 -27.5t-28 -11.5h-180v-151h165
q17 0 28 -11.5t11 -27.5v-29q0 -15 -11 -26t-28 -11h-165v-69q0 -39 17 -52.5t46 -13.5q43 0 100 20q35 12 45 -22l41 -129q5 -15 -1 -29t-21 -20q-7 -4 -44 -16t-96 -24.5t-104 -12.5q-227 0 -227 264z" />
    <glyph glyph-name="Utilde" unicode="&#x168;" horiz-adv-x="1476" 
d="M168 543v852q0 15 12 27t27 12h194q17 0 28 -11.5t11 -27.5v-838q0 -133 83 -222t214 -89t215 89t84 220v840q0 16 11 27.5t28 11.5h195q15 0 27 -12t12 -27v-852q0 -115 -44 -219t-120 -179.5t-182.5 -120t-225.5 -44.5q-158 0 -289 75.5t-205.5 204.5t-74.5 283z
M494 1616l-60 43q-10 7 -13.5 22t1.5 25q12 23 18 33.5t29 41.5t43.5 48.5t54 33t68.5 15.5q36 0 68 -17.5t52 -39t46.5 -39t52.5 -17.5q24 0 43 19t28.5 39t26 31t35.5 -5l57 -41q27 -21 3 -63l-8 -13q-8 -14 -10.5 -18.5t-12 -19t-16 -21.5t-18 -20t-21 -20.5t-23.5 -17
t-27 -14.5t-29.5 -8.5t-33.5 -3.5q-36 0 -70 18t-56 39.5t-48.5 39.5t-48.5 18q-24 0 -43 -19t-27.5 -39.5t-24.5 -32.5t-36 3z" />
    <glyph glyph-name="utilde" unicode="&#x169;" horiz-adv-x="1030" 
d="M109 383v397q0 17 11.5 28t26.5 11h168q16 0 27.5 -11t11.5 -28v-403q0 -82 40 -129t110 -47q61 0 107.5 47t56.5 106v426q0 23 10 31t35 8h155q16 0 27.5 -11t11.5 -28v-741q0 -15 -12 -27t-27 -12h-75q-27 0 -39 31l-25 67q-2 -2 -15.5 -14.5t-20.5 -18.5t-24 -18.5
t-30.5 -20t-35 -17.5t-42.5 -15.5t-49 -9.5t-57 -4q-92 0 -160.5 33t-108 90.5t-58.5 127.5t-19 152zM272 1151l-59 43q-10 7 -13.5 22t1.5 25q12 23 18 33.5t29 41.5t43.5 48.5t54 33t68.5 15.5q36 0 68 -17.5t52 -39t46.5 -39t52.5 -17.5q24 0 43 19t28.5 39t26 31
t35.5 -5l57 -41q26 -20 2 -63q-1 -1 -8 -13.5t-10.5 -18t-12.5 -19t-15 -21.5t-17.5 -20.5t-21 -20t-23 -17t-27 -14.5t-30 -8.5t-33.5 -3.5q-36 0 -70 18t-56 39.5t-49 39.5t-49 18q-24 0 -43 -19t-27.5 -39.5t-24.5 -32.5t-36 3z" />
    <glyph glyph-name="Umacron" unicode="&#x16a;" horiz-adv-x="1476" 
d="M168 543v852q0 15 12 27t27 12h194q17 0 28 -11.5t11 -27.5v-838q0 -133 83 -222t214 -89t215 89t84 220v840q0 16 11 27.5t28 11.5h195q15 0 27 -12t12 -27v-852q0 -115 -44 -219t-120 -179.5t-182.5 -120t-225.5 -44.5q-158 0 -289 75.5t-205.5 204.5t-74.5 283z
M477 1655q-17 0 -28 11t-11 26v69q0 17 11 28t28 11h524q17 0 28 -11t11 -28v-69q0 -15 -11 -26t-28 -11h-524z" />
    <glyph glyph-name="umacron" unicode="&#x16b;" horiz-adv-x="1030" 
d="M109 383v397q0 17 11.5 28t26.5 11h168q16 0 27.5 -11t11.5 -28v-403q0 -82 40 -129t110 -47q61 0 107.5 47t56.5 106v426q0 23 10 31t35 8h155q16 0 27.5 -11t11.5 -28v-741q0 -15 -12 -27t-27 -12h-75q-27 0 -39 31l-25 67q-2 -2 -15.5 -14.5t-20.5 -18.5t-24 -18.5
t-30.5 -20t-35 -17.5t-42.5 -15.5t-49 -9.5t-57 -4q-92 0 -160.5 33t-108 90.5t-58.5 127.5t-19 152zM256 1167q-17 0 -28 11t-11 26v70q0 17 11 28t28 11h524q17 0 28 -11t11 -28v-70q0 -15 -11 -26t-28 -11h-524z" />
    <glyph glyph-name="Ubreve" unicode="&#x16c;" horiz-adv-x="1476" 
d="M168 543v852q0 15 12 27t27 12h194q17 0 28 -11.5t11 -27.5v-838q0 -133 83 -222t214 -89t215 89t84 220v840q0 16 11 27.5t28 11.5h195q15 0 27 -12t12 -27v-852q0 -115 -44 -219t-120 -179.5t-182.5 -120t-225.5 -44.5q-158 0 -289 75.5t-205.5 204.5t-74.5 283z
M741 1569q-111 0 -191 68.5t-95 172.5q-3 18 7 30.5t30 12.5h75q27 0 35 -28q16 -48 53 -78.5t86 -30.5q44 0 82 32.5t54 76.5q3 13 13 20.5t21 7.5h80q18 0 28.5 -12.5t8.5 -30.5q-17 -104 -97.5 -172.5t-189.5 -68.5z" />
    <glyph glyph-name="ubreve" unicode="&#x16d;" horiz-adv-x="1030" 
d="M109 383v397q0 17 11.5 28t26.5 11h168q16 0 27.5 -11t11.5 -28v-403q0 -82 40 -129t110 -47q61 0 107.5 47t56.5 106v426q0 23 10 31t35 8h155q16 0 27.5 -11t11.5 -28v-741q0 -15 -12 -27t-27 -12h-75q-27 0 -39 31l-25 67q-2 -2 -15.5 -14.5t-20.5 -18.5t-24 -18.5
t-30.5 -20t-35 -17.5t-42.5 -15.5t-49 -9.5t-57 -4q-92 0 -160.5 33t-108 90.5t-58.5 127.5t-19 152zM520 1081q-111 0 -191.5 69t-95.5 173q-3 19 7 32t30 13h76q13 0 22.5 -8.5t12.5 -20.5q15 -49 52 -78.5t87 -29.5q44 0 81.5 31.5t53.5 76.5q3 12 13.5 20.5t21.5 8.5h80
q18 0 28.5 -13t8.5 -32q-17 -104 -97.5 -173t-189.5 -69z" />
    <glyph glyph-name="Uring" unicode="&#x16e;" horiz-adv-x="1476" 
d="M168 543v852q0 15 12 27t27 12h194q17 0 28 -11.5t11 -27.5v-838q0 -133 83 -222t214 -89t215 89t84 220v840q0 16 11 27.5t28 11.5h195q15 0 27 -12t12 -27v-852q0 -115 -44 -219t-120 -179.5t-182.5 -120t-225.5 -44.5q-158 0 -289 75.5t-205.5 204.5t-74.5 283z
M741 1544q-97 0 -164 67.5t-67 164.5t67 164t164 67q96 0 164 -67.5t68 -163.5t-68 -164t-164 -68zM741 1673q39 0 69 31.5t30 71.5t-29.5 69t-69.5 29t-71 -29.5t-31 -68.5q0 -40 31 -71.5t71 -31.5z" />
    <glyph glyph-name="uring" unicode="&#x16f;" horiz-adv-x="1030" 
d="M109 383v397q0 17 11.5 28t26.5 11h168q16 0 27.5 -11t11.5 -28v-403q0 -82 40 -129t110 -47q61 0 107.5 47t56.5 106v426q0 23 10 31t35 8h155q16 0 27.5 -11t11.5 -28v-741q0 -15 -12 -27t-27 -12h-75q-27 0 -39 31l-25 67q-2 -2 -15.5 -14.5t-20.5 -18.5t-24 -18.5
t-30.5 -20t-35 -17.5t-42.5 -15.5t-49 -9.5t-57 -4q-92 0 -160.5 33t-108 90.5t-58.5 127.5t-19 152zM516 991q-97 0 -164 67.5t-67 164.5t67 164t164 67q96 0 164 -67.5t68 -163.5t-68 -164t-164 -68zM516 1120q39 0 68.5 31.5t29.5 71.5t-29 69t-69 29t-71 -29.5
t-31 -68.5q0 -40 31 -71.5t71 -31.5z" />
    <glyph glyph-name="Uhungarumlaut" unicode="&#x170;" horiz-adv-x="1476" 
d="M168 543v852q0 15 12 27t27 12h194q17 0 28 -11.5t11 -27.5v-838q0 -133 83 -222t214 -89t215 89t84 220v840q0 16 11 27.5t28 11.5h195q15 0 27 -12t12 -27v-852q0 -115 -44 -219t-120 -179.5t-182.5 -120t-225.5 -44.5q-158 0 -289 75.5t-205.5 204.5t-74.5 283z
M885 1573q-24 0 -34 11.5t-5 27.5l76 289q11 38 39 38h155q28 0 38.5 -16t-1.5 -35l-160 -284q-15 -31 -37 -31h-71zM545 1573q-24 0 -34 11.5t-5 27.5l76 289q11 38 39 38h155q28 0 38 -15.5t-1 -35.5l-160 -284q-15 -31 -37 -31h-71z" />
    <glyph glyph-name="uhungarumlaut" unicode="&#x171;" horiz-adv-x="1030" 
d="M109 383v397q0 17 11.5 28t26.5 11h168q16 0 27.5 -11t11.5 -28v-403q0 -82 40 -129t110 -47q61 0 107.5 47t56.5 106v426q0 23 10 31t35 8h155q16 0 27.5 -11t11.5 -28v-741q0 -15 -12 -27t-27 -12h-75q-27 0 -39 31l-25 67q-2 -2 -15.5 -14.5t-20.5 -18.5t-24 -18.5
t-30.5 -20t-35 -17.5t-42.5 -15.5t-49 -9.5t-57 -4q-92 0 -160.5 33t-108 90.5t-58.5 127.5t-19 152zM666 1067q-24 0 -34 11.5t-5 27.5l75 289q12 39 39 39h156q28 0 38.5 -16.5t-1.5 -35.5l-160 -284q-16 -31 -37 -31h-71zM326 1067q-24 0 -34 11.5t-5 27.5l75 289
q12 39 39 39h156q28 0 38 -16t-1 -36l-160 -284q-16 -31 -37 -31h-71z" />
    <glyph glyph-name="Uogonek" unicode="&#x172;" horiz-adv-x="1484" 
d="M172 543v852q0 15 12 27t27 12h195q17 0 27.5 -11.5t10.5 -27.5v-838q0 -133 83 -222t214 -89t215 89t84 220v840q0 16 11 27.5t28 11.5h195q15 0 27 -12t12 -27v-852q0 -223 -150 -383.5t-375 -177.5q-75 -88 -75 -179q0 -56 35.5 -93.5t99.5 -37.5q18 0 34.5 3t35.5 9
t24 7q17 4 29 -6t12 -29v-62q0 -26 -29 -38q-84 -21 -135 -21q-113 0 -186.5 57.5t-73.5 167.5q0 123 98 226q-211 29 -348 186t-137 371z" />
    <glyph glyph-name="uogonek" unicode="&#x173;" horiz-adv-x="1030" 
d="M109 383v397q0 17 11.5 28t26.5 11h168q16 0 27.5 -11t11.5 -28v-391q0 -82 40 -129t110 -47q61 0 107.5 47.5t56.5 106.5v413q0 23 10 31t35 8h155q16 0 27.5 -11t11.5 -28v-741q0 -15 -12 -27t-27 -12h-12q-92 -92 -92 -197q0 -56 35.5 -93.5t99.5 -37.5q18 0 34.5 3
t35.5 9t24 7q17 4 29 -6t12 -29v-62q0 -26 -28 -38q-84 -21 -136 -21q-113 0 -186.5 57.5t-73.5 167.5q0 45 14.5 89t34 73.5t42.5 54.5t36 35.5t19 14.5l-27 71q-2 -2 -15.5 -14.5t-20.5 -18.5t-24 -18.5t-30.5 -20t-35 -17.5t-42.5 -15.5t-49 -9.5t-57 -4q-92 0 -160.5 33
t-108 90.5t-58.5 127.5t-19 152z" />
    <glyph glyph-name="Wcircumflex" unicode="&#x174;" horiz-adv-x="1841" 
d="M446 8l-387 1376q-6 22 4.5 36t32.5 14h189q12 0 23 -9t14 -20l213 -817h8l325 844q7 22 35 22h37q28 0 35 -22l328 -844h8l209 817q3 11 13.5 20t22.5 9h189q22 0 32.5 -14t4.5 -36l-387 -1376q-3 -12 -14 -20t-23 -8h-33q-28 0 -35 22l-366 928h-11l-362 -928
q-11 -22 -35 -22h-33q-12 0 -23 8t-14 20zM721 1569q-19 -10 -28.5 -8.5t-18.5 14.5l-53 76q-6 11 -2 21.5t14 17.5l266 206q20 17 43 0l266 -206q10 -7 14.5 -17.5t-1.5 -21.5l-54 -76q-9 -13 -18.5 -14.5t-28.5 8.5l-198 125z" />
    <glyph glyph-name="wcircumflex" unicode="&#x175;" horiz-adv-x="1261" 
d="M293 2l-256 770q-9 20 2 33.5t33 13.5h147q10 0 22 -7t15 -17l123 -367h2l209 393q10 19 33 19h16q22 0 33 -19l207 -393h2l123 367q5 16 15.5 20t31.5 4h133q22 0 33 -13.5t4 -33.5l-256 -770q-7 -22 -37 -22h-8q-22 0 -33 18l-258 477h-2l-256 -477q-11 -18 -33 -18
h-10q-28 0 -35 22zM381 1083l-53 76q-6 11 -2 21.5t14 17.5l266 207q20 17 43 0l266 -207q10 -7 14.5 -17.5t-1.5 -21.5l-54 -76q-9 -13 -18.5 -14.5t-28.5 8.5l-198 125l-201 -125q-19 -10 -28.5 -8.5t-18.5 14.5z" />
    <glyph glyph-name="Ycircumflex" unicode="&#x176;" horiz-adv-x="1193" 
d="M461 39v651l-467 684q-12 20 -1.5 40t34.5 20h209q18 0 32 -19l328 -471l328 471q14 19 32 19h211q24 0 34.5 -20t-1.5 -40l-473 -682v-653q0 -15 -12 -27t-27 -12h-188q-17 0 -28 11.5t-11 27.5zM397 1569q-19 -10 -28.5 -8.5t-18.5 14.5l-53 76q-6 11 -2 21.5t14 17.5
l266 206q20 17 43 0l267 -206q10 -7 14 -17.5t-2 -21.5l-53 -76q-9 -13 -18.5 -14.5t-28.5 8.5l-199 125z" />
    <glyph glyph-name="ycircumflex" unicode="&#x177;" horiz-adv-x="948" 
d="M350 57l-334 709q-9 20 1.5 36.5t33.5 16.5h185q23 0 34 -22l207 -463h2l205 463q7 14 17.5 18t31.5 4h164q25 0 35.5 -16.5t-0.5 -36.5l-627 -1356q-12 -24 -35 -24h-176q-23 0 -34 16.5t-1 38.5zM229 1083l-53 76q-6 11 -2 21.5t14 17.5l267 207q20 17 43 0l266 -207
q10 -7 14 -17.5t-2 -21.5l-53 -76q-9 -13 -18.5 -14.5t-28.5 8.5l-199 125l-201 -125q-19 -10 -28.5 -8.5t-18.5 14.5z" />
    <glyph glyph-name="Ydieresis" unicode="&#x178;" horiz-adv-x="1193" 
d="M461 39v651l-467 684q-12 20 -1.5 40t34.5 20h209q18 0 32 -19l328 -471l328 471q14 19 32 19h211q24 0 34.5 -20t-1.5 -40l-473 -682v-653q0 -15 -12 -27t-27 -12h-188q-17 0 -28 11.5t-11 27.5zM848 1587q-54 0 -91.5 38.5t-37.5 92.5t37.5 91.5t91.5 37.5t92.5 -37.5
t38.5 -91.5t-38.5 -92.5t-92.5 -38.5zM342 1587q-54 0 -91.5 38.5t-37.5 92.5t37.5 91.5t91.5 37.5t92.5 -37.5t38.5 -91.5t-38.5 -92.5t-92.5 -38.5z" />
    <glyph glyph-name="Zacute" unicode="&#x179;" horiz-adv-x="1101" 
d="M51 39v37l611 1102v8h-512q-15 0 -27 12t-12 27v170q0 15 12 27t27 12h856q15 0 26.5 -12t11.5 -27v-27l-602 -1116v-4h523q17 0 28 -11.5t11 -27.5v-170q0 -16 -11 -27.5t-28 -11.5h-875q-15 0 -27 12t-12 27zM438 1573q-38 -16 -51 14l-37 72q-5 13 -1 23.5t13 15.5
l336 200q38 23 54 -6l57 -106q10 -19 6 -34t-18 -21z" />
    <glyph glyph-name="zacute" unicode="&#x17a;" horiz-adv-x="749" 
d="M61 39v20l291 537v4h-233q-15 0 -26 12t-11 27v141q0 17 11 28t26 11h540q24 0 35.5 -17.5t-0.5 -37.5l-297 -541v-6h221q17 0 28 -11t11 -28v-139q0 -16 -11 -27.5t-28 -11.5h-518q-15 0 -27 12t-12 27zM252 1081q-38 -15 -53 13l-35 73q-12 23 12 39l334 199
q13 10 29.5 8.5t23.5 -14.5l60 -105q8 -21 4 -35t-17 -20z" />
    <glyph glyph-name="Zdotaccent" unicode="&#x17b;" horiz-adv-x="1101" 
d="M51 39v37l611 1102v8h-512q-15 0 -27 12t-12 27v170q0 15 12 27t27 12h856q15 0 26.5 -12t11.5 -27v-27l-602 -1116v-4h523q17 0 28 -11.5t11 -27.5v-170q0 -16 -11 -27.5t-28 -11.5h-875q-15 0 -27 12t-12 27zM575 1599q-61 0 -104 43t-43 105q0 61 43 104t104 43
q62 0 105 -43t43 -104t-43.5 -104.5t-104.5 -43.5z" />
    <glyph glyph-name="zdotaccent" unicode="&#x17c;" horiz-adv-x="749" 
d="M61 39v20l291 537v4h-233q-15 0 -26 12t-11 27v141q0 17 11 28t26 11h540q24 0 35.5 -17.5t-0.5 -37.5l-297 -541v-6h221q17 0 28 -11t11 -28v-139q0 -16 -11 -27.5t-28 -11.5h-518q-15 0 -27 12t-12 27zM399 1098q-61 0 -104 43t-43 104q0 62 43 105t104 43t104.5 -43.5
t43.5 -104.5t-43 -104t-105 -43z" />
    <glyph glyph-name="Zcaron" unicode="&#x17d;" horiz-adv-x="1101" 
d="M51 39v37l611 1102v8h-512q-15 0 -27 12t-12 27v170q0 15 12 27t27 12h856q15 0 26.5 -12t11.5 -27v-27l-602 -1116v-4h523q17 0 28 -11.5t11 -27.5v-170q0 -16 -11 -27.5t-28 -11.5h-875q-15 0 -27 12t-12 27zM551 1565l-266 207q-27 18 -13 38l54 76q9 13 18.5 14.5
t28.5 -8.5l198 -125l201 125q19 10 28.5 8.5t18.5 -14.5l53 -76q6 -11 2 -21t-14 -17l-266 -207q-20 -17 -43 0z" />
    <glyph glyph-name="zcaron" unicode="&#x17e;" horiz-adv-x="749" 
d="M61 39v20l291 537v4h-233q-15 0 -26 12t-11 27v141q0 17 11 28t26 11h540q24 0 35.5 -17.5t-0.5 -37.5l-297 -541v-6h221q17 0 28 -11t11 -28v-139q0 -16 -11 -27.5t-28 -11.5h-518q-15 0 -27 12t-12 27zM369 1073l-267 207q-10 7 -14 17.5t2 21.5l53 76q9 13 18.5 14.5
t28.5 -8.5l199 -125l201 125q19 10 28.5 8.5t18.5 -14.5l53 -76q6 -11 2 -21.5t-14 -17.5l-266 -207q-20 -17 -43 0z" />
    <glyph glyph-name="florin" unicode="&#x192;" horiz-adv-x="759" 
d="M227 -221v827h-153q-17 0 -28 11.5t-11 27.5v135q0 17 11 28t28 11h153v223q0 195 109.5 303.5t286.5 108.5q130 0 227 -80q9 -9 12 -23.5t-4 -25.5l-76 -127q-9 -12 -23 -15t-26 5q-11 9 -46 22t-62 13q-60 0 -101 -46.5t-41 -136.5v-221h205q17 0 28 -11t11 -28v-135
q0 -16 -11 -27.5t-28 -11.5h-205v-829q0 -194 -110.5 -303t-286.5 -109q-130 0 -227 80q-9 9 -12 23.5t3 25.5l78 127q7 12 21.5 15t27.5 -5q8 -8 44 -21t63 -13q60 0 101.5 46t41.5 136z" />
    <glyph glyph-name="Aringacute" unicode="&#x1fa;" horiz-adv-x="1357" 
d="M492 1815l-37 71q-5 13 -1 23.5t13 15.5l336 201q37 23 53 -6l57 -107q10 -19 6 -34t-18 -21l-358 -158q-37 -15 -51 15zM35 0q-23 0 -33.5 16.5t-1.5 36.5l600 1299q-65 25 -105 83.5t-40 131.5q0 97 67 164t164 67q96 0 164 -67.5t68 -163.5q0 -74 -43.5 -134
t-110.5 -85l594 -1295q9 -20 -1.5 -36.5t-33.5 -16.5h-178q-23 0 -36 9.5t-24 31.5l-100 221h-612l-101 -221q-16 -41 -59 -41h-178zM686 1464q39 0 68.5 31.5t29.5 71.5t-29 69t-69 29t-71 -29.5t-31 -68.5q0 -40 31 -71.5t71 -31.5zM473 489h412l-205 451h-6z" />
    <glyph glyph-name="aringacute" unicode="&#x1fb;" horiz-adv-x="872" 
d="M63 260q0 112 88 185t240 73q36 0 73.5 -5.5t57.5 -10.5l19 -6q1 77 -24 109t-83 32q-54 0 -122.5 -10t-106.5 -21q-40 -11 -47 37l-19 107q-8 39 29 51q12 5 49 13t103.5 17t125.5 9q94 0 157 -23.5t97.5 -72t48 -110.5t13.5 -151v-444q0 -15 -12 -27t-27 -12h-74
q-22 0 -35 29l-24 55q-114 -104 -250 -104q-124 0 -200.5 75.5t-76.5 204.5zM289 260q0 -46 29.5 -76t76.5 -30q45 0 88 28t54 51v113q-56 25 -115 25q-60 0 -96.5 -30.5t-36.5 -80.5zM449 874q-97 0 -164.5 67.5t-67.5 164.5t67.5 164t164.5 67q96 0 163.5 -67.5
t67.5 -163.5t-68 -164t-163 -68zM449 1004q39 0 68.5 31t29.5 71t-29 69t-69 29t-71.5 -29.5t-31.5 -68.5q0 -40 31.5 -71t71.5 -31zM303 1356q-38 -15 -53 12l-35 74q-12 23 12 39l334 198q13 10 29.5 8.5t23.5 -14.5l60 -104q18 -41 -12 -56z" />
    <glyph glyph-name="AEacute" unicode="&#x1fc;" horiz-adv-x="1843" 
d="M2 0q-23 0 -30 16.5t5 36.5l822 1317q2 3 7.5 11.5t7 11t6.5 9t7 8.5l7 7t8.5 6.5t9 4.5t10.5 3.5t12 1.5t15 1h809q17 0 28 -11.5t11 -27.5v-168q0 -16 -11 -27.5t-28 -11.5h-613v-336h512q15 0 27 -12t12 -27v-170q0 -17 -11.5 -28t-27.5 -11h-512v-358h613
q17 0 28 -11.5t11 -27.5v-168q0 -16 -11 -27.5t-28 -11.5h-836q-17 0 -28 11.5t-11 27.5v223h-430l-145 -231q-21 -31 -51 -31h-195zM537 489h286v463zM1128 1575q-38 -16 -51 14l-37 72q-5 13 -0.5 23.5t13.5 15.5l336 201q37 22 53 -7l57 -106q10 -19 6 -34t-18 -21z" />
    <glyph glyph-name="aeacute" unicode="&#x1fd;" horiz-adv-x="1372" 
d="M61 260q0 113 86.5 185.5t233.5 72.5q37 0 76 -4t59 -8l21 -4q-3 83 -25.5 116t-87.5 33q-94 0 -223 -33q-15 -2 -29.5 8t-17.5 25l-19 111q-1 14 9 26t24 15q151 37 278 37q182 0 248 -84q108 84 246 84q160 0 271.5 -107.5t111.5 -273.5q0 -20 -1 -31.5t-4.5 -27.5
t-13 -23.5t-24.5 -7.5h-522q8 -70 60.5 -125.5t133.5 -55.5q84 0 162 54q35 23 53 0l82 -97q24 -32 -2 -53q-121 -112 -305 -112q-195 0 -307 133q-37 -47 -113.5 -90t-177.5 -43q-127 0 -205 76t-78 204zM776 514h307q-3 58 -46.5 97.5t-102.5 39.5q-61 0 -105.5 -39
t-52.5 -98zM287 266q0 -49 33.5 -79.5t80.5 -30.5q25 0 48.5 9t38.5 21.5t26.5 25t17.5 21.5l5 9v106q-55 27 -127 27q-51 0 -87 -30.5t-36 -78.5zM637 1081q-38 -15 -53 13l-35 73q-12 23 12 39l334 199q13 10 29.5 8.5t23.5 -14.5l60 -105q8 -21 4 -35t-17 -20z" />
    <glyph glyph-name="Oslashacute" unicode="&#x1fe;" horiz-adv-x="1636" 
d="M129 47q-11 11 -11.5 26.5t9.5 26.5l133 131q-176 205 -176 484q0 101 26 197t73 177t114.5 149t148.5 115.5t176.5 74t196.5 26.5q135 0 260 -47.5t224 -132.5l139 137q10 11 26 11t27 -11l21 -20q10 -11 10 -26.5t-10 -27.5l-140 -139q85 -99 132.5 -222.5t47.5 -258.5
q0 -151 -58 -287.5t-156.5 -235t-235 -156.5t-287.5 -58q-283 0 -483 178l-133 -133q-11 -10 -26.5 -9.5t-26.5 11.5zM453 424l661 659q-137 105 -295 105q-127 0 -235 -64t-171 -173t-63 -236q0 -160 103 -291zM526 348q130 -102 293 -102q193 0 332 139t139 332
q0 168 -104 291zM676 1573q-38 -16 -51 14l-37 72q-5 13 -1 23.5t13 15.5l336 200q37 23 53 -6l58 -106q10 -19 5.5 -34t-18.5 -21z" />
    <glyph glyph-name="oslashacute" unicode="&#x1ff;" horiz-adv-x="958" 
d="M334 1081q-38 -15 -53 13l-35 73q-12 23 12 39l334 199q13 10 29.5 8.5t23.5 -14.5l60 -105q8 -21 4 -35t-17 -20zM104 49q-11 11 -11.5 26.5t9.5 26.5l45 45q-86 117 -86 267q0 114 56.5 212t153.5 156t210 58q141 0 258 -95l54 54q11 12 26.5 11.5t26.5 -11.5l20 -21
q12 -10 12 -25.5t-12 -27.5l-53 -53q86 -117 86 -258q0 -116 -56 -216t-152.5 -159t-209.5 -59q-144 0 -260 92l-43 -45q-10 -11 -27.5 -10.5t-27.5 12.5zM307 311l275 277q-43 30 -101 30q-83 0 -139.5 -59t-56.5 -145q0 -57 22 -103zM379 229q45 -28 102 -28
q81 0 138 62.5t57 150.5q0 48 -23 96z" />
    <glyph glyph-name="Scommaaccent" unicode="&#x218;" horiz-adv-x="1110" 
d="M113 139q-16 16 -19 25.5t8 36.5l74 127q11 20 34 23t36 -9l10 -7q11 -7 24 -15.5t33 -20.5t41 -23t47 -22.5t51 -19.5t52 -13.5t51 -5.5q79 0 132.5 46t53.5 112q0 76 -63.5 133.5t-196.5 111.5q-81 33 -143 69.5t-120.5 89.5t-90 125t-31.5 159q0 71 27 138.5
t80.5 125.5t145 93.5t208.5 35.5q73 0 144.5 -16t125.5 -41.5t86 -44t54 -35.5q15 -9 19 -31t-7 -37l-78 -116q-13 -20 -32.5 -28t-39.5 3q-181 113 -284 113q-82 0 -131 -44.5t-49 -99.5q0 -71 57 -124t184 -105q48 -19 86.5 -37t84.5 -43.5t81 -52t69.5 -62.5t57 -75
t36 -88.5t13.5 -104.5q0 -165 -131 -285t-340 -120q-90 0 -171 18.5t-137.5 47.5t-88 51t-53.5 42zM563 -186q67 0 118.5 -53t51.5 -167q0 -207 -184 -370q-27 -20 -47 2l-31 29q-9 11 -7 24.5t13 22.5q13 9 30.5 26t44.5 49t45 78t19 96l-4 -1q-3 -1 -9 -2.5t-13 -3
t-17 -2.5t-20 -1q-56 0 -96.5 39.5t-40.5 95.5q0 57 42.5 97.5t104.5 40.5z" />
    <glyph glyph-name="scommaaccent" unicode="&#x219;" horiz-adv-x="745" 
d="M90 55q-24 20 -12 43l55 111q6 15 20 18.5t27 -4.5q93 -49 187 -49q69 0 69 51q0 28 -28 49.5t-109 53.5q-119 46 -175 111.5t-56 158.5q0 102 76.5 172t224.5 70q157 0 252 -64q14 -9 19.5 -24.5t-1.5 -30.5l-51 -105q-7 -13 -22 -16t-27 2q-92 43 -170 43
q-70 0 -70 -47q0 -28 39 -49q14 -6 74 -31q52 -20 90 -38t75 -43.5t60 -54t37 -67.5t14 -86q0 -105 -88 -177t-238 -72q-92 0 -162.5 22.5t-109.5 52.5zM377 -186q67 0 118.5 -53t51.5 -167q0 -206 -185 -370q-27 -20 -47 2l-30 29q-9 11 -7 24.5t13 22.5q13 9 30.5 26
t44.5 49t45 78t19 96l-4 -1q-3 -1 -9 -2.5t-13 -3t-17 -2.5t-20 -1q-56 0 -97 39.5t-41 95.5q0 57 42.5 97.5t105.5 40.5z" />
    <glyph glyph-name="uni021A" unicode="&#x21a;" horiz-adv-x="1026" 
d="M379 39v1149h-313q-17 0 -28 11.5t-11 27.5v168q0 16 11 27.5t28 11.5h895q17 0 27.5 -11.5t10.5 -27.5v-168q0 -16 -10.5 -27.5t-27.5 -11.5h-314v-1149q0 -15 -12 -27t-27 -12h-190q-15 0 -27 12t-12 27zM504 -186q67 0 118.5 -53t51.5 -167q0 -206 -185 -370
q-27 -20 -47 2l-30 29q-9 11 -7 24.5t13 22.5q13 9 30.5 26t44.5 49t45 78t19 96l-3 -1l-10 -2.5t-13 -3t-17 -2.5t-20 -1q-56 0 -97 39.5t-41 95.5q0 57 42.5 97.5t105.5 40.5z" />
    <glyph glyph-name="uni021B" unicode="&#x21b;" horiz-adv-x="708" 
d="M166 244v360h-70q-15 0 -26 12t-11 27v137q0 17 11 28t26 11h70v228q0 15 12 26.5t27 11.5l168 2q15 0 26 -11.5t11 -26.5v-230h180q17 0 28 -11t11 -28v-137q0 -16 -11 -27.5t-28 -11.5h-180v-328q0 -39 16.5 -52t46.5 -13q37 0 100 22q35 12 45 -22l41 -129
q6 -15 -0.5 -29t-21.5 -20q-7 -4 -44 -16t-96 -24.5t-104 -12.5q-227 0 -227 264zM395 -186q67 0 118.5 -53t51.5 -167q0 -207 -184 -370q-27 -20 -47 2l-31 29q-9 11 -7 24.5t13 22.5q13 9 31 26t45 49t45 78t19 96l-3 -1l-10 -2.5t-13.5 -3t-17.5 -2.5t-20 -1
q-56 0 -96.5 39.5t-40.5 95.5q0 57 42.5 97.5t104.5 40.5z" />
    <glyph glyph-name="dotlessj" unicode="&#x237;" horiz-adv-x="495" 
d="M123 -221v1001q0 17 11.5 28t27.5 11h172q16 0 27.5 -11t11.5 -28v-1001q0 -197 -106 -305.5t-275 -108.5q-75 0 -143 25.5t-99 54.5q-10 7 -12 22t4 25l68 131q6 12 21 15t28 -5q69 -41 121 -41q69 0 106 49t37 138z" />
    <glyph glyph-name="circumflex" unicode="&#x2c6;" horiz-adv-x="763" 
d="M129 1083l-53 76q-6 11 -2 21.5t14 17.5l266 207q20 17 43 0l267 -207q10 -7 14 -17.5t-2 -21.5l-53 -76q-17 -23 -48 -6l-198 125l-201 -125q-19 -10 -28.5 -8.5t-18.5 14.5z" />
    <glyph glyph-name="caron" unicode="&#x2c7;" horiz-adv-x="763" 
d="M356 1073l-266 207q-10 7 -14 17.5t2 21.5l53 76q9 13 18.5 14.5t28.5 -8.5l199 -125l201 125q19 10 28.5 8.5t18.5 -14.5l53 -76q6 -11 2 -21.5t-14 -17.5l-267 -207q-20 -17 -43 0z" />
    <glyph glyph-name="uni02C9" unicode="&#x2c9;" horiz-adv-x="847" 
d="M162 1167q-17 0 -28 11t-11 26v70q0 17 11 28t28 11h524q17 0 28 -11t11 -28v-70q0 -15 -11 -26t-28 -11h-524z" />
    <glyph glyph-name="breve" unicode="&#x2d8;" horiz-adv-x="708" 
d="M354 1081q-111 0 -191 69t-95 173q-3 19 6.5 32t29.5 13h76q13 0 22.5 -8.5t12.5 -20.5q15 -49 52 -78.5t87 -29.5q44 0 81.5 31.5t53.5 76.5q3 12 13.5 20.5t21.5 8.5h80q18 0 28.5 -13t8.5 -32q-17 -104 -97.5 -173t-189.5 -69z" />
    <glyph glyph-name="dotaccent" unicode="&#x2d9;" horiz-adv-x="448" 
d="M223 1098q-61 0 -104 43t-43 104q0 62 43 105t104 43t104.5 -43.5t43.5 -104.5t-43 -104t-105 -43z" />
    <glyph glyph-name="ring" unicode="&#x2da;" horiz-adv-x="593" 
d="M297 991q-97 0 -164 67.5t-67 164.5t67 164t164 67q96 0 163.5 -67.5t67.5 -163.5q0 -97 -68 -164.5t-163 -67.5zM297 1120q39 0 68.5 31.5t29.5 71.5t-29 69t-69 29t-71 -29.5t-31 -68.5q0 -40 31 -71.5t71 -31.5z" />
    <glyph glyph-name="ogonek" unicode="&#x2db;" horiz-adv-x="565" 
d="M219 29h131q-5 -4 -13.5 -11.5t-30 -31.5t-38 -49t-30 -61.5t-13.5 -72.5q0 -56 35.5 -93.5t99.5 -37.5q18 0 34.5 3t36 9t24.5 7q17 4 29 -6t12 -29v-62q0 -26 -29 -38q-84 -21 -135 -21q-113 0 -186.5 57.5t-73.5 167.5q0 46 15 91t37 76t43.5 55t36.5 36z" />
    <glyph glyph-name="tilde" unicode="&#x2dc;" horiz-adv-x="778" 
d="M143 1151l-59 43q-10 7 -13.5 22t1.5 25q12 23 18 33.5t29 41.5t43.5 48.5t54 33t68.5 15.5q36 0 68 -17.5t52 -39t46.5 -39t52.5 -17.5q24 0 43 19t28.5 39t26 31t35.5 -5l57 -41q26 -20 2 -63q-1 -1 -8 -13.5t-10.5 -18t-12.5 -19t-15 -21.5t-17.5 -20.5t-21 -20
t-23 -17t-27 -14.5t-30 -8.5t-33.5 -3.5q-36 0 -70 18t-56 39.5t-49 39.5t-49 18q-24 0 -43 -19t-27.5 -39.5t-24.5 -32.5t-36 3z" />
    <glyph glyph-name="hungarumlaut" unicode="&#x2dd;" horiz-adv-x="802" 
d="M459 1067q-24 0 -34 11.5t-5 27.5l76 289q12 39 39 39h155q28 0 38.5 -16.5t-1.5 -35.5l-160 -284q-15 -31 -37 -31h-71zM119 1067q-24 0 -34 11.5t-5 27.5l76 289q12 39 39 39h155q28 0 38 -16t-1 -36l-160 -284q-15 -31 -37 -31h-71z" />
    <glyph glyph-name="uni0394" unicode="&#x394;" horiz-adv-x="1439" 
d="M59 88l621 1348q10 20 33 20h18q23 0 33 -20l618 -1352q16 -31 5.5 -57.5t-46.5 -26.5h-1228q-42 0 -57 22t3 66zM410 244h622l-313 696h-2z" />
    <glyph glyph-name="uni03A9" unicode="&#x3a9;" horiz-adv-x="1599" 
d="M68 37v180q0 14 10.5 25.5t25.5 11.5h177q-97 65 -158.5 200.5t-61.5 274.5q0 201 98.5 368t268 262t371.5 95q151 0 287.5 -56t235 -152t156.5 -231t58 -286q0 -139 -62.5 -274.5t-160.5 -200.5h180q15 0 26 -11.5t11 -25.5v-180q0 -15 -11 -26t-26 -11h-553
q-15 0 -25 11t-10 26v110q0 25 6.5 40t14 21t28.5 17q144 70 228 206t84 284q0 125 -63 233.5t-171 173t-233 64.5q-191 0 -330 -140t-139 -331q0 -148 84 -283.5t227 -206.5q22 -11 30 -17t14.5 -20.5t6.5 -40.5v-110q0 -16 -10 -26.5t-27 -10.5h-551q-15 0 -25.5 11
t-10.5 26z" />
    <glyph glyph-name="uni03BC" unicode="&#x3bc;" horiz-adv-x="1073" 
d="M371 -8v-567q0 -15 -12 -27t-27 -12h-168q-15 0 -27 12t-12 27v1355q0 17 11.5 28t27.5 11h168q16 0 27.5 -11t11.5 -28v-407q3 -75 42.5 -117.5t106.5 -42.5q61 0 107.5 47.5t56.5 106.5v413q0 23 10 31t35 8h156q16 0 27.5 -11t11.5 -28v-741q0 -15 -12 -27t-27 -12
h-76q-27 0 -39 31l-25 67q-2 -2 -15.5 -14.5t-20.5 -18.5t-24 -18.5t-30.5 -20t-35 -17.5t-42.5 -15.5t-49 -9.5t-57 -4q-53 0 -100 12z" />
    <glyph glyph-name="pi" unicode="&#x3c0;" horiz-adv-x="1394" 
d="M248 37v567h-158q-15 0 -26 11.5t-11 25.5v141q0 15 11 26t26 11h1174q15 0 24.5 -10t9.5 -25v-143q0 -15 -9.5 -26t-24.5 -11h-170v-567q0 -15 -11 -26t-26 -11h-183q-14 0 -25 11t-11 26v567h-334v-567q0 -15 -11.5 -26t-25.5 -11h-182q-15 0 -26 11t-11 26z" />
    <glyph glyph-name="Wgrave" unicode="&#x1e80;" horiz-adv-x="1841" 
d="M446 8l-387 1376q-6 22 4.5 36t32.5 14h189q12 0 23 -9t14 -20l213 -817h8l325 844q7 22 35 22h37q28 0 35 -22l328 -844h8l209 817q3 11 13.5 20t22.5 9h189q22 0 32.5 -14t4.5 -36l-387 -1376q-3 -12 -14 -20t-23 -8h-33q-28 0 -35 22l-366 928h-11l-362 -928
q-11 -22 -35 -22h-33q-12 0 -23 8t-14 20zM1065 1573l-358 158q-14 6 -18.5 21t5.5 34l58 106q7 13 24 13.5t29 -7.5l336 -200q9 -5 13 -15.5t-1 -23.5l-37 -72q-13 -30 -51 -14z" />
    <glyph glyph-name="wgrave" unicode="&#x1e81;" horiz-adv-x="1261" 
d="M293 2l-256 770q-9 20 2 33.5t33 13.5h147q10 0 22 -7t15 -17l123 -367h2l209 393q10 19 33 19h16q22 0 33 -19l207 -393h2l123 367q5 16 15.5 20t31.5 4h133q22 0 33 -13.5t4 -33.5l-256 -770q-7 -22 -37 -22h-8q-22 0 -33 18l-258 477h-2l-256 -477q-11 -18 -33 -18
h-10q-28 0 -35 22zM772 1081l-358 158q-13 7 -17.5 20.5t4.5 34.5l58 105q7 13 23.5 14.5t29.5 -8.5l336 -199q10 -5 13.5 -16t-1.5 -23l-37 -73q-13 -29 -51 -13z" />
    <glyph glyph-name="Wacute" unicode="&#x1e82;" horiz-adv-x="1841" 
d="M446 8l-387 1376q-6 22 4.5 36t32.5 14h189q12 0 23 -9t14 -20l213 -817h8l325 844q7 22 35 22h37q28 0 35 -22l328 -844h8l209 817q3 11 13.5 20t22.5 9h189q22 0 32.5 -14t4.5 -36l-387 -1376q-3 -12 -14 -20t-23 -8h-33q-28 0 -35 22l-366 928h-11l-362 -928
q-11 -22 -35 -22h-33q-12 0 -23 8t-14 20zM776 1573q-38 -16 -51 14l-37 72q-5 13 -1 23.5t13 15.5l336 200q38 23 54 -6l57 -106q10 -19 6 -34t-18 -21z" />
    <glyph glyph-name="wacute" unicode="&#x1e83;" horiz-adv-x="1261" 
d="M293 2l-256 770q-9 20 2 33.5t33 13.5h147q10 0 22 -7t15 -17l123 -367h2l209 393q10 19 33 19h16q22 0 33 -19l207 -393h2l123 367q5 16 15.5 20t31.5 4h133q22 0 33 -13.5t4 -33.5l-256 -770q-7 -22 -37 -22h-8q-22 0 -33 18l-258 477h-2l-256 -477q-11 -18 -33 -18
h-10q-28 0 -35 22zM485 1081q-38 -15 -53 13l-35 73q-11 23 13 39l333 199q13 10 30 8.5t24 -14.5l59 -105q18 -40 -12 -55z" />
    <glyph glyph-name="Wdieresis" unicode="&#x1e84;" horiz-adv-x="1841" 
d="M446 8l-387 1376q-6 22 4.5 36t32.5 14h189q12 0 23 -9t14 -20l213 -817h8l325 844q7 22 35 22h37q28 0 35 -22l328 -844h8l209 817q3 11 13.5 20t22.5 9h189q22 0 32.5 -14t4.5 -36l-387 -1376q-3 -12 -14 -20t-23 -8h-33q-28 0 -35 22l-366 928h-11l-362 -928
q-11 -22 -35 -22h-33q-12 0 -23 8t-14 20zM1171 1587q-54 0 -91.5 38.5t-37.5 92.5t37.5 91.5t91.5 37.5t93 -37.5t39 -91.5t-39 -92.5t-93 -38.5zM666 1587q-54 0 -91.5 38.5t-37.5 92.5t37.5 91.5t91.5 37.5t92.5 -37.5t38.5 -91.5t-38.5 -92.5t-92.5 -38.5z" />
    <glyph glyph-name="wdieresis" unicode="&#x1e85;" horiz-adv-x="1261" 
d="M293 2l-256 770q-9 20 2 33.5t33 13.5h147q10 0 22 -7t15 -17l123 -367h2l209 393q10 19 33 19h16q22 0 33 -19l207 -393h2l123 367q5 16 15.5 20t31.5 4h133q22 0 33 -13.5t4 -33.5l-256 -770q-7 -22 -37 -22h-8q-22 0 -33 18l-258 477h-2l-256 -477q-11 -18 -33 -18
h-10q-28 0 -35 22zM834 1128q-54 0 -91.5 39t-37.5 93t37.5 91.5t91.5 37.5t92.5 -37.5t38.5 -91.5t-38.5 -93t-92.5 -39zM422 1128q-54 0 -91.5 39t-37.5 93t37.5 91.5t91.5 37.5t92.5 -37.5t38.5 -91.5t-38.5 -93t-92.5 -39z" />
    <glyph glyph-name="Ygrave" unicode="&#x1ef2;" horiz-adv-x="1193" 
d="M461 39v651l-467 684q-12 20 -1.5 40t34.5 20h209q18 0 32 -19l328 -471l328 471q14 19 32 19h211q24 0 34.5 -20t-1.5 -40l-473 -682v-653q0 -15 -12 -27t-27 -12h-188q-17 0 -28 11.5t-11 27.5zM741 1573l-358 158q-14 6 -18 21t6 34l57 106q7 13 24 13.5t29 -7.5
l336 -200q9 -5 13 -15.5t-1 -23.5l-36 -72q-13 -30 -52 -14z" />
    <glyph glyph-name="ygrave" unicode="&#x1ef3;" horiz-adv-x="948" 
d="M350 57l-334 709q-9 20 1.5 36.5t33.5 16.5h185q23 0 34 -22l207 -463h2l205 463q7 14 17.5 18t31.5 4h164q25 0 35.5 -16.5t-0.5 -36.5l-627 -1356q-12 -24 -35 -24h-176q-23 0 -34 16.5t-1 38.5zM621 1081l-359 158q-32 16 -12 55l57 105q7 13 23.5 14.5t29.5 -8.5
l336 -199q10 -5 14 -16t-1 -23l-37 -73q-13 -29 -51 -13z" />
    <glyph glyph-name="endash" unicode="&#x2013;" horiz-adv-x="1103" 
d="M147 430q-17 0 -27.5 11t-10.5 26v76q0 17 10.5 28t27.5 11h809q17 0 28 -11t11 -28v-76q0 -15 -11 -26t-28 -11h-809z" />
    <glyph glyph-name="emdash" unicode="&#x2014;" horiz-adv-x="1554" 
d="M147 430q-17 0 -27.5 11t-10.5 26v76q0 17 10.5 28t27.5 11h1260q17 0 28 -11t11 -28v-76q0 -15 -11 -26t-28 -11h-1260z" />
    <glyph glyph-name="quoteleft" unicode="&#x2018;" horiz-adv-x="405" 
d="M217 848q-66 0 -117 53t-51 168q0 208 184 371q27 20 46 -2l30 -31q9 -10 7.5 -23t-13.5 -22q-62 -54 -92 -100q-46 -72 -47 -150q1 0 9.5 2.5t23.5 5t30 2.5q56 0 97 -40t41 -97q0 -56 -43 -96.5t-105 -40.5z" />
    <glyph glyph-name="quoteright" unicode="&#x2019;" horiz-adv-x="401" 
d="M127 866l-29 29q-10 11 -8.5 24.5t12.5 22.5q14 10 31.5 26.5t45 48.5t45.5 78.5t18 96.5l-4 -1q-3 -1 -9 -2.5t-13.5 -3t-17 -2.5t-18.5 -1q-57 0 -97 39t-40 96q0 58 41.5 97.5t103.5 39.5q67 0 118.5 -52.5t51.5 -166.5q0 -208 -184 -371q-26 -19 -47 2z" />
    <glyph glyph-name="quotesinglbase" unicode="&#x201a;" horiz-adv-x="466" 
d="M76 117q0 56 42.5 96.5t104.5 40.5q30 0 58 -11.5t54 -35.5t42 -69t16 -105q0 -208 -184 -371q-27 -20 -47 2l-31 31q-9 11 -7 23.5t13 21.5q13 9 31 26.5t44.5 49.5t44.5 78.5t19 95.5l-4 -1q-3 -1 -9 -2.5t-13 -3t-17 -2.5t-20 -1q-56 0 -96.5 40t-40.5 97z" />
    <glyph glyph-name="quotedblleft" unicode="&#x201c;" horiz-adv-x="802" 
d="M612 852q-67 0 -118.5 52.5t-51.5 166.5q0 207 185 371q27 20 47 -2l31 -29q9 -11 6.5 -24.5t-13.5 -22.5q-137 -107 -139 -250l3 1l10 2.5t13.5 3t17.5 2.5t20 1q56 0 96.5 -39.5t40.5 -95.5q0 -57 -42.5 -97t-105.5 -40zM217 852q-30 0 -58 11t-53.5 35t-41 68.5
t-15.5 104.5q0 208 184 371q27 20 46 -2l30 -29q9 -10 7.5 -24t-13.5 -23q-137 -107 -139 -250q1 0 9.5 2.5t23.5 5t30 2.5q56 0 97 -39.5t41 -95.5q0 -57 -42.5 -97t-105.5 -40z" />
    <glyph glyph-name="quotedblright" unicode="&#x201d;" horiz-adv-x="796" 
d="M522 866l-30 29q-9 11 -7 24.5t13 22.5q13 9 31 26t44.5 49t44.5 78.5t19 96.5l-3 -1l-10 -2.5t-13.5 -3t-17.5 -2.5t-20 -1q-56 0 -96.5 39.5t-40.5 95.5q0 57 42.5 97t105.5 40q67 0 118.5 -52.5t51.5 -166.5q0 -207 -185 -371q-27 -20 -47 2zM127 866l-29 29
q-10 11 -8.5 24.5t12.5 22.5q14 10 31.5 26.5t45 48.5t45.5 78.5t18 96.5l-4 -1q-3 -1 -9 -2.5t-13.5 -3t-17 -2.5t-18.5 -1q-57 0 -97 39t-40 96q0 58 41.5 97.5t103.5 39.5q67 0 118.5 -52.5t51.5 -166.5q0 -208 -184 -371q-26 -19 -47 2z" />
    <glyph glyph-name="quotedblbase" unicode="&#x201e;" horiz-adv-x="862" 
d="M471 117q0 56 42.5 96.5t104.5 40.5q30 0 58 -11.5t54 -35.5t42 -69t16 -105q0 -208 -184 -371q-27 -20 -47 2l-31 31q-9 11 -7 23.5t13 21.5q13 9 31 26.5t45 49.5t45 78.5t19 95.5l-4 -1q-3 -1 -9 -2.5t-13.5 -3t-17.5 -2.5t-20 -1q-56 0 -96.5 40t-40.5 97zM78 117
q0 56 41.5 96.5t103.5 40.5q30 0 58 -11.5t54 -35.5t42 -69t16 -105q0 -208 -184 -371q-26 -19 -47 2l-29 31q-22 22 4 45q13 9 31 26.5t45 49.5t45 78.5t18 95.5l-4 -1q-3 -1 -9 -2.5t-13 -3t-16.5 -2.5t-18.5 -1q-57 0 -97 40t-40 97z" />
    <glyph glyph-name="dagger" unicode="&#x2020;" horiz-adv-x="1265" 
d="M141 586q-15 0 -27 12t-12 27v155q0 15 12 27t27 12h348v576q0 15 12 27t27 12h197q15 0 27 -12t12 -27v-576h362q15 0 26 -12t11 -27v-155q0 -15 -11 -27t-26 -12h-376l-66 -1168q0 -12 -12.5 -22t-26.5 -10h-37q-14 0 -26.5 10t-12.5 22l-65 1168h-363z" />
    <glyph glyph-name="daggerdbl" unicode="&#x2021;" horiz-adv-x="1265" 
d="M164 41v154q0 15 12 26.5t27 11.5h317l-31 582v2h-348q-15 0 -27 12t-12 27v156q0 15 12 27t27 12h348v344q0 15 12 27t27 12h197q15 0 27 -12t12 -27v-344h362q15 0 26 -12t11 -27v-156q0 -15 -11 -27t-26 -12h-362l-31 -584h332q15 0 26 -11.5t11 -26.5v-154
q0 -15 -11 -27t-26 -12h-348l-33 -584q0 -12 -12.5 -22t-26.5 -10h-37q-14 0 -26.5 10t-12.5 22l-34 584h-332q-15 0 -27 12t-12 27z" />
    <glyph glyph-name="bullet" unicode="&#x2022;" horiz-adv-x="796" 
d="M393 195q-106 0 -185 78.5t-79 185.5q0 112 78.5 192t185.5 80q113 0 193 -80t80 -192q0 -108 -80.5 -186t-192.5 -78z" />
    <glyph glyph-name="ellipsis" unicode="&#x2026;" horiz-adv-x="1368" 
d="M977 127q0 61 42.5 104t104.5 43t105 -43t43 -104q0 -60 -43.5 -103.5t-104.5 -43.5t-104 43.5t-43 103.5zM541 127q0 61 42.5 104t102.5 43q62 0 106 -43t44 -104q0 -60 -44.5 -103.5t-105.5 -43.5q-60 0 -102.5 43.5t-42.5 103.5zM96 127q0 61 43 104t103 43
q62 0 105.5 -43t43.5 -104q0 -60 -44 -103.5t-105 -43.5q-60 0 -103 43.5t-43 103.5z" />
    <glyph glyph-name="perthousand" unicode="&#x2030;" horiz-adv-x="2019" 
d="M365 901q-115 0 -196 80.5t-81 196.5q0 115 80.5 195.5t196.5 80.5q114 0 195 -80.5t81 -195.5t-81 -196t-195 -81zM256 55l702 1358q10 21 35 21h103q23 0 34 -18t0 -38l-706 -1358q-3 -7 -13.5 -13.5t-21.5 -6.5h-98q-23 0 -34 17.5t-1 37.5zM365 1077q40 0 69 30
t29 71q0 40 -29 69t-69 29q-41 0 -71 -29t-30 -69q0 -41 30 -71t71 -30zM1382 256q0 115 81.5 195.5t195.5 80.5q116 0 197 -80.5t81 -195.5t-81 -195.5t-197 -80.5q-114 0 -195.5 80.5t-81.5 195.5zM762 256q0 115 81 195.5t195 80.5q116 0 197.5 -80.5t81.5 -195.5
t-81.5 -195.5t-197.5 -80.5q-114 0 -195 80.5t-81 195.5zM1561 256q0 -41 29 -70.5t69 -29.5q41 0 70.5 29.5t29.5 70.5q0 40 -29.5 69t-70.5 29q-40 0 -69 -29t-29 -69zM938 256q0 -41 29.5 -70.5t70.5 -29.5q40 0 70.5 29.5t30.5 70.5q0 39 -30.5 68.5t-70.5 29.5
q-41 0 -70.5 -29t-29.5 -69z" />
    <glyph glyph-name="guilsinglleft" unicode="&#x2039;" horiz-adv-x="555" 
d="M266 80l-213 317q-17 23 0 49l223 304q14 24 37 24h117q26 0 34.5 -19t-3.5 -44l-139 -285l133 -301q11 -25 2.5 -43.5t-33.5 -18.5h-127q-18 0 -31 17z" />
    <glyph glyph-name="guilsinglright" unicode="&#x203a;" horiz-adv-x="555" 
d="M129 63q-25 0 -33.5 18.5t2.5 43.5l133 301l-139 285q-12 25 -3.5 44t34.5 19h117q22 0 36 -24l224 -304q17 -26 0 -49l-213 -317q-13 -17 -31 -17h-127z" />
    <glyph glyph-name="fraction" unicode="&#x2044;" horiz-adv-x="251" 
d="M-123 20q-3 -7 -13.5 -13.5t-21.5 -6.5h-98q-23 0 -34 17.5t-1 37.5l703 1358q10 21 34 21h103q23 0 34.5 -18t0.5 -38z" />
    <glyph glyph-name="zerosuperior" unicode="&#x2070;" horiz-adv-x="731" 
d="M367 1012q-126 0 -193.5 85.5t-67.5 237.5q0 154 67.5 239t193.5 85q125 0 190.5 -85t65.5 -239q0 -153 -66 -238t-190 -85zM367 1155q42 0 66 47t24 133q0 87 -24 134t-66 47q-43 0 -67 -47t-24 -134t24 -133.5t67 -46.5z" />
    <glyph glyph-name="foursuperior" unicode="&#x2074;" horiz-adv-x="757" 
d="M422 1032q-8 0 -14.5 6t-6.5 13v98h-280q-7 0 -13 5t-6 11v105l334 362q6 6 17 6h84q7 0 12.5 -5t5.5 -13v-348h82q7 0 12.5 -5.5t5.5 -11.5v-88q0 -7 -5.5 -12.5t-12.5 -5.5h-82v-98q0 -8 -5.5 -13.5t-12.5 -5.5h-115zM252 1270h151v170z" />
    <glyph glyph-name="fivesuperior" unicode="&#x2075;" horiz-adv-x="667" 
d="M311 1012q-69 0 -120 24.5t-76 53.5q-15 15 -2 30l55 68q15 20 31 4q5 -5 15.5 -12.5t40 -19t60.5 -11.5q36 0 64.5 22.5t28.5 55.5q0 34 -27 55t-72 21h-151q-14 0 -22.5 9.5t-8.5 22.5v285q0 8 5.5 13t12.5 5h328q8 0 13.5 -5.5t5.5 -12.5v-90q0 -8 -6 -13.5t-13 -5.5
h-211v-79h72q110 0 171.5 -54t61.5 -149t-71 -156t-185 -61z" />
    <glyph glyph-name="sixsuperior" unicode="&#x2076;" horiz-adv-x="684" 
d="M348 1012q-114 0 -180 71.5t-66 182.5q0 64 19.5 121t52.5 97.5t69.5 73t78 55t69 35t51.5 19.5q26 9 37 -16l27 -70q8 -25 -19 -33q-55 -16 -123 -56.5t-90 -94.5q52 26 113 26q79 0 137 -52t58 -146q0 -88 -69 -150.5t-165 -62.5zM348 1153q34 0 58 23t24 55
q0 34 -24 57t-58 23q-31 0 -57 -20t-35 -42q2 -37 28 -66.5t64 -29.5z" />
    <glyph glyph-name="sevensuperior" unicode="&#x2077;" horiz-adv-x="659" 
d="M139 1032q-22 0 -22 17v12l237 446h-223q-7 0 -13.5 5.5t-6.5 11.5v96q0 7 6 12.5t14 5.5h408q7 0 12.5 -5t5.5 -13v-29l-270 -540q-11 -19 -31 -19h-117z" />
    <glyph glyph-name="eightsuperior" unicode="&#x2078;" horiz-adv-x="700" 
d="M348 1012q-109 0 -177.5 50t-68.5 126q0 33 16.5 63t40 49t40 29t26.5 14v3q-39 15 -71.5 52t-32.5 91q0 76 65.5 123t161.5 47q99 0 165.5 -47t66.5 -123q0 -52 -34 -90t-73 -53v-3q46 -13 85.5 -53t39.5 -102q0 -76 -69 -126t-181 -50zM350 1405q30 3 48 21t18 42
q0 25 -19.5 44.5t-48.5 19.5q-27 0 -46 -19.5t-19 -44.5q0 -27 17.5 -43.5t49.5 -19.5zM350 1139q32 0 55 17.5t23 47.5q0 28 -21.5 49.5t-56.5 24.5q-34 -3 -57 -25t-23 -49q0 -28 24 -46.5t56 -18.5z" />
    <glyph glyph-name="ninesuperior" unicode="&#x2079;" horiz-adv-x="684" 
d="M242 999q-26 -9 -37 17l-27 69q-8 25 19 33q55 16 123 57t90 95q-54 -27 -113 -27q-78 0 -136.5 52.5t-58.5 146.5q0 88 69 150.5t165 62.5q114 0 180 -71.5t66 -182.5q0 -76 -29 -142.5t-68.5 -108.5t-91.5 -76.5t-86.5 -50t-64.5 -24.5zM336 1356q31 0 57 19.5t35 41.5
q-2 37 -28 66.5t-64 29.5q-34 0 -58 -22.5t-24 -54.5q0 -34 24 -57t58 -23z" />
    <glyph glyph-name="zeroinferior" unicode="&#x2080;" horiz-adv-x="731" 
d="M106 -4q0 154 67.5 238.5t193.5 84.5q125 0 190.5 -84.5t65.5 -238.5q0 -153 -66 -238.5t-190 -85.5q-126 0 -193.5 85.5t-67.5 238.5zM276 -4q0 -87 24 -133.5t67 -46.5q42 0 66 47t24 133t-24 133t-66 47q-43 0 -67 -46.5t-24 -133.5z" />
    <glyph glyph-name="oneinferior" unicode="&#x2081;" horiz-adv-x="493" 
d="M106 117l-4 63q0 11 15 23l151 96h105q7 0 12.5 -5.5t5.5 -12.5v-570q0 -7 -5.5 -12.5t-12.5 -5.5h-127q-9 0 -15 5t-6 13v395l-100 -8q-19 0 -19 19z" />
    <glyph glyph-name="twoinferior" unicode="&#x2082;" horiz-adv-x="647" 
d="M174 143l-45 64q-10 11 -10 21.5t16 21.5q13 11 32 23.5t66 29t95 16.5q97 0 157 -51.5t60 -136.5q0 -84 -76 -176l-111 -131h164q8 0 13.5 -6t5.5 -13v-94q0 -18 -19 -18h-399q-21 0 -21 18v35l226 258q51 57 51 102q0 31 -23 51.5t-59 20.5q-26 0 -51 -13t-39 -28
q-19 -13 -33 6z" />
    <glyph glyph-name="threeinferior" unicode="&#x2083;" horiz-adv-x="649" 
d="M186 31q0 28 31 28h59q38 0 61 18t23 46t-21.5 44.5t-55.5 16.5q-44 0 -80 -32q-8 -6 -15.5 -5.5t-15.5 11.5l-49 59q-8 8 -8 19.5t10 17.5q8 7 22 18t61.5 29t98.5 18q99 0 160 -46t61 -123q0 -51 -31.5 -88.5t-72.5 -55.5v-2q47 -18 85 -57t38 -99q0 -82 -68.5 -129
t-171.5 -47q-117 0 -194 68q-17 17 -2 37l45 59q13 18 34 4l6 -4q5 -3 14 -7.5t20.5 -9.5t26.5 -8.5t30 -3.5q40 0 63 17.5t23 46.5q0 30 -25.5 49t-71.5 19h-59q-16 0 -23.5 6t-7.5 22v64z" />
    <glyph glyph-name="fourinferior" unicode="&#x2084;" horiz-adv-x="757" 
d="M102 -70l334 363q6 6 17 6h84q7 0 12.5 -5.5t5.5 -12.5v-349h82q7 0 12.5 -5t5.5 -11v-88q0 -8 -5.5 -13t-12.5 -5h-82v-99q0 -7 -5.5 -12.5t-12.5 -5.5h-115q-8 0 -14.5 5.5t-6.5 12.5v99h-280q-7 0 -13 5t-6 11v104zM252 -70h151v170z" />
    <glyph glyph-name="fiveinferior" unicode="&#x2085;" horiz-adv-x="667" 
d="M127 -4v285q0 7 5.5 12.5t12.5 5.5h328q8 0 13.5 -5.5t5.5 -12.5v-91q0 -7 -5.5 -12.5t-13.5 -5.5h-211v-80h72q110 0 171.5 -54t61.5 -149t-71 -156t-185 -61q-69 0 -120 24.5t-76 53.5q-15 15 -2 31l55 67q15 21 31 5q5 -5 15.5 -12.5t40 -19t60.5 -11.5q37 0 65 22
t28 55q0 34 -27 55t-72 21h-151q-14 0 -22.5 10t-8.5 23z" />
    <glyph glyph-name="sixinferior" unicode="&#x2086;" horiz-adv-x="684" 
d="M102 -74q0 76 29 142.5t68.5 108.5t91.5 76.5t86.5 50t64.5 24.5q26 9 37 -17l27 -69q8 -25 -19 -33q-55 -16 -123 -57t-90 -95q54 27 113 27q78 0 136.5 -52.5t58.5 -146.5q0 -88 -69 -150.5t-165 -62.5q-114 0 -180 71.5t-66 182.5zM256 -90q2 -37 28 -66.5t64 -29.5
q34 0 58 22.5t24 54.5q0 34 -24 57t-58 23q-31 0 -57 -19.5t-35 -41.5z" />
    <glyph glyph-name="seveninferior" unicode="&#x2087;" horiz-adv-x="659" 
d="M131 168q-7 0 -13.5 5t-6.5 11v97q0 7 6 12.5t14 5.5h408q7 0 12.5 -5.5t5.5 -12.5v-29l-270 -541q-10 -18 -31 -18h-117q-22 0 -22 16v12l237 447h-223z" />
    <glyph glyph-name="eightinferior" unicode="&#x2088;" horiz-adv-x="700" 
d="M102 -152q0 33 16.5 63t40 49t40 29.5t26.5 14.5v2q-39 15 -71.5 52.5t-32.5 91.5q0 76 65.5 122.5t161.5 46.5q99 0 165.5 -46.5t66.5 -122.5q0 -52 -34 -90.5t-73 -53.5v-2q46 -13 85.5 -53.5t39.5 -102.5q0 -76 -69 -126t-181 -50q-109 0 -177.5 50t-68.5 126z
M283 129q0 -27 17.5 -43.5t49.5 -19.5q30 3 48 21t18 42q0 25 -19.5 44.5t-48.5 19.5q-27 0 -46 -19.5t-19 -44.5zM270 -135q0 -28 24 -47t56 -19t55 18t23 48q0 28 -21.5 49.5t-56.5 24.5q-34 -3 -57 -25t-23 -49z" />
    <glyph glyph-name="nineinferior" unicode="&#x2089;" horiz-adv-x="684" 
d="M102 102q0 88 69 150.5t165 62.5q114 0 180 -71.5t66 -182.5q0 -64 -19.5 -121t-52.5 -97.5t-69.5 -73t-78 -55t-69 -35t-51.5 -19.5q-26 -9 -37 16l-27 70q-8 25 19 33q55 16 123 56.5t90 94.5q-52 -26 -113 -26q-79 0 -137 52t-58 146zM254 96q0 -34 24 -57t58 -23
q31 0 57 20t35 42q-2 37 -28 66.5t-64 29.5q-34 0 -58 -23t-24 -55z" />
    <glyph glyph-name="Euro" unicode="&#x20ac;" horiz-adv-x="1470" 
d="M78 512q-15 0 -26 12t-11 27v27q0 15 11 26.5t26 11.5h80q-6 50 -6 99q0 29 2 43h-76q-15 0 -26 12t-11 27v26q0 15 11 27t26 12h88q34 168 137 302.5t257.5 212t330.5 77.5q151 0 269.5 -47t225.5 -143q13 -12 14 -29t-11 -29l-123 -127q-10 -12 -27 -12t-29 12
q-131 119 -313 119q-157 0 -275.5 -94t-160.5 -242h477q17 0 28 -11.5t11 -27.5v-30q0 -15 -11 -26t-28 -11h-498v-35q0 -57 11 -105h405q17 0 28 -11.5t11 -26.5v-29q0 -15 -11 -26t-28 -11h-369q55 -119 165 -191.5t247 -72.5q169 0 313 117q12 10 27.5 9.5t24.5 -9.5
l127 -132q11 -11 10 -27.5t-12 -27.5q-204 -198 -498 -198q-251 0 -447.5 149t-263.5 383h-102z" />
    <glyph glyph-name="afii61289" unicode="&#x2113;" horiz-adv-x="1034" 
d="M193 315q0 37 8 115q-62 -17 -90 -22q-28 -3 -31 22l-10 78q0 9 -0.5 16.5t7 14.5t23.5 10q84 15 131 31q12 70 33 174q69 350 169.5 525t254.5 175q111 0 173.5 -77t62.5 -208q0 -104 -31.5 -197.5t-85 -166.5t-128.5 -136.5t-156.5 -109t-174.5 -80.5q-18 -92 -18 -160
q0 -86 37 -143t116 -57q154 0 301 90q24 13 33.5 10.5t20.5 -20.5l28 -43q14 -20 14 -29.5t-18 -26.5q-14 -11 -43 -27t-79 -39t-119 -38.5t-138 -15.5q-76 0 -133 27.5t-90.5 75t-50 106t-16.5 126.5zM375 623q185 81 298 219t113 327q0 66 -26 105t-72 39
q-184 0 -293 -582z" />
    <glyph glyph-name="trademark" unicode="&#x2122;" horiz-adv-x="1476" 
d="M692 788q-20 0 -31 14.5t-8 33.5l107 577q4 31 39 31h8q26 0 35 -23l178 -379l182 379q10 23 35 23h8q15 0 26 -9.5t13 -21.5l109 -579q3 -19 -8.5 -32.5t-30.5 -13.5h-80q-13 0 -24.5 10.5t-14.5 24.5l-45 256l-131 -278q-8 -19 -33 -19h-12q-24 0 -35 21l-125 276
l-49 -258q-1 -12 -14 -22.5t-25 -10.5h-74zM297 788q-17 0 -28 11.5t-11 27.5v455h-131q-16 0 -27.5 11t-11.5 28v74q0 15 12 27t27 12h420q17 0 28 -11.5t11 -27.5v-74q0 -17 -11 -28t-28 -11h-131v-455q0 -15 -12 -27t-27 -12h-80z" />
    <glyph glyph-name="Omega" unicode="&#x2126;" horiz-adv-x="1599" 
d="M68 37v180q0 14 10.5 25.5t25.5 11.5h177q-97 65 -158.5 200.5t-61.5 274.5q0 201 98.5 368t268 262t371.5 95q151 0 287.5 -56t235 -152t156.5 -231t58 -286q0 -139 -62.5 -274.5t-160.5 -200.5h180q15 0 26 -11.5t11 -25.5v-180q0 -15 -11 -26t-26 -11h-553
q-15 0 -25 11t-10 26v110q0 25 6.5 40t14 21t28.5 17q144 70 228 206t84 284q0 125 -63 233.5t-171 173t-233 64.5q-191 0 -330 -140t-139 -331q0 -148 84 -283.5t227 -206.5q22 -11 30 -17t14.5 -20.5t6.5 -40.5v-110q0 -16 -10 -26.5t-27 -10.5h-551q-15 0 -25.5 11
t-10.5 26z" />
    <glyph glyph-name="estimated" unicode="&#x212e;" horiz-adv-x="1685" 
d="M307 344q75 -107 208 -169t278 -62q106 0 213.5 43.5t199.5 122.5q31 31 58 4l43 -45q22 -25 -13 -60q-213 -198 -501 -198q-154 0 -291.5 57t-237 154.5t-157.5 234t-58 289.5t58 290.5t157.5 235.5t237 155.5t291.5 57.5q204 0 374.5 -99t269.5 -270t101 -376
q0 -33 -11 -46.5t-38 -13.5h-1182v-305zM307 778h975v307q-85 109 -213 171.5t-276 62.5q-151 0 -276.5 -59.5t-209.5 -169.5v-312z" />
    <glyph glyph-name="onethird" unicode="&#x2153;" horiz-adv-x="1404" 
d="M242 55l702 1358q10 21 35 21h102q23 0 34.5 -18t0.5 -38l-706 -1358q-3 -7 -13.5 -13.5t-21.5 -6.5h-99q-23 0 -34 17.5t0 37.5zM246 827q-9 0 -15 5.5t-6 13.5v395l-100 -8q-19 0 -19 18l-4 64q0 10 15 22l151 97h105q7 0 12.5 -5.5t5.5 -13.5v-569q0 -8 -5.5 -13.5
t-12.5 -5.5h-127zM885 47q-17 17 -2 37l45 59q13 19 35 4l5 -3q6 -4 14.5 -8.5t20 -9t26.5 -8t30 -3.5q40 0 63 17t23 46q0 30 -25 49t-71 19h-60q-16 0 -23.5 6t-7.5 22v64q0 29 31 29h60q38 0 61 17.5t23 45.5t-22 45t-56 17q-43 0 -80 -33q-8 -6 -15.5 -5.5t-15.5 11.5
l-49 59q-8 8 -8 19.5t10 17.5q8 7 22 18t61.5 29.5t98.5 18.5q99 0 160 -46.5t61 -123.5q0 -51 -31.5 -88.5t-72.5 -55.5v-2q47 -18 85 -56.5t38 -98.5q0 -82 -68.5 -129t-171.5 -47q-119 0 -194 67z" />
    <glyph glyph-name="twothirds" unicode="&#x2154;" horiz-adv-x="1404" 
d="M35 827q-21 0 -21 19v35l226 258q51 57 51 102q0 31 -23 51.5t-59 20.5q-26 0 -51 -13t-39 -28q-19 -13 -33 6l-45 63q-10 11 -10 21.5t16 21.5q84 70 193 70q97 0 157 -51.5t60 -136.5q0 -84 -76 -176l-111 -132h164q8 0 13.5 -5.5t5.5 -12.5v-94q0 -19 -19 -19h-399z
M242 55l702 1358q10 21 35 21h102q23 0 34.5 -18t0.5 -38l-706 -1358q-3 -7 -13.5 -13.5t-21.5 -6.5h-99q-23 0 -34 17.5t0 37.5zM885 47q-17 17 -2 37l45 59q13 19 35 4l5 -3q6 -4 14.5 -8.5t20 -9t26.5 -8t30 -3.5q40 0 63 17t23 46q0 30 -25 49t-71 19h-60q-16 0 -23.5 6
t-7.5 22v64q0 29 31 29h60q38 0 61 17.5t23 45.5t-22 45t-56 17q-43 0 -80 -33q-8 -6 -15.5 -5.5t-15.5 11.5l-49 59q-8 8 -8 19.5t10 17.5q8 7 22 18t61.5 29.5t98.5 18.5q99 0 160 -46.5t61 -123.5q0 -51 -31.5 -88.5t-72.5 -55.5v-2q47 -18 85 -56.5t38 -98.5
q0 -82 -68.5 -129t-171.5 -47q-119 0 -194 67z" />
    <glyph glyph-name="oneeighth" unicode="&#x215b;" horiz-adv-x="1433" 
d="M242 55l702 1358q10 21 35 21h102q23 0 34.5 -18t0.5 -38l-706 -1358q-3 -7 -13.5 -13.5t-21.5 -6.5h-99q-23 0 -34 17.5t0 37.5zM246 827q-9 0 -15 5.5t-6 13.5v395l-100 -8q-19 0 -19 18l-4 64q0 10 15 22l151 97h105q7 0 12.5 -5.5t5.5 -13.5v-569q0 -8 -5.5 -13.5
t-12.5 -5.5h-127zM881 156q0 33 16.5 63t40 49t40 29t26.5 14v2q-39 15 -72 52.5t-33 91.5q0 76 65.5 123t161.5 47q99 0 165.5 -47t66.5 -123q0 -52 -34 -90.5t-73 -53.5v-2q46 -13 85.5 -53t39.5 -102q0 -76 -69 -126t-181 -50q-109 0 -177 50t-68 126zM1061 436
q0 -27 17.5 -43.5t49.5 -19.5q30 3 48 21t18 42q0 25 -19.5 44.5t-48.5 19.5q-27 0 -46 -19.5t-19 -44.5zM1049 172q0 -28 23.5 -47t55.5 -19t55 18t23 48q0 28 -21.5 49.5t-56.5 24.5q-34 -3 -56.5 -25t-22.5 -49z" />
    <glyph glyph-name="threeeighths" unicode="&#x215c;" horiz-adv-x="1433" 
d="M246 807q-120 0 -195 67q-17 17 -2 37l45 60q13 19 35 4l5 -3q6 -4 14.5 -9t20 -9.5t26.5 -8t30 -3.5q40 0 63 17.5t23 46.5q0 30 -25 48.5t-71 18.5h-59q-31 0 -31 29v63q0 29 31 29h59q38 0 61 17.5t23 45.5t-22 45t-56 17q-43 0 -80 -33q-8 -6 -15 -5.5t-15 11.5
l-50 60q-8 8 -8 19.5t10 17.5q8 7 22.5 18t62 29t98.5 18q99 0 160 -46.5t61 -123.5q0 -51 -31.5 -88t-73.5 -55v-2q47 -18 85 -57t38 -99q0 -82 -68.5 -129t-170.5 -47zM242 55l702 1358q10 21 35 21h102q23 0 34.5 -18t0.5 -38l-706 -1358q-3 -7 -13.5 -13.5t-21.5 -6.5
h-99q-23 0 -34 17.5t0 37.5zM881 156q0 33 16.5 63t40 49t40 29t26.5 14v2q-39 15 -72 52.5t-33 91.5q0 76 65.5 123t161.5 47q99 0 165.5 -47t66.5 -123q0 -52 -34 -90.5t-73 -53.5v-2q46 -13 85.5 -53t39.5 -102q0 -76 -69 -126t-181 -50q-109 0 -177 50t-68 126z
M1061 436q0 -27 17.5 -43.5t49.5 -19.5q30 3 48 21t18 42q0 25 -19.5 44.5t-48.5 19.5q-27 0 -46 -19.5t-19 -44.5zM1049 172q0 -28 23.5 -47t55.5 -19t55 18t23 48q0 28 -21.5 49.5t-56.5 24.5q-34 -3 -56.5 -25t-22.5 -49z" />
    <glyph glyph-name="fiveeighths" unicode="&#x215d;" horiz-adv-x="1433" 
d="M244 55l702 1358q10 21 35 21h102q23 0 34.5 -18t0.5 -38l-706 -1358q-3 -7 -13.5 -13.5t-21.5 -6.5h-98q-23 0 -34 17.5t-1 37.5zM248 807q-69 0 -120.5 24.5t-76.5 53.5q-15 15 -2 30l55 68q15 20 31 4q5 -5 15.5 -12.5t40.5 -19t61 -11.5q36 0 64 22.5t28 55.5
q0 34 -26.5 55t-71.5 21h-152q-14 0 -22.5 9.5t-8.5 22.5v285q0 7 5.5 13t13.5 6h328q7 0 12.5 -5.5t5.5 -13.5v-90q0 -7 -5 -12.5t-13 -5.5h-211v-80h71q110 0 172 -54t62 -149t-71 -156t-185 -61zM883 156q0 33 16.5 63t40 49t40 29t26.5 14v2q-39 15 -72 52.5t-33 91.5
q0 76 65.5 123t161.5 47q99 0 165.5 -47t66.5 -123q0 -52 -34 -90.5t-73 -53.5v-2q46 -13 85.5 -53t39.5 -102q0 -76 -69 -126t-181 -50q-109 0 -177 50t-68 126zM1063 436q0 -27 17.5 -43.5t49.5 -19.5q30 3 48 21t18 42q0 25 -19.5 44.5t-48.5 19.5q-27 0 -46 -19.5
t-19 -44.5zM1051 172q0 -28 23.5 -47t55.5 -19t55 18t23 48q0 28 -21.5 49.5t-56.5 24.5q-34 -3 -56.5 -25t-22.5 -49z" />
    <glyph glyph-name="seveneighths" unicode="&#x215e;" horiz-adv-x="1433" 
d="M242 55l702 1358q10 21 35 21h102q23 0 34.5 -18t0.5 -38l-706 -1358q-3 -7 -13.5 -13.5t-21.5 -6.5h-99q-23 0 -34 17.5t0 37.5zM154 827q-23 0 -23 17v12l238 447h-224q-7 0 -13.5 5t-6.5 11v96q0 7 6 13t14 6h408q7 0 12.5 -5.5t5.5 -13.5v-29l-270 -540
q-11 -19 -31 -19h-116zM881 156q0 33 16.5 63t40 49t40 29t26.5 14v2q-39 15 -72 52.5t-33 91.5q0 76 65.5 123t161.5 47q99 0 165.5 -47t66.5 -123q0 -52 -34 -90.5t-73 -53.5v-2q46 -13 85.5 -53t39.5 -102q0 -76 -69 -126t-181 -50q-109 0 -177 50t-68 126zM1061 436
q0 -27 17.5 -43.5t49.5 -19.5q30 3 48 21t18 42q0 25 -19.5 44.5t-48.5 19.5q-27 0 -46 -19.5t-19 -44.5zM1049 172q0 -28 23.5 -47t55.5 -19t55 18t23 48q0 28 -21.5 49.5t-56.5 24.5q-34 -3 -56.5 -25t-22.5 -49z" />
    <glyph glyph-name="partialdiff" unicode="&#x2202;" horiz-adv-x="1167" 
d="M109 449q0 106 36 192.5t96 140t133.5 82.5t151.5 29q65 0 133 -19t101 -38q-22 79 -82 150.5t-133 120t-132 78.5t-104 44q-54 17 -37 59l47 121q12 42 58 29q44 -14 93.5 -35.5t118.5 -62t131 -89.5t125.5 -121.5t109.5 -155.5t75 -194.5t29 -234.5
q0 -117 -31.5 -218.5t-91 -179t-154 -122.5t-211.5 -45q-189 0 -325.5 138t-136.5 331zM340 453q0 -97 68.5 -168.5t164.5 -71.5q48 0 88.5 18t68 48t46.5 69t28 81t9 85q-21 67 -83.5 122.5t-154.5 55.5q-98 0 -166.5 -70t-68.5 -169z" />
    <glyph glyph-name="Delta" unicode="&#x2206;" horiz-adv-x="1439" 
d="M59 88l621 1348q10 20 33 20h18q23 0 33 -20l618 -1352q16 -31 5.5 -57.5t-46.5 -26.5h-1228q-42 0 -57 22t3 66zM410 244h622l-313 696h-2z" />
    <glyph glyph-name="product" unicode="&#x220f;" horiz-adv-x="1404" 
d="M100 37v1360q0 15 11 26t26 11h1131q14 0 24.5 -11t10.5 -26v-1360q0 -15 -10.5 -26t-24.5 -11h-201q-15 0 -25 11t-10 26v1143h-659v-1143q0 -15 -11 -26t-26 -11h-199q-15 0 -26 11t-11 26z" />
    <glyph glyph-name="summation" unicode="&#x2211;" horiz-adv-x="1118" 
d="M102 37v82l570 606l-570 602v70q0 15 10 26t25 11h842q15 0 26 -11t11 -26v-180q0 -15 -11 -26t-26 -11h-442l342 -322q36 -31 36 -74v-114q0 -34 -36 -70l-342 -346h442q15 0 26 -11t11 -26v-180q0 -15 -11 -26t-26 -11h-842q-15 0 -25 11t-10 26z" />
    <glyph glyph-name="minus" unicode="&#x2212;" horiz-adv-x="1089" 
d="M141 614q-15 0 -27 12t-12 27v115q0 15 12 27t27 12h807q15 0 26 -12t11 -27v-115q0 -15 -11 -27t-26 -12h-807z" />
    <glyph glyph-name="uni2215" unicode="&#x2215;" horiz-adv-x="251" 
d="M-123 20q-3 -7 -13.5 -13.5t-21.5 -6.5h-98q-23 0 -34 17.5t-1 37.5l703 1358q10 21 34 21h103q23 0 34.5 -18t0.5 -38z" />
    <glyph glyph-name="uni2219" unicode="&#x2219;" horiz-adv-x="796" 
d="M395 342q-73 0 -127.5 54t-54.5 128q0 78 54 133.5t128 55.5q78 0 133.5 -55.5t55.5 -133.5q0 -74 -55.5 -128t-133.5 -54z" />
    <glyph glyph-name="radical" unicode="&#x221a;" horiz-adv-x="1406" 
d="M475 2l-352 770q-9 19 0 33t31 14h192q10 0 19.5 -7t11.5 -13l137 -314h10l418 926q3 8 13.5 15.5t21.5 7.5h385q15 0 25 -11t10 -26v-148q0 -15 -10 -26t-25 -11h-244l-559 -1210q-4 -9 -14.5 -15.5t-18.5 -6.5h-18q-8 0 -18.5 6.5t-14.5 15.5z" />
    <glyph glyph-name="infinity" unicode="&#x221e;" horiz-adv-x="1214" 
d="M389 319q-119 0 -203 84.5t-84 202.5q0 120 84 203.5t203 83.5q61 0 118.5 -32t96.5 -81q43 50 100.5 81.5t118.5 31.5q120 0 204.5 -83.5t84.5 -203.5q0 -119 -84.5 -203t-204.5 -84q-62 0 -119.5 31.5t-99.5 81.5q-39 -50 -96 -81.5t-119 -31.5zM709 606q0 -44 31 -75
t75 -31q45 0 77 31t32 75t-32.5 75.5t-76.5 31.5t-75 -31.5t-31 -75.5zM395 500q45 0 77 31t32 75t-32.5 75.5t-76.5 31.5q-43 0 -73.5 -31.5t-30.5 -75.5t30.5 -75t73.5 -31z" />
    <glyph glyph-name="integral" unicode="&#x222b;" horiz-adv-x="804" 
d="M248 -221v1263q0 195 109 303.5t286 108.5q130 0 227 -80q10 -10 13 -24t-4 -25l-76 -127q-9 -12 -23 -15t-26 5q-11 9 -46.5 22t-62.5 13q-60 0 -100.5 -46.5t-40.5 -136.5v-1263q0 -194 -111 -303t-287 -109q-130 0 -227 80q-9 9 -11.5 23.5t3.5 25.5l78 127
q7 12 21.5 15t27.5 -5q8 -8 43.5 -21t62.5 -13q61 0 102.5 46t41.5 136z" />
    <glyph glyph-name="approxequal" unicode="&#x2248;" horiz-adv-x="948" 
d="M168 643l-80 68q-9 7 -10.5 20.5t6.5 20.5q5 7 13.5 18.5t35.5 40.5t55 51.5t68 41t78 18.5q21 0 40 -4t38 -14.5t29 -16.5t30.5 -21t24.5 -18q2 -2 18.5 -12.5t23.5 -14.5t21 -11t27 -10t26 -3q62 0 117 96q19 25 47 4l76 -66q8 -8 8.5 -21t-6.5 -22q-5 -7 -13 -18
t-34.5 -40t-54 -51t-67 -40t-77.5 -18q-22 0 -42 4.5t-40 15t-30.5 17.5t-32 23t-25.5 19q-2 1 -13 8.5t-14 9t-13 7.5t-15.5 8t-14 5t-17 4t-17.5 1q-64 0 -121 -94q-7 -13 -21.5 -14.5t-23.5 8.5zM168 238l-80 67q-8 8 -9.5 20t5.5 21q5 7 13.5 18t35.5 40t55 51.5
t68 40.5t78 18q15 0 29.5 -2t28.5 -7.5t23.5 -9.5t23.5 -13.5t19 -13t20.5 -15t17.5 -13.5t18.5 -12.5t23.5 -14.5t21 -11t27 -10t26 -3q59 0 117 96q19 25 47 4l76 -65q8 -8 8.5 -21t-6.5 -22q-5 -7 -13 -18t-34.5 -40t-54 -51.5t-67 -40.5t-77.5 -18q-22 0 -42.5 4.5
t-40 15.5t-30.5 18t-31 22.5t-26 19.5q-2 1 -13 8.5t-14 9t-13 7.5t-15.5 8t-14 5t-17 4t-17.5 1q-37 0 -69 -29.5t-52 -64.5q-7 -13 -21.5 -14t-23.5 10z" />
    <glyph glyph-name="notequal" unicode="&#x2260;" horiz-adv-x="950" 
d="M252 104q-14 6 -20.5 21.5t-0.5 28.5l50 106h-140q-17 0 -28 11.5t-11 27.5v117q0 16 11 27.5t28 11.5h232l108 237h-340q-17 0 -28 11.5t-11 27.5v115q0 16 11 27.5t28 11.5h430l72 153q6 15 22 20t29 -1l25 -13q15 -6 21 -20.5t-3 -28.5l-51 -110h123q17 0 28 -11.5
t11 -27.5v-115q0 -16 -11 -27.5t-28 -11.5h-213l-109 -237h322q17 0 28 -11.5t11 -27.5v-117q0 -16 -11 -27.5t-28 -11.5h-412l-69 -151q-6 -13 -22.5 -18t-29.5 1z" />
    <glyph glyph-name="lessequal" unicode="&#x2264;" horiz-adv-x="933" 
d="M47 780q-20 10 -20 35v25q0 22 20 32l809 385q20 10 35.5 1.5t15.5 -31.5v-148q0 -22 -16 -28l-512 -217l512 -209q16 -10 16 -29v-150q0 -23 -16 -32t-35 2zM61 96q-15 0 -26.5 12t-11.5 27v115q0 15 11.5 27t26.5 12h807q15 0 26 -12t11 -27v-115q0 -15 -11 -27
t-26 -12h-807z" />
    <glyph glyph-name="greaterequal" unicode="&#x2265;" horiz-adv-x="933" 
d="M74 416q-19 -11 -35 -2t-16 32v150q0 19 16 29l512 209l-512 217q-16 6 -16 28v148q0 23 15.5 31.5t35.5 -1.5l809 -385q20 -10 20 -32v-25q0 -25 -20 -35zM61 96q-15 0 -25.5 12t-10.5 27v115q0 15 10.5 27t25.5 12h807q15 0 27 -12t12 -27v-115q0 -15 -12 -27t-27 -12
h-807z" />
    <glyph glyph-name="lozenge" unicode="&#x25ca;" horiz-adv-x="1439" 
d="M188 639q-38 49 -26 113q6 27 37 71l481 613q10 20 33 20h18q23 0 33 -20l481 -611q25 -33 34 -60t3 -58q-5 -32 -39 -78l-479 -609q-10 -20 -33 -20h-18q-21 0 -33 20zM719 342h4l293 385l-293 389h-4l-293 -389z" />
    <glyph glyph-name="uniF8FF" unicode="&#xf8ff;" horiz-adv-x="1226" 
d="M102 61v1311q0 62 62 62h899q32 0 46.5 -15t14.5 -47v-1311q0 -32 -14.5 -46.5t-46.5 -14.5h-899q-32 0 -47 14.5t-15 46.5zM537 643q0 -10 8.5 -17.5t19.5 -7.5h74q31 0 31 27v53q0 23 16 44.5t40 39t51.5 40.5t51.5 46.5t40 59.5t16 78q0 99 -73 163t-183 64
q-50 0 -96 -13t-75.5 -31.5t-52.5 -36.5t-33 -31l-10 -13q-16 -24 0 -37l46 -45q17 -11 34 0q1 1 15 14.5t20.5 19t23.5 17.5t31.5 17.5t36.5 10.5t45 5q59 0 92 -31t33 -75q0 -35 -21 -65t-50.5 -53t-59 -47.5t-50.5 -59.5t-21 -77v-59zM502 319q0 -40 29 -69t69 -29
q41 0 70.5 29t29.5 69t-29.5 69.5t-70.5 29.5q-40 0 -69 -29.5t-29 -69.5z" />
    <glyph glyph-name="CR" horiz-adv-x="0" 
 />
    <glyph glyph-name="grave.cap" horiz-adv-x="618" 
d="M459 1573l-359 158q-14 6 -18 21t6 34l57 106q7 13 24.5 13.5t29.5 -7.5l336 -200q9 -5 13 -15.5t-1 -23.5l-37 -72q-13 -30 -51 -14z" />
    </font>
</defs>
</svg>
