<?xml version="1.0" standalone="no"?>
<!DOCTYPE svg PUBLIC "-//W3C//DTD SVG 1.1//EN" "http://www.w3.org/Graphics/SVG/1.1/DTD/svg11.dtd" >
<svg xmlns="http://www.w3.org/2000/svg" xmlns:xlink="http://www.w3.org/1999/xlink" version="1.1">
<metadata>
Created by FontForge 20170731 at Thu Jul  1 08:09:14 2021
 By Aleksey,,,
Copyright (c) 2009 by Hannes von Doehren. All rights reserved.
</metadata>
<defs>
<font id="BrandonGrotesque-Black" horiz-adv-x="1044" >
  <font-face 
    font-family="Brandon Grotesque Black"
    font-weight="500"
    font-stretch="normal"
    units-per-em="2048"
    panose-1="2 11 10 3 2 2 3 6 2 2"
    ascent="1434"
    descent="-614"
    x-height="819"
    cap-height="1434"
    bbox="-338.762 -796.1 2365.51 2154.53"
    underline-thickness="102"
    underline-position="-307"
    unicode-range="U+0020-FB02"
  />
<missing-glyph horiz-adv-x="1226" 
d="M102 61v1311q0 62 62 62h899q32 0 46.5 -15t14.5 -47v-1311q0 -32 -14.5 -46.5t-46.5 -14.5h-899q-32 0 -47 14.5t-15 46.5zM537 643q0 -10 8.5 -17.5t19.5 -7.5h74q31 0 31 27v53q0 23 16 44.5t40 39t51.5 40.5t51.5 46.5t40 59.5t16 78q0 99 -73 163t-183 64
q-50 0 -96 -13t-75.5 -31.5t-52.5 -36.5t-33 -31l-10 -13q-16 -24 0 -37l46 -45q17 -11 34 0q1 1 15 14.5t20.5 19t23.5 17.5t31.5 17.5t36.5 10.5t45 5q59 0 92 -31t33 -75q0 -35 -21 -65t-50.5 -53t-59 -47.5t-50.5 -59.5t-21 -77v-59zM502 319q0 -40 29 -69t69 -29
q41 0 70.5 29t29.5 69t-29.5 69.5t-70.5 29.5q-40 0 -69 -29.5t-29 -69.5z" />
    <glyph glyph-name="fi" unicode="fi" horiz-adv-x="1169" 
d="M154 39v520h-43q-17 0 -28 11.5t-11 27.5v182q0 17 11 28t28 11h43v191q0 193 123.5 318.5t314.5 125.5q87 0 173.5 -26.5t143.5 -57.5q15 -7 20 -23.5t-3 -31.5l-88 -168q-12 -24 -25 -30t-33 3q-110 51 -184 51q-54 0 -91.5 -41.5t-37.5 -121.5v-189h553q17 0 28 -11
t11 -28v-741q0 -16 -11 -27.5t-28 -11.5h-223q-17 0 -28 11.5t-11 27.5v520h-291v-520q0 -12 -5.5 -20t-12 -12t-19 -6t-20 -2t-22.5 0.5t-19 0.5h-176q-15 0 -27 12t-12 27z" />
    <glyph glyph-name="fl" unicode="fl" horiz-adv-x="1212" 
d="M156 39v520h-47q-17 0 -28 11.5t-11 27.5v182q0 17 11 28t28 11h47v191q0 204 125.5 324t312.5 120q52 0 102.5 -12.5t85.5 -30t63 -35.5t42 -30l14 -13l27 62q17 39 53 39h82q15 0 27 -12t12 -27v-1356q0 -15 -12 -27t-27 -12h-227q-15 0 -27 12t-12 27v1048
q-17 24 -66.5 54t-105.5 30q-68 0 -113 -41.5t-45 -121.5v-189h137q16 0 27.5 -11t11.5 -28v-182q0 -15 -12 -27t-27 -12h-137v-520q0 -15 -12 -27t-27 -12h-235q-15 0 -26 12t-11 27z" />
    <glyph glyph-name="f_f" unicode="ff" horiz-adv-x="1366" 
d="M154 39v520h-43q-17 0 -28 11.5t-11 27.5v182q0 17 11 28t28 11h43v158q0 144 63 249.5t165 156.5t228 51q175 0 293 -101q118 121 303 121q74 0 147.5 -25t102.5 -53q9 -8 11.5 -22t-3.5 -25l-86 -170q-5 -11 -20 -15.5t-27 1.5q-64 33 -106 33q-62 0 -91.5 -45.5
t-29.5 -124.5v-189h188q17 0 28 -11t11 -28v-182q0 -16 -11 -27.5t-28 -11.5h-188v-520q0 -15 -12 -27t-27 -12h-236q-15 0 -26.5 12t-11.5 27v520h-324v-520q0 -15 -12 -27t-27 -12h-235q-15 0 -27 12t-12 27zM467 819h324v189q0 27 4 77q-63 72 -162 72q-74 0 -120 -51.5
t-46 -128.5v-158z" />
    <glyph glyph-name="f_f_i" unicode="ffi" horiz-adv-x="1806" 
d="M154 39v520h-43q-17 0 -28 11.5t-11 27.5v182q0 17 11 28t28 11h43v158q0 206 129 331.5t327 125.5q55 0 105 -10.5t83 -25t57.5 -29.5t36.5 -25l11 -11q59 61 134 91t182 30q90 0 180.5 -27t146.5 -57q15 -8 20.5 -24t-3.5 -31l-95 -180q-8 -12 -22.5 -16.5t-28.5 1.5
q-110 51 -184 51q-54 0 -91.5 -41.5t-37.5 -121.5v-189h553q17 0 28 -11t11 -28v-741q0 -16 -11 -27.5t-28 -11.5h-223q-17 0 -28 11.5t-11 27.5v520h-291v-520q0 -15 -12 -27t-27 -12h-236q-15 0 -26.5 12t-11.5 27v520h-324v-520q0 -15 -12 -27t-27 -12h-235q-15 0 -27 12
t-12 27zM467 819h324v189q0 27 4 77q-63 72 -162 72q-74 0 -120 -51.5t-46 -128.5v-158z" />
    <glyph glyph-name="f_f_l" unicode="ffl" horiz-adv-x="1849" 
d="M154 39v520h-43q-17 0 -28 11.5t-11 27.5v182q0 17 11 28t28 11h43v158q0 144 63 249.5t165 156.5t228 51q175 0 293 -101q118 121 332 121q49 0 98.5 -12.5t84.5 -30t63.5 -35.5t42.5 -30l14 -13l27 62q14 39 53 39h82q15 0 27 -12t12 -27v-1356q0 -15 -12 -27t-27 -12
h-227q-15 0 -27 12t-12 27v1048q-17 24 -66.5 54t-105.5 30q-68 0 -113 -41.5t-45 -121.5v-191h137q16 0 27.5 -11t11.5 -28v-182q0 -15 -12 -27t-27 -12h-137v-518q0 -15 -12 -27t-27 -12h-236q-15 0 -26.5 12t-11.5 27v520h-324v-520q0 -15 -12 -27t-27 -12h-235
q-15 0 -27 12t-12 27zM467 819h324v189q0 27 4 77q-63 72 -162 72q-74 0 -120 -51.5t-46 -128.5v-158z" />
    <glyph glyph-name="f_f_h" unicode="ffh" horiz-adv-x="2410" 
d="M154 39v520h-43q-17 0 -28 11.5t-11 27.5v182q0 17 11 28t28 11h43v158q0 206 129.5 331.5t326.5 125.5q175 0 293 -101q118 121 332 121q49 0 98.5 -12.5t84.5 -30t63.5 -35.5t42.5 -30l14 -13l27 62q14 39 53 39h82q15 0 27 -12t12 -27v-602q99 47 190 47
q185 0 288 -121.5t103 -306.5v-373q0 -15 -12 -27t-27 -12h-217q-17 0 -28 11.5t-11 27.5v373q0 69 -41.5 115t-107.5 46q-62 0 -99.5 -38.5t-37.5 -102.5v-393q0 -15 -12 -27t-27 -12h-227q-15 0 -27 12t-12 27v1048q-17 24 -66.5 54t-105.5 30q-68 0 -113 -41.5
t-45 -121.5v-191h137q16 0 27.5 -11t11.5 -28v-182q0 -15 -12 -27t-27 -12h-137v-518q0 -15 -12 -27t-27 -12h-236q-15 0 -26.5 12t-11.5 27v520h-324v-520q0 -15 -12 -27t-27 -12h-235q-15 0 -27 12t-12 27zM467 819h324v189q0 27 4 77q-63 72 -162 72q-74 0 -120 -51.5
t-46 -128.5v-158z" />
    <glyph glyph-name="f_k" unicode="fk" horiz-adv-x="1732" 
d="M156 39v518h-47q-17 0 -28 11.5t-11 27.5v182q0 17 11 28t28 11h47v193q0 136 62 239t160 154t214 51q52 0 103 -12.5t86.5 -30t63.5 -35.5t42 -30l14 -13l27 62q14 39 53 39h82q15 0 27 -12t12 -27v-887l248 287q24 24 51 24h229q27 0 37.5 -20.5t-6.5 -42.5l-270 -314
l327 -381q17 -20 6.5 -40.5t-36.5 -20.5h-277q-6 0 -16.5 5t-14.5 11l-278 357v-334q0 -15 -12 -27t-27 -12h-227q-15 0 -27 12t-12 27v1048q-17 24 -66.5 54t-105.5 30q-68 0 -113 -41.5t-45 -121.5v-191h137q16 0 27.5 -11t11.5 -28v-182q0 -15 -12 -27t-27 -12h-137v-518
q0 -15 -12 -27t-27 -12h-235q-15 0 -26 12t-11 27z" />
    <glyph glyph-name="f_j" unicode="fj" horiz-adv-x="1169" 
d="M154 39v520h-43q-17 0 -28 11.5t-11 27.5v182q0 17 11 28t28 11h43v191q0 193 123.5 318.5t314.5 125.5q87 0 173.5 -26.5t143.5 -57.5q15 -7 20 -23.5t-3 -31.5l-88 -168q-12 -24 -25 -30t-33 3q-110 51 -184 51q-54 0 -91.5 -41.5t-37.5 -121.5v-189h553q17 0 28 -11
t11 -28v-968q0 -210 -116 -328.5t-300 -118.5q-74 0 -147.5 25t-102.5 53q-9 8 -11.5 22t3.5 25l86 170q5 11 20 15.5t27 -1.5q62 -32 107 -32q66 0 97.5 45.5t31.5 124.5v747h-287v-520q0 -15 -12 -27t-27 -12h-235q-15 0 -27 12t-12 27z" />
    <glyph glyph-name="f_f_j" unicode="ffj" horiz-adv-x="1806" 
d="M154 39v520h-43q-17 0 -28 11.5t-11 27.5v182q0 17 11 28t28 11h43v158q0 206 129 331.5t327 125.5q55 0 105 -10.5t83 -25t57.5 -29.5t36.5 -25l11 -11q59 61 134 91t182 30q90 0 180.5 -27t146.5 -57q15 -8 20.5 -24t-3.5 -31l-95 -180q-8 -12 -22.5 -16.5t-28.5 1.5
q-110 51 -184 51q-54 0 -91.5 -41.5t-37.5 -121.5v-189h553q17 0 28 -11t11 -28v-968q0 -210 -116 -328.5t-300 -118.5q-74 0 -147.5 25t-102.5 53q-9 8 -11.5 22t3.5 25l86 170q5 11 20 15.5t27 -1.5q62 -32 107 -32q66 0 97.5 45.5t31.5 124.5v747h-287v-520
q0 -15 -12 -27t-27 -12h-236q-15 0 -26.5 12t-11.5 27v520h-324v-520q0 -15 -12 -27t-27 -12h-235q-15 0 -27 12t-12 27zM467 819h324v189q0 27 4 77q-63 72 -162 72q-74 0 -120 -51.5t-46 -128.5v-158z" />
    <glyph glyph-name="f_b" unicode="fb" horiz-adv-x="1730" 
d="M156 39v518h-47q-17 0 -28 11.5t-11 27.5v182q0 17 11 28t28 11h47v193q0 195 126.5 319.5t309.5 124.5q52 0 103 -12.5t86.5 -30t63.5 -35.5t42 -30l14 -13l27 62q14 39 53 39h82q15 0 27 -12t12 -27v-586q85 31 170 31q171 0 289 -120t118 -310q0 -117 -52.5 -215.5
t-146 -156.5t-206.5 -58q-50 0 -97 13.5t-78 32t-54.5 37.5t-34.5 33l-11 13q-5 -11 -15.5 -44.5t-22 -49t-29.5 -15.5h-96q-15 0 -27 12t-12 27v1048q-17 24 -66.5 54t-105.5 30q-68 0 -113 -41.5t-45 -121.5v-191h137q16 0 27.5 -11t11.5 -28v-182q0 -15 -12 -27t-27 -12
h-137v-518q0 -15 -12 -27t-27 -12h-235q-15 0 -26 12t-11 27zM1069 410q0 -69 46.5 -116.5t115.5 -47.5t116.5 47.5t47.5 116.5q0 68 -47.5 114.5t-116.5 46.5t-115.5 -46.5t-46.5 -114.5z" />
    <glyph glyph-name="f_f_k" unicode="ffk" horiz-adv-x="2369" 
d="M154 39v520h-43q-17 0 -28 11.5t-11 27.5v182q0 17 11 28t28 11h43v158q0 144 63 249.5t165 156.5t228 51q175 0 293 -101q118 121 326 121q51 0 101.5 -12.5t86.5 -30t64.5 -35.5t42.5 -30l14 -13l33 78q3 8 14 15.5t21 7.5h94q15 0 27 -12t12 -27v-887l248 287
q24 24 51 24h229q27 0 37.5 -20.5t-6.5 -42.5l-270 -314l327 -381q17 -20 6.5 -40.5t-37.5 -20.5h-276q-6 0 -16.5 5t-14.5 11l-278 357v-334q0 -15 -12 -27t-27 -12h-227q-15 0 -27 12t-12 27v1048q-17 24 -66.5 54t-105.5 30q-68 0 -113 -41.5t-45 -121.5v-191h137
q16 0 27.5 -11t11.5 -28v-182q0 -15 -12 -27t-27 -12h-137v-518q0 -15 -12 -27t-27 -12h-236q-15 0 -26.5 12t-11.5 27v520h-324v-520q0 -15 -12 -27t-27 -12h-235q-15 0 -27 12t-12 27zM467 819h324v189q0 27 4 77q-63 72 -162 72q-74 0 -120 -51.5t-46 -128.5v-158z" />
    <glyph glyph-name="f_h" unicode="fh" horiz-adv-x="1773" 
d="M156 39v518h-47q-17 0 -28 11.5t-11 27.5v182q0 17 11 28t28 11h47v193q0 196 128.5 320t317.5 124q49 0 98 -12.5t83.5 -30t62.5 -35.5t42 -30l13 -13l27 62q14 39 53 39h82q15 0 27 -12t12 -27v-602q87 47 190 47q185 0 288 -121.5t103 -306.5v-373q0 -15 -11.5 -27
t-26.5 -12h-218q-17 0 -27.5 11.5t-10.5 27.5v373q0 69 -42 115t-108 46q-55 0 -96 -34t-41 -107v-393q0 -15 -12 -27t-27 -12h-227q-15 0 -27 12t-12 27v1048q-17 24 -66.5 54t-105.5 30q-68 0 -113 -41.5t-45 -121.5v-191h137q16 0 27.5 -11t11.5 -28v-182q0 -15 -12 -27
t-27 -12h-137v-518q0 -15 -12 -27t-27 -12h-235q-15 0 -26 12t-11 27z" />
    <glyph glyph-name="f_f_b" unicode="ffb" horiz-adv-x="2367" 
d="M154 39v520h-43q-17 0 -28 11.5t-11 27.5v182q0 17 11 28t28 11h43v158q0 206 129.5 331.5t326.5 125.5q175 0 293 -101q118 121 326 121q51 0 101.5 -12.5t86.5 -30t64.5 -35.5t42.5 -30l14 -13l27 62q14 39 53 39h82q15 0 27 -12t12 -27v-586q85 31 172 31
q179 0 292 -115.5t113 -314.5q0 -117 -52.5 -215.5t-146 -156.5t-206.5 -58q-50 0 -97 13.5t-78 32t-54.5 37.5t-34.5 33l-11 13q-5 -11 -15.5 -44.5t-22 -49t-29.5 -15.5h-96q-15 0 -27 12t-12 27v1048q-17 24 -66.5 54t-105.5 30q-68 0 -113 -41.5t-45 -121.5v-191h137
q16 0 27.5 -11t11.5 -28v-182q0 -15 -12 -27t-27 -12h-137v-518q0 -15 -12 -27t-27 -12h-236q-15 0 -26.5 12t-11.5 27v520h-324v-520q0 -15 -12 -27t-27 -12h-235q-15 0 -27 12t-12 27zM467 819h324v189q0 27 4 77q-63 72 -162 72q-74 0 -120 -51.5t-46 -128.5v-158z
M1706 410q0 -69 46.5 -116.5t115.5 -47.5t116.5 47.5t47.5 116.5q0 68 -47.5 114.5t-116.5 46.5t-115.5 -46.5t-46.5 -114.5z" />
    <glyph glyph-name=".notdef" horiz-adv-x="1226" 
d="M102 61v1311q0 62 62 62h899q32 0 46.5 -15t14.5 -47v-1311q0 -32 -14.5 -46.5t-46.5 -14.5h-899q-32 0 -47 14.5t-15 46.5zM537 643q0 -10 8.5 -17.5t19.5 -7.5h74q31 0 31 27v53q0 23 16 44.5t40 39t51.5 40.5t51.5 46.5t40 59.5t16 78q0 99 -73 163t-183 64
q-50 0 -96 -13t-75.5 -31.5t-52.5 -36.5t-33 -31l-10 -13q-16 -24 0 -37l46 -45q17 -11 34 0q1 1 15 14.5t20.5 19t23.5 17.5t31.5 17.5t36.5 10.5t45 5q59 0 92 -31t33 -75q0 -35 -21 -65t-50.5 -53t-59 -47.5t-50.5 -59.5t-21 -77v-59zM502 319q0 -40 29 -69t69 -29
q41 0 70.5 29t29.5 69t-29.5 69.5t-70.5 29.5q-40 0 -69 -29.5t-29 -69.5z" />
    <glyph glyph-name=".null" horiz-adv-x="0" 
 />
    <glyph glyph-name="nonmarkingreturn" horiz-adv-x="682" 
 />
    <glyph glyph-name="space" unicode=" " horiz-adv-x="452" 
 />
    <glyph glyph-name="exclam" unicode="!" horiz-adv-x="643" 
d="M279 557q-13 0 -25 10.5t-14 22.5l-101 571v234q0 15 12 27t27 12h287q15 0 27 -12t12 -27v-230l-101 -575q-2 -12 -13.5 -22.5t-24.5 -10.5h-86zM127 172q0 80 57 138.5t135 58.5q79 0 138 -58.5t59 -138.5q0 -78 -58.5 -135t-138.5 -57q-78 0 -135 57t-57 135z" />
    <glyph glyph-name="quotedbl" unicode="&#x22;" horiz-adv-x="749" 
d="M473 1026q-15 0 -27 12t-12 27v330q0 15 12 27t27 12h213q21 0 32 -15.5t5 -36.5l-98 -325q-3 -12 -14.5 -21.5t-22.5 -9.5h-115zM102 1026q-15 0 -27 12t-12 27v330q0 15 12 27t27 12h213q21 0 32 -15.5t5 -36.5l-98 -325q-3 -12 -14.5 -21.5t-22.5 -9.5h-115z" />
    <glyph glyph-name="numbersign" unicode="#" horiz-adv-x="1095" 
d="M207 45l45 334h-146q-17 0 -27.5 11.5t-10.5 27.5v35q0 17 10.5 28t27.5 11h160l49 329h-149q-15 0 -27 12t-12 27v35q0 15 12 27t27 12h164l65 467q2 12 13 22.5t24 10.5h35q18 0 29 -13.5t8 -31.5l-62 -455h330l64 467q2 12 13.5 22.5t24.5 10.5h33q19 0 30.5 -13
t8.5 -32l-61 -455h123q17 0 28 -11.5t11 -27.5v-35q0 -16 -11 -27.5t-28 -11.5h-140l-47 -329h127q16 0 27.5 -11t11.5 -28v-35q0 -15 -12 -27t-27 -12h-143l-47 -346q-2 -14 -13 -23.5t-26 -9.5h-33q-19 0 -30 13t-9 32l47 334h-332l-45 -346q-1 -13 -12.5 -23t-25.5 -10
h-33q-20 0 -31 13t-8 32zM379 492h332l45 329h-328z" />
    <glyph glyph-name="dollar" unicode="$" horiz-adv-x="1077" 
d="M82 137q-17 17 -19.5 25.5t9.5 32.5l88 155q14 25 35 33t43 -6q133 -89 237 -123l2 332q-59 24 -112 52t-110.5 71t-99 91t-68 112.5t-26.5 134.5q0 160 110 272.5t308 132.5v66q0 17 11.5 27.5t27.5 10.5h35q16 0 27.5 -10.5t11.5 -27.5v-68q204 -18 381 -150
q17 -9 18.5 -32.5t-6.5 -32.5l-119 -172q-11 -16 -27.5 -19t-27.5 7q-3 1 -38.5 23.5t-87 51t-93.5 45.5v-288q434 -171 434 -480q0 -106 -52.5 -197t-153 -151.5t-232.5 -72.5v-213q0 -15 -12 -26t-27 -11h-35q-15 0 -27 11t-12 26v213q-79 6 -148.5 24.5t-117.5 43.5
t-77.5 46t-49.5 41zM471 932v266q-49 -6 -81 -36.5t-32 -69.5q0 -92 113 -160zM594 236q48 12 78 46t30 80q0 100 -108 173v-299z" />
    <glyph glyph-name="percent" unicode="%" horiz-adv-x="1349" 
d="M313 903q-115 0 -195.5 80.5t-80.5 196.5q0 115 80 194.5t196 79.5q115 0 196 -79.5t81 -194.5t-81.5 -196t-195.5 -81zM188 55l703 1358q12 21 35 21h155q23 0 34.5 -18t0.5 -38l-706 -1358q-5 -6 -16.5 -13t-18.5 -7h-152q-23 0 -34 17.5t-1 37.5zM313 1108
q28 0 49 21.5t21 50.5q0 28 -21 48.5t-49 20.5q-29 0 -50 -20.5t-21 -48.5q0 -29 21 -50.5t50 -21.5zM723 256q0 115 81 195.5t195 80.5q116 0 197.5 -80.5t81.5 -195.5q0 -114 -82 -195t-197 -81q-114 0 -195 81t-81 195zM930 256q0 -28 20.5 -49t48.5 -21q29 0 50.5 21
t21.5 49q0 29 -21.5 50.5t-50.5 21.5q-28 0 -48.5 -21.5t-20.5 -50.5z" />
    <glyph glyph-name="ampersand" unicode="&#x26;" horiz-adv-x="1431" 
d="M143 369q0 60 15.5 115.5t40.5 95.5t55 74.5t59.5 57t54.5 38.5t40 23l16 7v6l-41 43q-66 70 -100.5 139.5t-34.5 153.5q0 60 26 118t73.5 106.5t125.5 78t172 29.5q174 0 292 -99.5t118 -242.5q0 -63 -23 -122t-56 -99t-66 -70.5t-56 -49t-23 -21.5l185 -189
q40 64 67 158q4 15 7.5 24.5t10 19t14 13.5t20 4t28.5 -6l150 -53q10 -4 17.5 -9t12 -10t6 -13t2 -13t-1.5 -14t-2.5 -12.5t-4 -12.5t-3.5 -10q-22 -63 -54 -126t-53 -97l-22 -33l174 -162q17 -16 23 -25t1.5 -27t-28.5 -42l-114 -117q-45 -41 -92 6l-134 133l-17 -17
t-51.5 -38t-88 -47.5t-125.5 -37.5t-164 -17q-194 0 -322.5 113.5t-128.5 275.5zM659 920q5 2 14.5 7t32.5 21.5t40.5 35t32 48.5t14.5 62q0 54 -43.5 92.5t-108.5 38.5q-55 0 -88 -29.5t-33 -71.5q0 -10 1 -19t5 -19t6.5 -17t9.5 -17.5t10.5 -16t13.5 -17t14.5 -16
t17 -18.5t16.5 -19zM436 410q0 -74 55.5 -124t137.5 -50q45 0 84 10.5t63 26t42 31t25 26.5l7 10l-268 285q-6 -2 -16 -6.5t-35 -21.5t-44 -39.5t-35 -62t-16 -85.5z" />
    <glyph glyph-name="quotesingle" unicode="'" horiz-adv-x="374" 
d="M102 1026q-15 0 -27 12t-12 27v330q0 15 12 27t27 12h211q21 0 32 -15.5t5 -36.5l-98 -325q-3 -12 -14.5 -21.5t-22.5 -9.5h-113z" />
    <glyph glyph-name="parenleft" unicode="(" horiz-adv-x="704" 
d="M596 -162q-54 4 -102.5 15t-102.5 36.5t-98 63.5t-85.5 100.5t-69.5 143.5t-45 195.5t-17 252.5q0 778 520 805q17 1 29 -10.5t12 -26.5l8 -174q0 -11 -8.5 -23.5t-18.5 -15.5q-125 -39 -180 -177t-55 -378q0 -241 55 -379t180 -178q10 -4 18.5 -16t8.5 -23l-8 -172
q-3 -39 -41 -39z" />
    <glyph glyph-name="parenright" unicode=")" horiz-adv-x="704" 
d="M59 51q0 10 9 22t18 15q125 40 180.5 178t55.5 379q0 240 -55.5 378t-180.5 177q-10 3 -18.5 15.5t-8.5 23.5l9 174q0 15 12 26.5t29 10.5q520 -27 520 -805q0 -138 -17 -252.5t-45 -195.5t-69.5 -143.5t-85.5 -100.5t-98 -63.5t-102.5 -36.5t-102.5 -15q-17 0 -29 11
t-12 26z" />
    <glyph glyph-name="asterisk" unicode="*" horiz-adv-x="745" 
d="M328 711q-15 0 -27 12t-12 27l4 184l-152 -105q-12 -9 -28.5 -5t-24.5 16l-45 71q-9 13 -7 30t17 26l176 104l-176 107q-13 9 -16.5 25.5t4.5 29.5q14 22 49 72q9 11 24 14t27 -6l152 -105l-4 187q0 15 12 27t27 12h84q15 0 27 -12t12 -27l-5 -187l154 105q12 8 29 5
t24 -15l45 -70q10 -13 7 -30.5t-17 -26.5l-176 -105l176 -106q14 -9 17 -25.5t-5 -28.5l-51 -71q-7 -12 -23 -15.5t-28 4.5l-152 103l5 -182q0 -15 -12 -27t-27 -12h-84z" />
    <glyph glyph-name="plus" unicode="+" horiz-adv-x="1089" 
d="M434 299v299h-299q-15 0 -27 12t-12 27v143q0 15 12 27t27 12h299v301q0 15 12 26t27 11h143q15 0 27 -11t12 -26v-301h301q15 0 26 -12t11 -27v-143q0 -15 -11 -27t-26 -12h-301v-299q0 -15 -12 -26t-27 -11h-143q-15 0 -27 11t-12 26z" />
    <glyph glyph-name="comma" unicode="," horiz-adv-x="567" 
d="M57 170q0 80 60.5 137.5t152.5 57.5q40 0 80.5 -16.5t77.5 -51t60.5 -97.5t23.5 -145q0 -41 -5.5 -81t-13.5 -72t-23 -65.5t-27 -57t-32.5 -51t-32 -42.5t-33.5 -37t-30 -29.5t-28 -25t-21 -18.5q-13 -11 -28.5 -12t-28.5 12l-43 49q-12 13 -11.5 29.5t15.5 28.5
q182 146 184 319q-45 -22 -106 -22q-77 0 -134 56t-57 134z" />
    <glyph glyph-name="hyphen" unicode="-" horiz-adv-x="735" 
d="M133 365q-17 0 -28 10.5t-11 25.5v187q0 17 11 28t28 11h469q17 0 28 -11t11 -28v-187q0 -15 -11 -25.5t-28 -10.5h-469z" />
    <glyph glyph-name="period" unicode="." horiz-adv-x="499" 
d="M55 172q0 80 57.5 138.5t135.5 58.5q79 0 137.5 -58.5t58.5 -138.5q0 -78 -58 -135t-138 -57q-78 0 -135.5 57t-57.5 135z" />
    <glyph glyph-name="slash" unicode="/" horiz-adv-x="761" 
d="M49 51l402 1356q3 11 13.5 19t22.5 8h201q22 0 32.5 -15t4.5 -37l-399 -1355q-3 -10 -14.5 -18.5t-22.5 -8.5h-203q-21 0 -32 15t-5 36z" />
    <glyph glyph-name="zero" unicode="0" horiz-adv-x="1277" 
d="M639 -20q-250 0 -387 189t-137 527t137.5 527.5t386.5 189.5t386.5 -189.5t137.5 -527.5t-137 -527t-387 -189zM639 276q94 0 144.5 109t50.5 311q0 201 -50.5 310.5t-144.5 109.5t-144.5 -109.5t-50.5 -310.5q0 -202 50.5 -311t144.5 -109z" />
    <glyph glyph-name="one" unicode="1" horiz-adv-x="765" 
d="M285 39v922h-197q-15 0 -26 11.5t-11 26.5v129q0 19 12 31l299 234h189q15 0 26 -12t11 -27v-1315q0 -15 -11 -27t-26 -12h-227q-17 0 -28 11.5t-11 27.5z" />
    <glyph glyph-name="two" unicode="2" horiz-adv-x="1052" 
d="M47 39v41q110 144 285.5 385t257.5 366q53 80 53 156q0 62 -48.5 105t-131.5 43q-57 0 -109.5 -31.5t-89.5 -71.5q-12 -12 -28.5 -12t-28.5 12l-125 127q-11 9 -11.5 25t9.5 28q7 8 19.5 21.5t54 48.5t86 61.5t113 48t136.5 21.5q213 0 339 -119t126 -295
q0 -52 -11.5 -99t-24.5 -77t-44 -90q-30 -52 -85.5 -132.5t-138.5 -194.5t-105 -144h360q15 0 27 -12t12 -27v-184q0 -15 -12 -27t-27 -12h-819q-17 0 -28 11.5t-11 27.5z" />
    <glyph glyph-name="three" unicode="3" horiz-adv-x="1058" 
d="M61 162q-9 11 -8 25.5t10 25.5l130 129q24 24 51 4q14 -11 38 -26.5t83.5 -41.5t103.5 -26q68 0 123 49t55 115q0 70 -66.5 118t-177.5 48h-114q-15 0 -27 12t-12 27v170q0 17 11.5 27.5t27.5 10.5h114q104 0 162 44.5t58 113.5q0 65 -48.5 109.5t-115.5 44.5
q-105 0 -178 -82q-10 -12 -27 -12.5t-29 10.5l-125 123q-12 11 -11.5 26.5t11.5 26.5l19.5 19.5t54 43.5t84.5 54.5t107.5 43t126.5 19.5q184 0 313 -104t129 -271q0 -108 -65 -193.5t-146 -123.5v-6q39 -17 80 -47.5t79.5 -73.5t63.5 -102t25 -121q0 -169 -133.5 -280
t-343.5 -111q-90 0 -168.5 20t-130.5 51.5t-82.5 58t-51.5 52.5z" />
    <glyph glyph-name="four" unicode="4" horiz-adv-x="1228" 
d="M68 289q-17 0 -28 11.5t-11 27.5v217l714 858q12 12 31 12h148q16 0 27.5 -11t11.5 -28l2 -839h161q17 0 28 -11t11 -26v-170q0 -16 -11 -27.5t-28 -11.5h-161l2 -252q0 -15 -12 -27t-27 -12h-219q-15 0 -27 12t-12 27v250h-600zM350 543h326v381z" />
    <glyph glyph-name="five" unicode="5" horiz-adv-x="1079" 
d="M106 150q-21 24 -21.5 37t17.5 32l129 127q9 9 23.5 11t26.5 -5q16 -11 43 -27.5t91.5 -43.5t108.5 -27q84 0 139.5 55.5t55.5 139.5q0 86 -57 142t-154 56h-315q-29 0 -46.5 22.5t-17.5 49.5v635q0 16 11 27.5t28 11.5h659q17 0 28 -11.5t11 -27.5v-180q0 -16 -11 -27.5
t-28 -11.5h-421v-220h145q210 0 338.5 -131t128.5 -335q0 -194 -146.5 -331.5t-359.5 -137.5q-98 0 -187.5 31.5t-138.5 66.5t-80 72z" />
    <glyph glyph-name="six" unicode="6" horiz-adv-x="1101" 
d="M76 537q0 124 29.5 236.5t76 196t110.5 157t127 123.5t132 90.5t119 62t94 35.5q46 15 63 -33l60 -158q14 -44 -39 -59q-368 -119 -412 -336q40 17 97 29t98 12q75 0 145.5 -27.5t130 -80t95.5 -140t36 -196.5q0 -193 -138.5 -331t-330.5 -138q-116 0 -210 42t-155.5 117
t-94.5 176.5t-33 221.5zM369 459q0 -80 57.5 -138.5t138.5 -58.5t139 58.5t58 138.5q0 82 -57.5 140t-139.5 58t-139 -58t-57 -140z" />
    <glyph glyph-name="seven" unicode="7" horiz-adv-x="1011" 
d="M76 39v22l512 1069h-475q-15 0 -27 12t-12 27v185q0 15 12 27t27 12h864q15 0 27 -12t12 -27v-15l-613 -1280q-17 -35 -37 -47t-47 -12h-202q-17 0 -29 11t-12 28z" />
    <glyph glyph-name="eight" unicode="8" horiz-adv-x="1161" 
d="M82 371q0 51 23 103t53.5 89.5t69.5 72.5t62.5 52t41.5 27v6q-34 19 -67.5 46.5t-67.5 67t-55 93t-21 110.5q0 168 131 271.5t323 103.5q199 0 332 -103.5t133 -271.5q0 -55 -21 -106.5t-55.5 -91.5t-66.5 -67t-68 -50v-8q41 -23 79 -52t79.5 -72t66.5 -100.5t25 -119.5
q0 -170 -138.5 -280.5t-365.5 -110.5q-220 0 -356.5 111t-136.5 280zM580 856q70 26 107.5 71t37.5 99q0 53 -43.5 93t-101.5 40q-57 0 -100.5 -40t-43.5 -93q0 -115 144 -170zM414 385q0 -65 51 -109.5t117 -44.5q64 0 115 45t51 109q0 59 -43.5 110t-124.5 78
q-78 -27 -122 -78.5t-44 -109.5z" />
    <glyph glyph-name="nine" unicode="9" horiz-adv-x="1099" 
d="M213 158q-14 44 39 59q368 119 412 336q-40 -17 -97 -29t-98 -12q-59 0 -116.5 16.5t-110.5 52.5t-93 87.5t-64 125.5t-24 162q0 193 138.5 331t330.5 138q155 0 268 -73t169.5 -198t56.5 -286q0 -124 -28.5 -236.5t-74.5 -196t-109 -157t-126 -123.5t-131.5 -90.5
t-120.5 -62.5t-98 -35q-48 -12 -64 33zM535 748q82 0 139 58t57 140q0 80 -57.5 138.5t-138.5 58.5t-139 -58.5t-58 -138.5q0 -82 57.5 -140t139.5 -58z" />
    <glyph glyph-name="colon" unicode=":" horiz-adv-x="532" 
d="M266 514q-68 0 -115 47t-47 115t47.5 116t114.5 48q68 0 116 -48t48 -116q0 -67 -48 -114.5t-116 -47.5zM104 141q0 68 47.5 116t114.5 48q68 0 116 -48.5t48 -115.5t-48 -114t-116 -47t-115 47t-47 114z" />
    <glyph glyph-name="semicolon" unicode=";" horiz-adv-x="485" 
d="M219 514q-67 0 -114.5 47t-47.5 115t47.5 116t114.5 48t115.5 -48t48.5 -116q0 -67 -48 -114.5t-116 -47.5zM68 125q0 61 46 104t115 43q32 0 62.5 -12.5t59.5 -38.5t47 -74.5t18 -111.5q0 -51 -10 -98t-30 -85t-37 -65.5t-45 -55t-37.5 -36.5t-31.5 -27q-25 -18 -45 4
l-30 31q-10 13 -9 25t11 20q11 8 24 18.5t36 35t40 50.5t30.5 64.5t14.5 77.5q-35 -14 -82 -14q-61 0 -104 42t-43 103z" />
    <glyph glyph-name="less" unicode="&#x3c;" horiz-adv-x="890" 
d="M55 430q-8 5 -14 15.5t-6 19.5v10q0 9 6 19.5t14 15.5l717 434q20 12 38.5 2t18.5 -35v-178q0 -6 -5 -15.5t-11 -12.5l-391 -232l391 -223q6 -3 11 -13t5 -16v-178q0 -25 -18.5 -35t-38.5 2z" />
    <glyph glyph-name="equal" unicode="=" horiz-adv-x="989" 
d="M147 678q-17 0 -27.5 11.5t-10.5 27.5v143q0 16 10.5 27.5t27.5 11.5h695q17 0 28 -11.5t11 -27.5v-143q0 -16 -11 -27.5t-28 -11.5h-695zM147 246q-17 0 -27.5 11.5t-10.5 27.5v145q0 16 10.5 27.5t27.5 11.5h695q17 0 28 -11.5t11 -27.5v-145q0 -16 -11 -27.5
t-28 -11.5h-695z" />
    <glyph glyph-name="greater" unicode="&#x3e;" horiz-adv-x="890" 
d="M61 43v178q0 6 5.5 16t11.5 13l391 223l-391 232q-6 3 -11.5 12.5t-5.5 15.5v178q0 24 19 34.5t39 -1.5l717 -434q8 -5 14 -15.5t6 -19.5v-10q0 -9 -6 -19.5t-14 -15.5l-717 -420q-20 -12 -39 -1.5t-19 34.5z" />
    <glyph glyph-name="question" unicode="?" horiz-adv-x="927" 
d="M315 557q-16 0 -27.5 11t-11.5 28v86q0 40 21 78.5t52.5 67t68 59t68 56t52.5 57t21 61.5q0 48 -44 84.5t-109 36.5q-39 0 -74.5 -13t-55 -29.5t-41 -31.5t-33 -18.5t-30.5 8.5l-125 123q-12 11 -11.5 26.5t11.5 26.5q6 7 18 19.5t52.5 43.5t85 54.5t115.5 43t145 19.5
q108 0 204 -45.5t155 -129t59 -183.5q0 -63 -23 -115.5t-57 -85.5t-74 -67.5t-74 -63.5t-57 -73t-23 -95q0 -17 -11.5 -28t-26.5 -11h-220zM231 172q0 80 57.5 138.5t135.5 58.5q80 0 138.5 -58.5t58.5 -138.5q0 -78 -58.5 -135t-138.5 -57q-78 0 -135.5 57t-57.5 135z" />
    <glyph glyph-name="at" unicode="@" horiz-adv-x="2027" 
d="M53 457q0 216 73 401t203 316t314.5 205.5t400.5 74.5q212 0 385 -65.5t287.5 -181.5t176 -274t61.5 -343q0 -84 -16 -167t-53.5 -164t-92 -142.5t-138.5 -99t-186 -37.5q-177 0 -245 159h-17q-36 -69 -107.5 -114t-164.5 -45q-115 0 -202.5 61.5t-131 158t-43.5 208.5
q0 177 110.5 304.5t274.5 127.5q135 0 252 -127q4 8 13 32.5t14.5 37t17 24.5t25.5 12h84q15 0 26.5 -11t11.5 -28v-344q0 -63 10 -105.5t28 -61.5t36 -26t41 -7q43 0 77.5 31t54.5 81.5t30 108t10 116.5q0 134 -40.5 247t-118 197t-200.5 131.5t-280 47.5
q-325 0 -517.5 -199.5t-192.5 -539.5q0 -227 130 -411.5t341 -270.5q14 -6 21 -20t3 -27l-61 -168q-6 -16 -19.5 -23.5t-27.5 -1.5q-140 47 -261 138t-209 210.5t-138 268.5t-50 305zM811 416q0 -81 43.5 -127.5t106.5 -46.5q62 0 103.5 51.5t41.5 124.5q0 77 -42.5 126.5
t-109.5 49.5q-64 0 -103.5 -51t-39.5 -127z" />
    <glyph glyph-name="A" unicode="A" horiz-adv-x="1355" 
d="M27 0q-23 0 -33.5 16.5t-1.5 36.5l641 1379q11 22 35 22h20q24 0 35 -22l641 -1379q9 -20 -1.5 -36.5t-33.5 -16.5h-227q-28 0 -43.5 11t-28.5 40l-74 162h-557l-73 -164q-20 -49 -74 -49h-225zM522 492h312l-156 337h-2z" />
    <glyph glyph-name="B" unicode="B" horiz-adv-x="1253" 
d="M176 39v1356q0 16 11 27.5t28 11.5h477q183 0 312 -110.5t129 -270.5q0 -56 -23 -109t-60.5 -94t-76 -70.5t-78.5 -50.5q47 -20 89.5 -46t87 -66t71 -97.5t26.5 -124.5q0 -112 -60.5 -203t-162.5 -141.5t-223 -50.5h-508q-17 0 -28 11.5t-11 27.5zM496 852h159
q59 0 101.5 43t42.5 104q0 60 -42 100t-102 40h-159v-287zM496 293h186q60 0 103.5 43.5t43.5 105.5q0 59 -52 101.5t-115 42.5h-166v-293z" />
    <glyph glyph-name="C" unicode="C" horiz-adv-x="1378" 
d="M72 715q0 151 58.5 288t157 235.5t235.5 157t288 58.5t270.5 -46.5t225.5 -143.5q13 -12 13.5 -29t-11.5 -29l-160 -166q-11 -10 -26 -10t-25 10q-117 105 -277 105q-171 0 -286 -124t-115 -298q0 -172 116 -294t287 -122q73 0 146.5 26t128.5 73q10 9 27 8t26 -11
l160 -170q10 -11 9.5 -27.5t-11.5 -27.5q-204 -198 -498 -198q-101 0 -197 26t-177 73t-149 114.5t-115.5 148.5t-74 176.5t-26.5 196.5z" />
    <glyph glyph-name="D" unicode="D" horiz-adv-x="1505" 
d="M176 39v1356q0 15 11 27t26 12h500q145 0 278.5 -57t230 -153t153.5 -228t57 -277q0 -117 -36.5 -227t-103 -198t-155 -154.5t-198 -103t-226.5 -36.5h-500q-15 0 -26 12t-11 27zM496 303h196q172 0 286 120t114 296q0 175 -114 294.5t-286 119.5h-196v-830z" />
    <glyph glyph-name="E" unicode="E" horiz-adv-x="1200" 
d="M176 39v1356q0 16 11 27.5t28 11.5h848q17 0 28 -11.5t11 -27.5v-224q0 -15 -11 -26.5t-28 -11.5h-567v-254h467q15 0 26.5 -12t11.5 -27v-224q0 -17 -11 -27.5t-27 -10.5h-467v-277h567q17 0 28 -11.5t11 -27.5v-223q0 -16 -11 -27.5t-28 -11.5h-848q-17 0 -28 11.5
t-11 27.5z" />
    <glyph glyph-name="F" unicode="F" horiz-adv-x="1153" 
d="M176 39v1356q0 16 11 27.5t28 11.5h848q17 0 28 -11.5t11 -27.5v-224q0 -15 -11 -26.5t-28 -11.5h-567v-295h467q15 0 26.5 -12t11.5 -27v-224q0 -15 -11.5 -26.5t-26.5 -11.5h-467v-498q0 -15 -12 -27t-27 -12h-242q-17 0 -28 11.5t-11 27.5z" />
    <glyph glyph-name="G" unicode="G" horiz-adv-x="1437" 
d="M74 715q0 151 58 287.5t156 235t234.5 156.5t286.5 58q130 0 263 -51t237 -141q14 -11 15 -27.5t-11 -28.5l-162 -172q-27 -23 -55 -2q-106 98 -269 98q-167 0 -285 -122t-118 -291q0 -168 119 -288t286 -120q102 0 183 33v119h-129q-17 0 -28 11t-11 26v202q0 17 11 28
t28 11h411q15 0 26 -12t11 -27l2 -551q0 -20 -16 -32q-9 -5 -25 -14t-68 -32t-108 -40.5t-140 -32t-167 -14.5q-150 0 -286.5 57.5t-234.5 155t-156 233.5t-58 287z" />
    <glyph glyph-name="H" unicode="H" horiz-adv-x="1581" 
d="M176 39v1356q0 15 12 27t27 12h244q17 0 28 -11.5t11 -27.5v-516h585v516q0 16 11 27.5t28 11.5h244q15 0 27 -12t12 -27v-1356q0 -15 -12 -27t-27 -12h-244q-17 0 -28 11.5t-11 27.5v539h-585v-539q0 -16 -11 -27.5t-28 -11.5h-244q-15 0 -27 12t-12 27z" />
    <glyph glyph-name="I" unicode="I" horiz-adv-x="675" 
d="M176 39v1356q0 15 12 27t27 12h246q15 0 27 -12t12 -27v-1356q0 -15 -12 -27t-27 -12h-246q-15 0 -27 12t-12 27z" />
    <glyph glyph-name="J" unicode="J" horiz-adv-x="868" 
d="M-29 129q-17 27 4 51l140 137q12 11 27.5 11.5t27.5 -11.5q22 -22 44 -32.5t60 -10.5q47 0 84 42t37 114v965q0 16 11 27.5t28 11.5h250q17 0 28 -11.5t11 -27.5v-967q0 -138 -60.5 -241.5t-159 -155t-220.5 -51.5q-191 0 -312 149z" />
    <glyph glyph-name="K" unicode="K" horiz-adv-x="1378" 
d="M176 49v1335q0 21 14 35.5t35 14.5h240q20 0 34.5 -15t14.5 -35v-538l455 567q17 21 39 21h258q29 0 41.5 -26.5t-4.5 -49.5l-480 -600l523 -680q17 -23 3.5 -49.5t-42.5 -26.5h-283q-10 0 -22 4.5t-15 9.5l-473 643v-610q0 -20 -14.5 -34.5t-34.5 -14.5h-240
q-21 0 -35 14t-14 35z" />
    <glyph glyph-name="L" unicode="L" horiz-adv-x="1046" 
d="M176 39v1356q0 16 11 27.5t28 11.5h244q15 0 27 -12t12 -27v-1094h487q17 0 28 -11.5t11 -27.5v-223q0 -16 -11 -27.5t-28 -11.5h-770q-17 0 -28 11.5t-11 27.5z" />
    <glyph glyph-name="M" unicode="M" horiz-adv-x="1798" 
d="M86 45l231 1376q1 13 13 23t24 10h33q8 0 19.5 -6t15.5 -14l475 -885h4l475 885q4 8 15.5 14t19.5 6h33q12 0 24 -10t13 -23l231 -1376q3 -20 -8.5 -32.5t-30.5 -12.5h-241q-13 0 -25 10.5t-14 22.5l-93 633h-4l-344 -664q-4 -9 -15 -15.5t-19 -6.5h-37q-9 0 -20 6.5
t-15 15.5l-346 664h-4l-90 -633q-2 -13 -13.5 -23t-25.5 -10h-242q-19 0 -30.5 12.5t-8.5 32.5z" />
    <glyph glyph-name="N" unicode="N" horiz-adv-x="1583" 
d="M176 39l-2 1378q0 15 12 26t27 11h51l817 -786h2v727q0 16 11 27.5t28 11.5h246q15 0 27 -12t12 -27v-1379q0 -15 -12 -25.5t-27 -10.5h-33q-16 0 -26 10l-809 813h-2v-764q0 -16 -11 -27.5t-28 -11.5h-244q-15 0 -27 12t-12 27z" />
    <glyph glyph-name="O" unicode="O" horiz-adv-x="1615" 
d="M72 715q0 101 26 197t73 177t114.5 149t148.5 115.5t176.5 74t196.5 26.5q151 0 287.5 -58t235 -157t156.5 -236t58 -288t-58 -287.5t-156.5 -234.5t-235 -155.5t-287.5 -57.5t-287.5 57.5t-234.5 155.5t-155.5 234.5t-57.5 287.5zM399 715q0 -167 120.5 -287.5
t287.5 -120.5q169 0 289.5 120.5t120.5 287.5q0 169 -120.5 290t-289.5 121q-167 0 -287.5 -121t-120.5 -290z" />
    <glyph glyph-name="P" unicode="P" horiz-adv-x="1206" 
d="M176 39v1356q0 16 11 27.5t28 11.5h494q189 0 323.5 -133.5t134.5 -319.5q0 -125 -61.5 -231t-166.5 -168t-228 -62h-215v-481q0 -15 -12 -27t-27 -12h-242q-17 0 -28 11.5t-11 27.5zM496 819h194q67 0 114.5 47t47.5 115q0 64 -47.5 108t-114.5 44h-194v-314z" />
    <glyph glyph-name="Q" unicode="Q" horiz-adv-x="1622" 
d="M72 715q0 101 26 197t73 177t114.5 149t148.5 115.5t176.5 74t196.5 26.5q151 0 287.5 -58t235 -157t156.5 -236t58 -288q0 -196 -103.5 -368t-275.5 -277l265 -414q12 -22 1.5 -42t-34.5 -20h-277q-20 0 -33 21l-217 367q-25 -2 -63 -2q-151 0 -287.5 57.5t-234.5 155.5
t-155.5 234.5t-57.5 287.5zM399 715q0 -167 120.5 -287.5t287.5 -120.5q169 0 289.5 120.5t120.5 287.5q0 169 -120.5 290t-289.5 121q-167 0 -287.5 -121t-120.5 -290z" />
    <glyph glyph-name="R" unicode="R" horiz-adv-x="1372" 
d="M176 39v1356q0 16 11 27.5t28 11.5h612q121 0 224 -59.5t163 -161.5t60 -222q0 -138 -83 -247t-220 -164l280 -521q11 -20 1 -39.5t-35 -19.5h-273q-24 0 -33 18l-272 543h-141v-522q0 -15 -12 -27t-27 -12h-244q-17 0 -28 11.5t-11 27.5zM498 821h303q63 0 109 49.5
t46 114.5q0 64 -46 110t-109 46h-303v-320z" />
    <glyph glyph-name="S" unicode="S" horiz-adv-x="1122" 
d="M104 137q-16 16 -18.5 25.5t8.5 32.5l96 170q11 18 36 19.5t34 -7.5l15 -9q15 -10 34 -22t48.5 -27t59.5 -27t66 -20t68 -8q62 0 101.5 34.5t39.5 88.5q0 124 -211 207q-58 23 -109.5 50t-106 68.5t-93 88.5t-63.5 111t-25 135q0 78 30.5 149.5t87.5 129.5t149 93t206 35
q229 0 438 -154q17 -9 19 -32.5t-6 -32.5l-105 -158q-11 -18 -33 -27t-36 1q-1 1 -24.5 16.5t-51.5 31.5t-64 34t-77 29.5t-76 11.5q-54 0 -91.5 -31.5t-37.5 -73.5q0 -58 51.5 -104t171.5 -95q58 -23 105.5 -46t108 -65t101.5 -89t70 -117t29 -150t-34 -155.5t-94.5 -135
t-153.5 -96t-202 -36.5q-93 0 -175.5 17t-139 44.5t-90.5 50.5t-56 45z" />
    <glyph glyph-name="T" unicode="T" 
d="M360 39v1094h-292q-17 0 -28 11.5t-11 26.5v224q0 16 11 27.5t28 11.5h909q17 0 28 -11.5t11 -27.5v-224q0 -15 -11 -26.5t-28 -11.5h-293v-1094q0 -15 -12 -27t-27 -12h-246q-15 0 -27 12t-12 27z" />
    <glyph glyph-name="U" unicode="U" horiz-adv-x="1476" 
d="M156 549v846q0 15 12 27t27 12h251q17 0 28 -11.5t11 -27.5v-830q0 -108 72 -183t180 -75q109 0 182.5 75t73.5 183v830q0 16 11 27.5t28 11.5h252q15 0 27 -12t12 -27v-846q0 -153 -78.5 -284t-213.5 -208t-294 -77q-158 0 -292 77t-211.5 208t-77.5 284z" />
    <glyph glyph-name="V" unicode="V" horiz-adv-x="1355" 
d="M631 2l-639 1378q-9 20 1.5 37t33.5 17h272q11 0 21.5 -7.5t13.5 -15.5l338 -747h12l338 747q3 8 13.5 15.5t21.5 7.5h272q23 0 33.5 -17t1.5 -37l-643 -1378q-11 -22 -35 -22h-20q-24 0 -35 22z" />
    <glyph glyph-name="W" unicode="W" horiz-adv-x="1835" 
d="M436 8l-387 1376q-6 22 4.5 36t32.5 14h240q12 0 22.5 -9t13.5 -20l177 -694h8l317 721q11 22 35 22h37q28 0 35 -22l317 -721h8l177 694q3 11 13.5 20t22.5 9h240q22 0 32.5 -14t4.5 -36l-387 -1376q-3 -12 -14 -20t-23 -8h-33q-24 0 -35 22l-374 838h-7l-372 -838
q-11 -22 -35 -22h-33q-12 0 -23 8t-14 20z" />
    <glyph glyph-name="X" unicode="X" horiz-adv-x="1341" 
d="M49 57l430 678l-413 641q-13 20 -2.5 39t36.5 19h299q19 0 33 -19l236 -381h2l239 381q3 7 13 13t20 6h299q26 0 37.5 -19t-2.5 -39l-416 -641l430 -678q13 -22 2.5 -39.5t-35.5 -17.5h-284q-24 0 -35 18l-268 414h-4l-263 -414q-14 -18 -34 -18h-285q-26 0 -37.5 18.5
t2.5 38.5z" />
    <glyph glyph-name="Y" unicode="Y" horiz-adv-x="1208" 
d="M440 39v651l-452 684q-12 20 -2 40t34 20h267q18 0 32 -19l285 -420l285 420q14 19 33 19h266q24 0 34.5 -20t-1.5 -40l-459 -682v-653q0 -15 -12 -27t-27 -12h-244q-17 0 -28 11.5t-11 27.5z" />
    <glyph glyph-name="Z" unicode="Z" horiz-adv-x="1110" 
d="M47 39v37l545 1052v5h-447q-15 0 -27 11.5t-12 26.5v224q0 15 12 27t27 12h871q15 0 27 -12t12 -27v-27l-527 -1063v-4h447q17 0 28 -11.5t11 -27.5v-223q0 -16 -11 -27.5t-28 -11.5h-889q-15 0 -27 12t-12 27z" />
    <glyph glyph-name="bracketleft" unicode="[" horiz-adv-x="739" 
d="M406 -375h260q15 0 27 -11t12 -26v-166q0 -15 -12 -26.5t-27 -11.5h-504q-15 0 -27 11.5t-12 26.5v1973q0 15 12 27t27 12h504q15 0 27 -12t12 -27v-164q0 -17 -11.5 -28t-27.5 -11h-260v-1567z" />
    <glyph glyph-name="backslash" unicode="\" horiz-adv-x="761" 
d="M436 27l-399 1355q-6 22 4.5 37t32.5 15h200q12 0 23 -8t14 -19l402 -1356q6 -21 -5 -36t-32 -15h-203q-11 0 -22.5 8.5t-14.5 18.5z" />
    <glyph glyph-name="bracketright" unicode="]" horiz-adv-x="739" 
d="M74 -375h260v1567h-260q-16 0 -27.5 11t-11.5 28v164q0 15 12 27t27 12h504q15 0 26.5 -12t11.5 -27v-1973q0 -15 -11.5 -26.5t-26.5 -11.5h-504q-15 0 -27 11.5t-12 26.5v166q0 15 12 26t27 11z" />
    <glyph glyph-name="asciicircum" unicode="^" horiz-adv-x="1073" 
d="M102 774q-24 0 -34 18.5t2 38.5l432 611q5 8 15.5 14t19.5 6h10q9 0 19.5 -6t15.5 -14l422 -611q12 -20 2 -38.5t-35 -18.5h-178q-6 0 -16 5.5t-13 11.5l-225 305l-230 -305q-3 -6 -12.5 -11.5t-15.5 -5.5h-179z" />
    <glyph glyph-name="underscore" unicode="_" horiz-adv-x="882" 
d="M35 -59q0 17 11 28t28 11h735q17 0 28 -11t11 -28v-105q0 -15 -11 -26t-28 -11h-735q-17 0 -28 11t-11 26v105z" />
    <glyph glyph-name="grave" unicode="`" horiz-adv-x="618" 
d="M475 1049l-373 168q-33 21 -12 61l70 121q7 12 26 12.5t27 -6.5l348 -213q23 -18 12 -39l-43 -86q-20 -39 -55 -18z" />
    <glyph glyph-name="a" unicode="a" horiz-adv-x="878" 
d="M55 250q0 121 82 197.5t219 76.5q41 0 80.5 -8t58.5 -16l19 -8q0 66 -21 93t-90 27q-41 0 -102.5 -9t-101.5 -21q-42 -13 -49 43l-19 129q-7 42 31 55q21 7 110 19t162 12q188 0 267 -82t79 -266v-453q0 -15 -12 -27t-27 -12h-90q-25 0 -37 27l-28 55q-31 -28 -57.5 -47
t-78.5 -37t-112 -18q-123 0 -203 75t-80 195zM322 270q0 -37 25.5 -63.5t62.5 -26.5t63.5 26.5t26.5 63.5q-2 36 -28 61t-62 25q-37 0 -62.5 -25.5t-25.5 -60.5z" />
    <glyph glyph-name="b" unicode="b" 
d="M111 39v1356q0 15 12 27t27 12h227q15 0 27 -12t12 -27v-594q23 13 73 26t97 13q84 0 156.5 -27t129 -79t89 -135.5t32.5 -188.5q0 -117 -52.5 -215.5t-146 -156.5t-206.5 -58q-50 0 -97 13.5t-78 32t-54.5 37.5t-34.5 33l-11 13l-24 -68q-14 -41 -43 -41h-96
q-15 0 -27 12t-12 27zM383 412q0 -71 47 -119.5t117 -48.5t118 48.5t48 119.5q0 69 -48 116t-118 47t-117 -47t-47 -116z" />
    <glyph glyph-name="c" unicode="c" horiz-adv-x="860" 
d="M47 410q0 118 61.5 217.5t163 156t217.5 56.5q185 0 308 -148q10 -14 6.5 -29t-17.5 -28l-122 -117q-8 -7 -23 -5.5t-23 9.5q-50 53 -118 53q-67 0 -115.5 -48.5t-48.5 -116.5q0 -69 46.5 -117.5t113.5 -48.5q49 0 78.5 16t60.5 47q25 25 45 8l123 -106q33 -30 14 -57
q-114 -172 -330 -172q-178 0 -309 124.5t-131 305.5z" />
    <glyph glyph-name="d" unicode="d" 
d="M51 410q0 105 32.5 188.5t89.5 135.5t129.5 79t156.5 27q47 0 97 -13t73 -26v594q0 15 12 27t27 12h227q15 0 27 -12t12 -27v-1356q0 -15 -12 -27t-27 -12h-96q-29 0 -43 41l-25 68q-4 -5 -11.5 -14t-33.5 -31t-55 -39t-76.5 -31t-97.5 -14q-172 0 -289 125.5t-117 304.5
zM332 412q0 -71 48 -119.5t118 -48.5t117 48.5t47 119.5q0 69 -47 116t-117 47t-118 -47t-48 -116z" />
    <glyph glyph-name="e" unicode="e" horiz-adv-x="899" 
d="M49 410q0 176 122.5 303t301.5 127q160 0 274.5 -109.5t114.5 -275.5q0 -28 -4 -56q-1 -15 -13 -24.5t-26 -9.5h-491q6 -50 45.5 -93t111.5 -43q36 0 76.5 15t67.5 35q13 11 27.5 11t23.5 -11l102 -123q10 -13 10.5 -29t-12.5 -31q-116 -116 -303 -116
q-181 0 -304.5 125.5t-123.5 304.5zM354 524h219q-3 39 -35.5 68t-72.5 29q-41 0 -73 -28.5t-38 -68.5z" />
    <glyph glyph-name="f" unicode="f" horiz-adv-x="729" 
d="M154 39v520h-43q-17 0 -28 11.5t-11 27.5v182q0 17 11 28t28 11h43v189q0 210 115.5 328t299.5 118q74 0 147.5 -25t102.5 -53q9 -8 11.5 -22t-3.5 -25l-86 -170q-5 -11 -20 -15.5t-27 1.5q-64 33 -106 33q-62 0 -91.5 -45.5t-29.5 -124.5v-189h188q17 0 28 -11t11 -28
v-182q0 -16 -11 -27.5t-28 -11.5h-188v-520q0 -15 -12 -27t-27 -12h-235q-15 0 -27 12t-12 27z" />
    <glyph glyph-name="g" unicode="g" horiz-adv-x="952" 
d="M23 74q0 45 17 85t40.5 64.5t47.5 42.5t41 26l17 7q-7 7 -16.5 20.5t-26 61.5t-16.5 104q0 144 106 249.5t254 105.5h387q17 0 28 -11t11 -28v-84q0 -24 -22 -35l-119 -43q3 -3 8.5 -8t19 -23.5t23.5 -39.5t18.5 -55.5t8.5 -72.5q0 -120 -99.5 -214.5t-254.5 -94.5h-148
q-32 0 -49.5 -15t-17.5 -40q0 -27 19.5 -41.5t45.5 -14.5h246q149 0 250.5 -83t101.5 -216q0 -158 -115 -257t-346 -99q-114 0 -200 25t-134 66.5t-71 89t-23 98.5q0 43 15.5 80t39.5 60.5t40 36t30 19.5v6q-15 5 -36.5 17.5t-51 38t-49.5 71t-20 101.5zM387 467
q0 -46 31.5 -76.5t77.5 -30.5q47 0 77.5 30.5t30.5 76.5t-30.5 76t-77.5 30q-46 0 -77.5 -30.5t-31.5 -75.5zM336 -299q0 -44 37.5 -70t109.5 -26q73 0 110.5 26.5t37.5 69.5q0 37 -35.5 61.5t-112.5 24.5q-61 0 -104 -22t-43 -64z" />
    <glyph glyph-name="h" unicode="h" horiz-adv-x="1085" 
d="M111 39v1356q0 15 12 27t27 12h227q15 0 27 -12t12 -27v-602q92 47 190 47q94 0 169.5 -35t123 -95t73 -137t25.5 -163v-371q0 -15 -12 -27t-27 -12h-217q-17 0 -28 11.5t-11 27.5v375q0 69 -41.5 115t-107.5 46q-58 0 -97.5 -37.5t-39.5 -123.5v-375q0 -21 -9.5 -30
t-35.5 -9h-221q-15 0 -27 12t-12 27z" />
    <glyph glyph-name="i" unicode="i" horiz-adv-x="524" 
d="M260 1067q-68 0 -115 47.5t-47 114.5q0 68 47.5 116t114.5 48q68 0 116 -48.5t48 -115.5t-48 -114.5t-116 -47.5zM111 39v741q0 17 11.5 28t27.5 11h225q16 0 27.5 -11t11.5 -28v-741q0 -15 -12 -27t-27 -12h-225q-15 0 -27 12t-12 27z" />
    <glyph glyph-name="j" unicode="j" horiz-adv-x="526" 
d="M262 1067q-68 0 -115 47.5t-47 114.5q0 68 47.5 116t114.5 48q68 0 116 -48.5t48 -115.5t-48 -114.5t-116 -47.5zM111 -188v968q0 17 11.5 28t27.5 11h227q16 0 27.5 -11t11.5 -28v-968q0 -210 -116 -328.5t-300 -118.5q-74 0 -147.5 25t-102.5 53q-9 8 -11.5 22t3.5 25
l86 170q5 11 20 15.5t27 -1.5q62 -32 107 -32q66 0 97.5 45.5t31.5 124.5z" />
    <glyph glyph-name="k" unicode="k" horiz-adv-x="1046" 
d="M111 39v1356q0 15 12 27t27 12h227q15 0 27 -12t12 -27v-887l248 287q24 24 51 24h229q27 0 37.5 -20.5t-6.5 -42.5l-270 -314l327 -381q17 -20 6.5 -40.5t-37.5 -20.5h-276q-6 0 -16.5 5t-14.5 11l-278 357v-334q0 -15 -12 -27t-27 -12h-227q-15 0 -27 12t-12 27z" />
    <glyph glyph-name="l" unicode="l" horiz-adv-x="524" 
d="M111 39v1356q0 15 12 27t27 12h225q15 0 27 -12t12 -27v-1356q0 -15 -12 -27t-27 -12h-225q-15 0 -27 12t-12 27z" />
    <glyph glyph-name="m" unicode="m" horiz-adv-x="1609" 
d="M111 39v741q0 17 11 28t28 11h94q24 0 35 -22l34 -84q122 127 277 127q84 0 147.5 -30.5t120.5 -94.5q125 125 283 125q93 0 166 -34t119 -93.5t70 -136.5t24 -166v-371q0 -16 -11 -27.5t-28 -11.5h-217q-17 0 -28 11.5t-11 27.5v383q0 66 -35.5 109.5t-102.5 43.5
q-55 0 -96 -40t-41 -99v-397q0 -16 -11 -27.5t-28 -11.5h-196q-17 0 -28 11.5t-11 27.5v383q0 67 -32 110t-97 43q-62 0 -103 -40t-41 -103v-393q0 -15 -11.5 -27t-26.5 -12h-215q-17 0 -28 11.5t-11 27.5z" />
    <glyph glyph-name="n" unicode="n" horiz-adv-x="1081" 
d="M111 39v741q0 17 11.5 28t27.5 11h96q10 0 21.5 -7t15.5 -17l32 -82q117 127 289 127q183 0 286 -122.5t103 -305.5v-373q0 -15 -12 -27t-27 -12h-219q-17 0 -28 11.5t-11 27.5v383q0 65 -36.5 109t-102.5 44q-63 0 -109.5 -40.5t-46.5 -102.5v-393q0 -39 -36 -39h-215
q-15 0 -27 12t-12 27z" />
    <glyph glyph-name="o" unicode="o" horiz-adv-x="946" 
d="M47 412q0 174 126 301t300 127t300 -127t126 -301q0 -177 -125.5 -304.5t-300.5 -127.5t-300.5 127.5t-125.5 304.5zM311 412q0 -69 47.5 -118.5t114.5 -49.5t114.5 49.5t47.5 118.5q0 68 -47.5 115.5t-114.5 47.5t-114.5 -47.5t-47.5 -115.5z" />
    <glyph glyph-name="p" unicode="p" 
d="M416 18v-593q0 -15 -12 -27t-27 -12h-227q-15 0 -27 12t-12 27v1355q0 15 12 27t27 12h96q29 0 43 -41l24 -67q4 5 11.5 14t33.5 31t55.5 39t77 31t97.5 14q113 0 206.5 -58t146 -156.5t52.5 -215.5q0 -105 -32.5 -188.5t-89 -135.5t-129 -79t-156.5 -27
q-48 0 -97.5 12.5t-72.5 25.5zM383 408q0 -69 47 -116.5t117 -47.5t118 47.5t48 116.5q0 71 -48 119t-118 48t-117 -48t-47 -119z" />
    <glyph glyph-name="q" unicode="q" 
d="M51 410q0 179 117 304.5t289 125.5q50 0 97 -13.5t77.5 -32t54 -37.5t34.5 -33l11 -13l25 67q14 41 43 41h96q15 0 27 -12t12 -27v-1355q0 -15 -12 -27t-27 -12h-227q-15 0 -27 12t-12 27v593q-23 -13 -72.5 -25.5t-97.5 -12.5q-84 0 -156.5 27t-129.5 79t-89.5 135.5
t-32.5 188.5zM332 408q0 -69 48 -116.5t118 -47.5t117 47.5t47 116.5q0 71 -47 119t-117 48t-118 -48t-48 -119z" />
    <glyph glyph-name="r" unicode="r" horiz-adv-x="706" 
d="M111 39v741q0 17 11.5 28t27.5 11h96q25 0 37 -24l36 -90q38 55 95 95t129 40q56 0 99 -12t61 -32.5t4 -43.5l-101 -164q-17 -29 -45 -19q-28 11 -49 11q-47 0 -78 -32.5t-31 -84.5v-424q0 -39 -45 -39h-208q-15 0 -27 12t-12 27z" />
    <glyph glyph-name="s" unicode="s" horiz-adv-x="759" 
d="M82 47q-26 22 -14 43l71 141q5 10 18.5 16.5t24.5 0.5q97 -53 185 -53q16 0 27.5 9t11.5 27q0 44 -117 86q-230 79 -230 275q0 109 81 178.5t239 69.5q89 0 160.5 -19t111.5 -45q37 -25 21 -51l-76 -139q-5 -9 -18 -13t-25 0q-94 48 -174 48q-45 0 -45 -29q0 -33 92 -66
q69 -24 115 -46.5t86.5 -55.5t60 -78.5t19.5 -105.5q0 -113 -90.5 -186.5t-256.5 -73.5q-95 0 -169.5 20t-108.5 47z" />
    <glyph glyph-name="t" unicode="t" horiz-adv-x="704" 
d="M143 264v295h-53q-15 0 -26 12t-11 27v182q0 17 11 28t26 11h53v228q0 15 12 26.5t27 11.5h219q15 0 26 -11.5t11 -26.5v-228h152q17 0 28 -11t11 -28v-182q0 -16 -11 -27.5t-28 -11.5h-152v-256q0 -49 56 -49q13 0 27 2.5t31 6.5t21 5q36 7 45 -26l46 -170
q3 -14 -4.5 -28.5t-22.5 -18.5q-146 -45 -248 -45q-118 0 -182 73t-64 211z" />
    <glyph glyph-name="u" unicode="u" 
d="M92 410v370q0 17 11.5 28t27.5 11h219q16 0 27.5 -11t11.5 -28v-379q0 -66 35 -111.5t96 -45.5q57 0 90 44t33 101v391q0 39 43 39h209q16 0 27.5 -11t11.5 -28v-741q0 -15 -12 -27t-27 -12h-96q-27 0 -39 29l-31 75q-58 -55 -88 -75q-78 -49 -188 -49q-89 0 -159 34
t-113.5 93.5t-66 136.5t-22.5 166z" />
    <glyph glyph-name="v" unicode="v" horiz-adv-x="872" 
d="M393 0l-385 764q-10 20 1 37.5t34 17.5h229q26 0 37 -22l121 -279h6l129 279q2 5 5 8.5t5 5.5t6 4t5.5 2.5t7.5 1t7.5 0.5h9h10.5h206q23 0 34 -17.5t1 -37.5l-389 -764q-5 -8 -15.5 -14t-19.5 -6h-10q-9 0 -19.5 6t-15.5 14z" />
    <glyph glyph-name="w" unicode="w" horiz-adv-x="1267" 
d="M293 4l-273 764q-7 20 4 35.5t33 15.5h195q10 0 22 -7t15 -17l106 -281h2l195 309q11 17 33 17h20q23 0 31 -17l196 -309h2l105 281q11 24 41 24h190q22 0 33 -15.5t4 -35.5l-272 -764q-3 -10 -14.5 -17t-22.5 -7h-8q-8 0 -19 5t-14 11l-264 410h-2l-260 -410
q-12 -16 -33 -16h-10q-10 0 -22 7t-13 17z" />
    <glyph glyph-name="x" unicode="x" horiz-adv-x="960" 
d="M70 0q-26 0 -35.5 20.5t4.5 40.5l266 357l-258 340q-15 20 -5 40.5t36 20.5h252q24 0 32 -16l115 -168h6l117 168q8 16 33 16h252q26 0 35.5 -20.5t-5.5 -40.5l-258 -338l261 -359q14 -20 4 -40.5t-35 -20.5h-248q-17 0 -31 18l-125 177h-6q-20 -28 -66.5 -91t-64.5 -88
q-12 -16 -33 -16h-243z" />
    <glyph glyph-name="y" unicode="y" horiz-adv-x="952" 
d="M319 84l-307 682q-9 20 1.5 36.5t33.5 16.5h234q23 0 34 -22l158 -381h4l162 381q3 9 13 15.5t22 6.5h231q23 0 34 -16.5t1 -36.5l-627 -1356q-12 -24 -34 -24h-230q-23 0 -34 16.5t-1 38.5z" />
    <glyph glyph-name="z" unicode="z" horiz-adv-x="755" 
d="M57 39v20l240 492v4h-182q-15 0 -26 12t-11 27v186q0 17 11 28t26 11h555q23 0 34 -16.5t1 -38.5l-259 -498v-4h183q17 0 28 -11t11 -28v-184q0 -16 -11 -27.5t-28 -11.5h-533q-15 0 -27 12t-12 27z" />
    <glyph glyph-name="braceleft" unicode="{" horiz-adv-x="804" 
d="M207 -39v213q0 102 -141 131q-12 1 -21.5 13t-9.5 24v119q0 12 8.5 23t17.5 14q6 2 16 5.5t35 16.5t44 27t35 36t16 46v227q0 102 17.5 186.5t46.5 143.5t71 105.5t86.5 75t97 47.5t98 27t95.5 11q17 1 28 -8.5t13 -26.5q2 -32 5 -88t5 -86q0 -12 -9 -24t-20 -15
q-225 -58 -225 -348v-186q0 -45 -18 -89t-43.5 -74t-51 -53t-43.5 -34l-18 -12v-9q25 -11 50.5 -28.5t55.5 -46.5t49 -73.5t19 -96.5v-193q0 -290 225 -348q11 -3 20 -15t9 -24q-3 -124 -10 -174q-2 -15 -14 -25.5t-27 -9.5q-50 3 -95.5 11t-98 27t-97 47.5t-86.5 75
t-71 105.5t-46.5 143.5t-17.5 186.5z" />
    <glyph glyph-name="bar" unicode="|" horiz-adv-x="356" 
d="M123 -578v2096q0 17 11.5 27.5t27.5 10.5h35q15 0 25.5 -10.5t10.5 -27.5v-2096q0 -15 -11.5 -25.5t-26.5 -10.5h-33q-15 0 -27 10.5t-12 25.5z" />
    <glyph glyph-name="braceright" unicode="}" horiz-adv-x="804" 
d="M289 -39v193q0 52 19 96.5t49 73.5t55.5 46.5t50.5 28.5v9q-7 4 -19 11.5t-42 33.5t-52.5 54.5t-41.5 73t-19 89.5v186q0 290 -226 348q-11 3 -19.5 15t-8.5 24q2 30 5 86t5 88q2 17 13 26.5t28 8.5q50 -3 95.5 -11t98 -27t97 -47.5t86.5 -75t71 -105.5t46.5 -143.5
t17.5 -186.5v-227q0 -24 15 -46t36 -36.5t42.5 -26t36.5 -16.5l15 -6q10 -3 18.5 -14.5t8.5 -22.5v-119q0 -12 -9.5 -24t-21.5 -13q-141 -29 -141 -131v-213q0 -102 -17.5 -186.5t-46.5 -143.5t-71 -105.5t-86.5 -75t-97 -47.5t-98 -27t-95.5 -11q-15 -1 -27 9.5t-14 25.5
q-7 50 -10 174q0 12 8.5 24t19.5 15q226 58 226 348z" />
    <glyph glyph-name="asciitilde" unicode="~" horiz-adv-x="1077" 
d="M172 352l-125 129q-23 27 -4 49q6 8 16.5 22.5t45.5 50.5t70.5 63.5t88.5 50t103 22.5q24 0 49 -5.5t39.5 -10.5t41.5 -20t33.5 -19.5t36.5 -24.5l16.5 -11t18 -11.5t17 -10t18.5 -10t18 -8t20.5 -7t19.5 -3.5t22 -2q60 0 131 100q12 15 29 15.5t30 -13.5l119 -125
q9 -11 11 -25.5t-7 -25.5q-6 -8 -16 -22t-43.5 -50t-68.5 -63t-86.5 -49.5t-100.5 -22.5q-17 0 -32 1.5t-31 5.5t-26.5 6.5t-26.5 10t-23 10.5t-24.5 14t-21.5 13t-23.5 15t-21.5 15q-76 49 -123 49q-66 0 -131 -99q-12 -15 -29.5 -16t-29.5 12z" />
    <glyph glyph-name="uni00A0" unicode="&#xa0;" horiz-adv-x="452" 
 />
    <glyph glyph-name="exclamdown" unicode="&#xa1;" horiz-adv-x="577" 
d="M291 451q-80 0 -138.5 58.5t-58.5 137.5q0 78 58.5 135.5t138.5 57.5q78 0 135 -57.5t57 -135.5q0 -80 -57 -138t-135 -58zM207 229q2 12 14 22.5t25 10.5h86q13 0 25 -10.5t14 -22.5l100 -571v-233q0 -15 -12 -27t-27 -12h-287q-15 0 -27 12t-12 27v229z" />
    <glyph glyph-name="cent" unicode="&#xa2;" horiz-adv-x="845" 
d="M315 8q-124 47 -202 155.5t-78 246.5q0 118 61.5 217.5t163 156t217.5 56.5q22 0 62 -4l22 84q5 15 18.5 22.5t28.5 3.5l35 -10q15 -3 23 -16.5t4 -30.5l-23 -86q70 -34 137 -111q11 -13 8 -30t-18 -27l-123 -117q-8 -7 -22.5 -5.5t-22.5 9.5q-13 13 -28 25l-82 -301
q43 1 70.5 16.5t56.5 44.5q8 8 21.5 11.5t23.5 -3.5l123 -106q33 -30 14 -57q-114 -172 -330 -172q-19 0 -51 4l-53 -201q-3 -15 -17 -22.5t-30 -4.5l-33 11q-15 3 -23.5 16.5t-5.5 28.5zM387 276l80 297q-60 -8 -101.5 -54t-41.5 -109q0 -84 63 -134z" />
    <glyph glyph-name="sterling" unicode="&#xa3;" horiz-adv-x="980" 
d="M123 39v37q49 92 70.5 186t20.5 170t-17 160h-88q-15 0 -26 12t-11 27v35q0 15 11 27t26 12h63q-3 12 -12 46t-12.5 47.5t-10.5 42.5t-10 46t-7 40.5t-5.5 44t-1.5 40.5q0 208 118 325t320 117q190 0 354 -145q12 -9 13 -25.5t-9 -28.5l-129 -155q-9 -11 -25 -12.5
t-28 6.5q-11 9 -28.5 22.5t-62.5 35.5t-79 22q-58 0 -95.5 -38.5t-37.5 -105.5q0 -42 35.5 -152.5t48.5 -172.5h188q17 0 28 -11.5t11 -27.5v-37q0 -15 -11 -26t-28 -11h-170q15 -174 -18 -318h346q15 0 26 -10.5t11 -27.5v-197q0 -15 -11 -27t-26 -12h-692q-15 0 -27 12
t-12 27z" />
    <glyph glyph-name="currency" unicode="&#xa4;" horiz-adv-x="915" 
d="M197 301l-101 102q-10 11 -10 28t10 28l107 106q-39 94 -2 195l-107 108q-10 10 -10 28t10 28l103 100q11 10 27 10t26 -10l104 -104q99 44 207 4l105 104q10 11 27.5 10.5t27.5 -12.5l100 -100q11 -11 11.5 -27t-9.5 -27l-104 -104q42 -105 -2 -211l104 -104
q10 -11 9.5 -27t-11.5 -27l-100 -100q-11 -11 -26.5 -11.5t-26.5 9.5l-109 109q-103 -37 -199 2l-106 -107q-10 -11 -27 -11t-28 11zM401 604q25 -25 60 -24.5t61 26.5q23 23 23 58.5t-23 60.5q-26 25 -61 25t-60 -25t-25 -60.5t25 -60.5z" />
    <glyph glyph-name="yen" unicode="&#xa5;" horiz-adv-x="1314" 
d="M287 242q-15 0 -26 12t-11 27v34q0 15 11 27t26 12h207v133h-207q-15 0 -26 12t-11 27v35q0 15 11 27t26 12h207v90l-453 684q-12 20 -1.5 40t34.5 20h266q19 0 33 -19l284 -420l285 420q14 19 33 19h266q24 0 34.5 -20t-1.5 -40l-459 -682v-92h203q17 0 28 -11.5
t11 -27.5v-37q0 -15 -11 -26t-28 -11h-203v-133h203q17 0 28 -11.5t11 -27.5v-36q0 -15 -11 -26t-28 -11h-203v-203q0 -15 -12 -27t-27 -12h-244q-17 0 -27.5 11.5t-10.5 27.5v203h-207z" />
    <glyph glyph-name="brokenbar" unicode="&#xa6;" horiz-adv-x="602" 
d="M285 803q-15 0 -27 11t-12 26v678q0 17 11.5 27.5t27.5 10.5h34q15 0 26 -10.5t11 -27.5v-678q0 -15 -12 -26t-27 -11h-32zM246 100q0 17 11.5 28t27.5 11h34q15 0 26 -11t11 -28v-678q0 -15 -12 -25.5t-27 -10.5h-32q-15 0 -27 10.5t-12 25.5v678z" />
    <glyph glyph-name="section" unicode="&#xa7;" horiz-adv-x="1032" 
d="M152 -158q28 51 77 23q1 -1 25 -14.5t50 -26.5t60 -28t69.5 -24.5t64.5 -9.5q58 0 95.5 31t37.5 84q0 66 -51.5 110t-145.5 81q-373 151 -373 426q0 172 140 288q-140 126 -140 287q0 75 28 143t81.5 122.5t140 87t193.5 32.5q209 0 411 -145q16 -8 19 -29t-6 -31
l-109 -159q-25 -38 -67 -9q-46 33 -123.5 70t-139.5 37q-53 0 -87.5 -27.5t-34.5 -66.5q0 -56 47.5 -100t160.5 -89q55 -21 100 -43t102.5 -61.5t96.5 -83.5t66 -109.5t27 -140.5q0 -162 -136 -285q136 -129 136 -293q0 -74 -32 -145t-89 -127.5t-144 -90.5t-190 -34
q-88 0 -165.5 16.5t-129.5 42.5t-81.5 45.5t-49.5 38.5q-18 18 -19.5 32t11.5 38zM352 520q0 -36 16 -65.5t51.5 -54t71.5 -42.5t97 -43q6 5 15.5 16t25.5 48.5t16 81.5q0 30 -12 55t-28.5 43t-52 38.5t-62.5 33t-80 35.5l-9 -9q-49 -55 -49 -137z" />
    <glyph glyph-name="dieresis" unicode="&#xa8;" horiz-adv-x="847" 
d="M633 1096q-60 0 -102 42.5t-42 102.5t42 101.5t102 41.5t102.5 -41.5t42.5 -101.5t-42.5 -102.5t-102.5 -42.5zM213 1096q-60 0 -101.5 42.5t-41.5 102.5t41.5 101.5t101.5 41.5t102.5 -41.5t42.5 -101.5t-42.5 -102.5t-102.5 -42.5z" />
    <glyph glyph-name="copyright" unicode="&#xa9;" horiz-adv-x="1615" 
d="M72 717q0 200 98.5 369.5t267.5 268.5t369 99t369.5 -99t268.5 -268.5t99 -369.5t-99 -369.5t-268.5 -268.5t-369.5 -99t-369 99t-267.5 268.5t-98.5 369.5zM250 717q0 -113 44 -216.5t119 -178.5t178 -119.5t216 -44.5q114 0 217 44.5t177.5 119.5t118.5 178.5t44 216.5
q0 152 -74.5 280t-202.5 202.5t-280 74.5q-113 0 -216 -44t-178 -118.5t-119 -177.5t-44 -217zM442 713q0 161 112 273t271 112q136 0 236 -78q14 -12 15 -28.5t-11 -30.5l-98 -99q-9 -9 -23.5 -11t-25.5 5q-39 27 -93 27q-68 0 -113.5 -48.5t-45.5 -115.5q0 -70 45 -117
t114 -47q51 0 90 27q11 7 26 4.5t24 -11.5l102 -102q11 -12 10.5 -28.5t-12.5 -28.5q-102 -86 -240 -86q-158 0 -270.5 112.5t-112.5 270.5z" />
    <glyph glyph-name="ordfeminine" unicode="&#xaa;" horiz-adv-x="647" 
d="M250 811q-96 0 -155.5 58t-59.5 155q0 82 66 136t178 54q27 0 53 -3.5t38 -6.5l13 -4q2 44 -18 66t-66 22q-64 0 -152 -18q-33 -6 -36 33l-15 86q-5 34 23 43q17 5 83.5 13.5t121.5 8.5q139 0 198.5 -61.5t59.5 -198.5v-340q0 -10 -9 -19.5t-20 -9.5h-68q-17 0 -28 21
l-21 43q-24 -23 -43.5 -37t-58 -27.5t-84.5 -13.5zM305 956q28 0 47 20t19 48q0 27 -19.5 46.5t-46.5 19.5q-28 0 -46.5 -19.5t-18.5 -46.5q0 -28 18 -48t47 -20z" />
    <glyph glyph-name="guillemotleft" unicode="&#xab;" horiz-adv-x="1026" 
d="M489 397q-17 23 0 49l224 304q14 24 37 24h161q26 0 34.5 -19t-3.5 -44l-133 -285l127 -301q11 -25 2.5 -43.5t-33.5 -18.5h-172q-6 0 -16.5 5.5t-14.5 11.5zM256 80l-213 317q-17 23 0 49l223 304q14 24 37 24h162q26 0 34.5 -19t-3.5 -44l-134 -285l127 -301
q11 -25 3 -43.5t-33 -18.5h-172q-6 0 -16.5 5.5t-14.5 11.5z" />
    <glyph glyph-name="logicalnot" unicode="&#xac;" horiz-adv-x="1124" 
d="M104 600q-15 0 -26.5 12t-11.5 27v143q0 15 11.5 27t26.5 12h820q16 0 27.5 -12.5t11.5 -26.5v-483q0 -15 -12 -26t-27 -11h-144q-15 0 -27 11t-12 26v301h-637z" />
    <glyph glyph-name="uni00AD" unicode="&#xad;" horiz-adv-x="1024" 
 />
    <glyph glyph-name="registered" unicode="&#xae;" horiz-adv-x="1615" 
d="M72 717q0 200 98.5 369.5t267.5 268.5t369 99t369.5 -99t268.5 -268.5t99 -369.5t-99 -369.5t-268.5 -268.5t-369.5 -99t-369 99t-267.5 268.5t-98.5 369.5zM250 717q0 -113 44 -216.5t119 -178.5t178 -119.5t216 -44.5q114 0 217 44.5t177.5 119.5t118.5 178.5t44 216.5
q0 152 -74.5 280t-202.5 202.5t-280 74.5q-113 0 -216 -44t-178 -118.5t-119 -177.5t-44 -217zM524 383v672q0 16 11 27.5t28 11.5h332q100 0 176 -74.5t76 -192.5q0 -150 -137 -229l82 -199q9 -20 -2 -37.5t-33 -17.5h-139q-12 0 -23 9t-14 20l-76 217h-80v-207
q0 -16 -11 -27.5t-28 -11.5h-123q-17 0 -28 11.5t-11 27.5zM719 756h141q26 0 46 20t20 47q0 29 -19.5 48.5t-46.5 19.5h-141v-135z" />
    <glyph glyph-name="macron" unicode="&#xaf;" horiz-adv-x="847" 
d="M162 1153q-17 0 -28 11t-11 26v84q0 17 11 28t28 11h524q17 0 28 -11t11 -28v-84q0 -15 -11 -26t-28 -11h-524z" />
    <glyph glyph-name="degree" unicode="&#xb0;" horiz-adv-x="614" 
d="M307 901q-115 0 -195.5 80.5t-80.5 196.5t80.5 196t195.5 80q114 0 195.5 -80.5t81.5 -195.5t-81.5 -196t-195.5 -81zM307 1106q28 0 49 21.5t21 50.5q0 28 -21 48.5t-49 20.5q-29 0 -50 -20.5t-21 -48.5q0 -29 21 -50.5t50 -21.5z" />
    <glyph glyph-name="plusminus" unicode="&#xb1;" horiz-adv-x="1140" 
d="M500 489q-15 0 -27 11t-12 26v197h-299q-15 0 -27 12t-12 27v143q0 15 12 27t27 12h299v301q0 15 12 26t27 11h143q15 0 27 -11t12 -26v-301h301q15 0 26 -12t11 -27v-143q0 -15 -11 -27t-26 -12h-301v-197q0 -15 -12 -26t-27 -11h-143zM143 119v143q0 15 12 27t27 12
h766q15 0 26 -12t11 -27v-143q0 -15 -11 -27t-26 -12h-766q-15 0 -27 12t-12 27z" />
    <glyph glyph-name="twosuperior" unicode="&#xb2;" horiz-adv-x="546" 
d="M61 1032q-9 0 -14.5 5.5t-5.5 13.5v36l209 252q41 52 41 97q0 29 -18.5 44t-45.5 15q-40 0 -71 -31q-23 -16 -37 9l-45 73q-14 25 -12 33q2 10 20 23q23 18 74 37.5t116 19.5q91 0 152 -53t61 -140q0 -86 -61 -172l-82 -108h119q8 0 14 -6t6 -13v-116q0 -7 -6 -13t-14 -6
h-400z" />
    <glyph glyph-name="threesuperior" unicode="&#xb3;" horiz-adv-x="524" 
d="M238 1012q-106 0 -185 59q-24 18 -6 45l47 70q16 22 41 8q29 -23 74 -23q67 0 67 50q0 23 -17 37t-50 14h-68q-14 2 -20 8t-6 25v69q0 35 37 35h57q24 0 40.5 13t16.5 36q0 20 -16 32.5t-43 12.5q-33 0 -62 -22q-8 -7 -16 -6.5t-18 14.5l-54 72q-18 23 2 43q7 6 21 15
t60.5 24.5t97.5 15.5q103 0 164 -46t61 -124q0 -89 -105 -143q48 -19 85.5 -56.5t37.5 -101.5q0 -84 -70.5 -130t-172.5 -46z" />
    <glyph glyph-name="acute" unicode="&#xb4;" horiz-adv-x="618" 
d="M164 1049q-35 -21 -55 18l-43 86q-10 21 12 39l348 213q8 7 27 6.5t26 -12.5l70 -121q21 -40 -12 -61z" />
    <glyph glyph-name="mu" unicode="&#xb5;" horiz-adv-x="1062" 
d="M408 -14v-561q0 -15 -12 -27t-27 -12h-219q-15 0 -27 12t-12 27v1355q0 17 11.5 28t27.5 11h219q16 0 27.5 -11t11.5 -28v-383q3 -60 38 -98.5t93 -38.5q57 0 90 40.5t33 96.5v383q0 39 43 39h208q16 0 27.5 -11t11.5 -28v-741q0 -15 -12 -27t-27 -12h-96q-27 0 -39 29
l-30 75q-58 -56 -90 -76q-78 -48 -187 -48q-33 0 -63 6z" />
    <glyph glyph-name="paragraph" unicode="&#xb6;" horiz-adv-x="1441" 
d="M461 575q-175 0 -300.5 125.5t-125.5 305.5q0 176 115.5 302t281.5 126l946 -2q15 0 27 -12t12 -27v-123q0 -17 -11.5 -28t-27.5 -11h-125v-1806q0 -16 -11 -27.5t-28 -11.5h-145q-15 0 -27 12t-12 27v1806h-258v-1806q0 -15 -12 -27t-27 -12h-143q-15 0 -27 12t-12 27
v1150h-90z" />
    <glyph glyph-name="periodcentered" unicode="&#xb7;" horiz-adv-x="565" 
d="M279 305q-88 0 -152 63.5t-64 151.5q0 92 64 157.5t152 65.5q92 0 157.5 -65.5t65.5 -157.5q0 -88 -65.5 -151.5t-157.5 -63.5z" />
    <glyph glyph-name="cedilla" unicode="&#xb8;" horiz-adv-x="505" 
d="M104 0h150v-106q92 -12 140 -68t48 -141q0 -90 -63.5 -153.5t-153.5 -63.5q-45 0 -86.5 19.5t-68.5 51.5q-26 29 8 60l47 41q9 9 22 6.5t21 -11.5q13 -18 49 -18q24 0 43 20.5t19 45.5q0 79 -140 86q-35 5 -35 36v195z" />
    <glyph glyph-name="onesuperior" unicode="&#xb9;" horiz-adv-x="417" 
d="M170 1032q-9 0 -14.5 5.5t-5.5 13.5v376h-111q-16 0 -16 23v78q0 12 16 22l156 88h129q8 0 13 -5t5 -13v-569q0 -8 -5.5 -13.5t-12.5 -5.5h-154z" />
    <glyph glyph-name="ordmasculine" unicode="&#xba;" horiz-adv-x="618" 
d="M309 807q-128 0 -198 85.5t-70 237.5q0 153 70 238.5t198 85.5t198.5 -85.5t70.5 -238.5q0 -152 -70.5 -237.5t-198.5 -85.5zM309 971q64 0 64 159q0 160 -64 160q-63 0 -63 -160q0 -159 63 -159z" />
    <glyph glyph-name="guillemotright" unicode="&#xbb;" horiz-adv-x="1026" 
d="M535 125l127 301l-134 285q-12 25 -3.5 44t34.5 19h162q23 0 37 -24l223 -304q17 -26 0 -49l-213 -317q-4 -6 -14.5 -11.5t-16.5 -5.5h-172q-25 0 -33 18.5t3 43.5zM119 63q-25 0 -33.5 18.5t2.5 43.5l127 301l-133 285q-12 25 -3.5 44t34.5 19h161q23 0 37 -24l224 -304
q17 -26 0 -49l-213 -317q-4 -6 -14.5 -11.5t-16.5 -5.5h-172z" />
    <glyph glyph-name="onequarter" unicode="&#xbc;" horiz-adv-x="1286" 
d="M147 55l705 1358q10 21 35 21h114q23 0 34.5 -18t0.5 -38l-706 -1358q-10 -20 -35 -20h-113q-23 0 -34 17.5t-1 37.5zM186 827q-9 0 -14.5 5.5t-5.5 13.5v377h-111q-16 0 -16 22v78q0 13 16 23l156 88h129q7 0 12.5 -5.5t5.5 -13.5v-569q0 -8 -5.5 -13.5t-12.5 -5.5h-154
zM645 131v127l326 342q3 6 14 6h105q8 0 13 -5t5 -13v-334h80q7 0 12.5 -5t5.5 -11v-105q0 -7 -5 -12.5t-13 -5.5h-80v-97q0 -8 -5 -13t-13 -5h-140q-8 0 -14 5.5t-6 12.5v97h-266q-7 0 -13 5t-6 11zM827 250h105v133z" />
    <glyph glyph-name="onehalf" unicode="&#xbd;" horiz-adv-x="1300" 
d="M147 55l705 1358q10 21 35 21h114q23 0 34.5 -18t0.5 -38l-706 -1358q-10 -20 -35 -20h-113q-23 0 -34 17.5t-1 37.5zM186 827q-9 0 -14.5 5.5t-5.5 13.5v377h-111q-16 0 -16 22v78q0 13 16 23l156 88h129q7 0 12.5 -5.5t5.5 -13.5v-569q0 -8 -5.5 -13.5t-12.5 -5.5h-154
zM756 18v37l209 252q41 52 41 96q0 29 -18.5 44.5t-45.5 15.5q-41 0 -72 -31q-23 -15 -36 8l-46 74q-13 17 -12.5 28t21.5 27q13 10 34.5 21.5t66 24t89.5 12.5q91 0 152 -53t61 -140q0 -86 -61 -172l-82 -108h119q8 0 14 -6t6 -13v-117q0 -7 -6 -12.5t-14 -5.5h-400
q-20 0 -20 18z" />
    <glyph glyph-name="threequarters" unicode="&#xbe;" horiz-adv-x="1341" 
d="M250 807q-105 0 -184 59q-25 18 -7 45l47 70q16 22 41 8q29 -22 74 -22q68 0 68 49q0 23 -17.5 37t-50.5 14h-67q-14 2 -20.5 8t-6.5 25v69q0 35 37 35h57q24 0 41 13.5t17 35.5q0 20 -16 32.5t-44 12.5q-32 0 -61 -22q-8 -7 -16.5 -6.5t-18.5 14.5l-53 72q-18 23 2 43
q7 6 20.5 15t60 24.5t97.5 15.5q103 0 164 -46t61 -124q0 -90 -104 -143q48 -19 85.5 -56.5t37.5 -101.5q0 -83 -71 -129.5t-173 -46.5zM203 55l704 1358q11 21 35 21h115q23 0 34.5 -18t0.5 -38l-707 -1358q-10 -20 -35 -20h-112q-23 0 -34 17.5t-1 37.5zM700 131v127
l326 342q3 6 14 6h105q7 0 12.5 -5t5.5 -13v-334h80q7 0 13 -5t6 -11v-105q0 -7 -5.5 -12.5t-13.5 -5.5h-80v-97q0 -8 -5.5 -13t-12.5 -5h-139q-8 0 -14.5 5.5t-6.5 12.5v97h-266q-7 0 -13 5t-6 11zM883 250h104v133z" />
    <glyph glyph-name="questiondown" unicode="&#xbf;" horiz-adv-x="913" 
d="M492 451q-80 0 -138.5 58.5t-58.5 137.5q0 78 58.5 135.5t138.5 57.5q78 0 135 -57.5t57 -135.5q0 -80 -57 -138t-135 -58zM35 -276q0 55 17 101t44 78t59.5 60.5t65.5 55.5t60 55t44 66t17 83q0 17 11.5 28t27.5 11h219q16 0 27.5 -11t11.5 -28v-86q0 -40 -21 -78.5
t-52.5 -67t-68 -59t-68 -56t-52.5 -57t-21 -61.5q0 -48 44.5 -84t109.5 -36q39 0 74 13t55 29t41 31t32.5 18.5t30.5 -8.5l125 -122q12 -11 11.5 -27t-11.5 -27q-6 -7 -18 -19.5t-52 -43.5t-85 -54.5t-115.5 -43t-144.5 -19.5q-108 0 -204 46t-155 129.5t-59 183.5z" />
    <glyph glyph-name="Agrave" unicode="&#xc0;" horiz-adv-x="1355" 
d="M27 0q-23 0 -33.5 16.5t-1.5 36.5l641 1379q11 22 35 22h20q24 0 35 -22l641 -1379q9 -20 -1.5 -36.5t-33.5 -16.5h-227q-28 0 -43.5 11t-28.5 40l-74 162h-557l-73 -164q-20 -49 -74 -49h-225zM522 492h312l-156 337h-2zM823 1561l-372 168q-34 21 -13 61l70 121
q7 12 26 12.5t27 -6.5l348 -213q23 -19 13 -39l-43 -86q-20 -39 -56 -18z" />
    <glyph glyph-name="Aacute" unicode="&#xc1;" horiz-adv-x="1355" 
d="M27 0q-23 0 -33.5 16.5t-1.5 36.5l641 1379q11 22 35 22h20q24 0 35 -22l641 -1379q9 -20 -1.5 -36.5t-33.5 -16.5h-227q-28 0 -43.5 11t-28.5 40l-74 162h-557l-73 -164q-20 -49 -74 -49h-225zM522 492h312l-156 337h-2zM532 1561q-35 -21 -55 18l-43 86q-10 21 12 39
l349 213q8 7 27 6.5t26 -12.5l70 -121q21 -40 -13 -61z" />
    <glyph glyph-name="Acircumflex" unicode="&#xc2;" horiz-adv-x="1355" 
d="M27 0q-23 0 -33.5 16.5t-1.5 36.5l641 1379q11 22 35 22h20q24 0 35 -22l641 -1379q9 -20 -1.5 -36.5t-33.5 -16.5h-227q-28 0 -43.5 11t-28.5 40l-74 162h-557l-73 -164q-20 -49 -74 -49h-225zM522 492h312l-156 337h-2zM475 1561q-28 -15 -45 8l-68 96q-13 18 13 39
l276 213q23 17 49 0l283 -213q23 -18 12 -39l-69 -94q-7 -10 -20 -13t-23 3l-203 118z" />
    <glyph glyph-name="Atilde" unicode="&#xc3;" horiz-adv-x="1355" 
d="M27 0q-23 0 -33.5 16.5t-1.5 36.5l641 1379q11 22 35 22h20q24 0 35 -22l641 -1379q9 -20 -1.5 -36.5t-33.5 -16.5h-227q-28 0 -43.5 11t-28.5 40l-74 162h-557l-73 -164q-20 -49 -74 -49h-225zM522 492h312l-156 337h-2zM438 1608l-71 57q-10 7 -14 22t1 25q10 19 28 43
t46.5 55.5t67 52.5t77.5 21q41 0 80 -24t74 -48t68 -24q39 0 77 63q8 13 22 15t30 -11l69 -53q27 -20 2 -59q-9 -16 -18.5 -30.5t-30.5 -40t-42 -43.5t-51.5 -32t-61.5 -14q-36 0 -70 15.5t-56.5 33.5t-49.5 33.5t-50 15.5q-17 0 -31.5 -11.5t-32 -35t-18.5 -24.5
q-19 -19 -45 -2z" />
    <glyph glyph-name="Adieresis" unicode="&#xc4;" horiz-adv-x="1355" 
d="M27 0q-23 0 -33.5 16.5t-1.5 36.5l641 1379q11 22 35 22h20q24 0 35 -22l641 -1379q9 -20 -1.5 -36.5t-33.5 -16.5h-227q-28 0 -43.5 11t-28.5 40l-74 162h-557l-73 -164q-20 -49 -74 -49h-225zM522 492h312l-156 337h-2zM948 1573q-60 0 -101.5 42.5t-41.5 102.5
t41.5 102t101.5 42t103 -42t43 -102t-43 -102.5t-103 -42.5zM406 1573q-60 0 -102 42.5t-42 102.5t42 102t102 42t102.5 -42t42.5 -102t-42.5 -102.5t-102.5 -42.5z" />
    <glyph glyph-name="Aring" unicode="&#xc5;" horiz-adv-x="1355" 
d="M27 0q-23 0 -33.5 16.5t-1.5 36.5l641 1379q11 22 35 22h20q24 0 35 -22l641 -1379q9 -20 -1.5 -36.5t-33.5 -16.5h-227q-28 0 -43.5 11t-28.5 40l-74 162h-557l-73 -164q-20 -49 -74 -49h-225zM522 492h312l-156 337h-2zM678 1540q-98 0 -167 69t-69 167t69 166.5
t167 68.5q97 0 166 -68.5t69 -166.5t-69 -167t-166 -69zM678 1686q35 0 61.5 27.5t26.5 62.5t-26.5 61.5t-61.5 26.5t-62.5 -26.5t-27.5 -61.5t27.5 -62.5t62.5 -27.5z" />
    <glyph glyph-name="AE" unicode="&#xc6;" horiz-adv-x="1839" 
d="M-6 0q-23 0 -30 16.5t5 36.5l822 1317q2 3 7.5 11.5t7 11t6.5 9t7 8.5l7 7t8.5 6.5t9 4.5t10.5 3.5t12 1.5t15 1h821q17 0 28 -11.5t11 -27.5v-224q0 -15 -11 -26.5t-28 -11.5h-567v-254h467q15 0 26.5 -12t11.5 -27v-224q0 -17 -11 -27.5t-27 -10.5h-467v-277h567
q17 0 28 -11.5t11 -27.5v-223q0 -16 -11 -27.5t-28 -11.5h-848q-17 0 -28 11.5t-11 27.5v174h-377l-108 -178q-20 -35 -60 -35h-276zM590 492h225v362z" />
    <glyph glyph-name="Ccedilla" unicode="&#xc7;" horiz-adv-x="1382" 
d="M678 -8q-260 46 -432 249t-172 474q0 151 58.5 288t157 235.5t235.5 157t288 58.5t270.5 -46.5t225.5 -143.5q13 -12 13.5 -29t-11.5 -29l-160 -166q-11 -10 -26 -10t-25 10q-117 105 -277 105q-171 0 -286 -124t-115 -298q0 -172 116 -294t287 -122q73 0 146.5 26
t128.5 73q10 9 27 8t26 -11l160 -170q10 -11 9.5 -27.5t-11.5 -27.5q-194 -191 -484 -198v-86q92 -12 140.5 -68t48.5 -141q0 -90 -63.5 -153.5t-153.5 -63.5q-45 0 -87 19.5t-69 51.5q-26 29 8 60l47 41q9 9 22 6.5t21 -11.5q13 -18 50 -18q24 0 42.5 20.5t18.5 45.5
q0 79 -139 86q-35 5 -35 36v187z" />
    <glyph glyph-name="Egrave" unicode="&#xc8;" horiz-adv-x="1200" 
d="M176 39v1356q0 16 11 27.5t28 11.5h848q17 0 28 -11.5t11 -27.5v-224q0 -15 -11 -26.5t-28 -11.5h-567v-254h467q15 0 26.5 -12t11.5 -27v-224q0 -17 -11 -27.5t-27 -10.5h-467v-277h567q17 0 28 -11.5t11 -27.5v-223q0 -16 -11 -27.5t-28 -11.5h-848q-17 0 -28 11.5
t-11 27.5zM795 1561l-373 168q-33 21 -12 61l69 121q7 12 26 12.5t27 -6.5l349 -213q23 -18 12 -39l-43 -86q-20 -39 -55 -18z" />
    <glyph glyph-name="Eacute" unicode="&#xc9;" horiz-adv-x="1200" 
d="M176 39v1356q0 16 11 27.5t28 11.5h848q17 0 28 -11.5t11 -27.5v-224q0 -15 -11 -26.5t-28 -11.5h-567v-254h467q15 0 26.5 -12t11.5 -27v-224q0 -17 -11 -27.5t-27 -10.5h-467v-277h567q17 0 28 -11.5t11 -27.5v-223q0 -16 -11 -27.5t-28 -11.5h-848q-17 0 -28 11.5
t-11 27.5zM504 1561q-35 -21 -55 18l-43 86q-10 21 12 39l348 213q8 7 27 6.5t26 -12.5l70 -121q21 -40 -12 -61z" />
    <glyph glyph-name="Ecircumflex" unicode="&#xca;" horiz-adv-x="1200" 
d="M176 39v1356q0 16 11 27.5t28 11.5h848q17 0 28 -11.5t11 -27.5v-224q0 -15 -11 -26.5t-28 -11.5h-567v-254h467q15 0 26.5 -12t11.5 -27v-224q0 -17 -11 -27.5t-27 -10.5h-467v-277h567q17 0 28 -11.5t11 -27.5v-223q0 -16 -11 -27.5t-28 -11.5h-848q-17 0 -28 11.5
t-11 27.5zM446 1561q-28 -15 -45 8l-67 96q-13 19 12 39l277 213q23 17 49 0l282 -213q23 -19 13 -39l-70 -94q-7 -10 -20 -13t-23 3l-203 118z" />
    <glyph glyph-name="Edieresis" unicode="&#xcb;" horiz-adv-x="1200" 
d="M176 39v1356q0 16 11 27.5t28 11.5h848q17 0 28 -11.5t11 -27.5v-224q0 -15 -11 -26.5t-28 -11.5h-567v-254h467q15 0 26.5 -12t11.5 -27v-224q0 -17 -11 -27.5t-27 -10.5h-467v-277h567q17 0 28 -11.5t11 -27.5v-223q0 -16 -11 -27.5t-28 -11.5h-848q-17 0 -28 11.5
t-11 27.5zM913 1573q-60 0 -101.5 42.5t-41.5 102.5t41.5 102t101.5 42t103 -42t43 -102t-43 -102.5t-103 -42.5zM371 1573q-60 0 -102 42.5t-42 102.5t42 102t102 42t102.5 -42t42.5 -102t-42.5 -102.5t-102.5 -42.5z" />
    <glyph glyph-name="Igrave" unicode="&#xcc;" horiz-adv-x="675" 
d="M176 39v1356q0 15 12 27t27 12h246q15 0 27 -12t12 -27v-1356q0 -15 -12 -27t-27 -12h-246q-15 0 -27 12t-12 27zM483 1561l-372 168q-34 21 -13 61l70 121q7 12 26 12.5t27 -6.5l348 -213q23 -19 13 -39l-43 -86q-20 -39 -56 -18z" />
    <glyph glyph-name="Iacute" unicode="&#xcd;" horiz-adv-x="675" 
d="M176 39v1356q0 15 12 27t27 12h246q15 0 27 -12t12 -27v-1356q0 -15 -12 -27t-27 -12h-246q-15 0 -27 12t-12 27zM193 1561q-36 -21 -56 18l-43 86q-10 21 12 39l349 213q8 7 27 6.5t26 -12.5l70 -121q21 -40 -13 -61z" />
    <glyph glyph-name="Icircumflex" unicode="&#xce;" horiz-adv-x="675" 
d="M176 39v1356q0 15 12 27t27 12h246q15 0 27 -12t12 -27v-1356q0 -15 -12 -27t-27 -12h-246q-15 0 -27 12t-12 27zM135 1561q-28 -15 -45 8l-67 96q-13 19 12 39l276 213q23 17 49 0l283 -213q23 -18 12 -39l-69 -94q-7 -10 -20 -13t-23 3l-203 118z" />
    <glyph glyph-name="Idieresis" unicode="&#xcf;" horiz-adv-x="675" 
d="M176 39v1356q0 15 12 27t27 12h246q15 0 27 -12t12 -27v-1356q0 -15 -12 -27t-27 -12h-246q-15 0 -27 12t-12 27zM608 1573q-60 0 -101.5 42.5t-41.5 102.5t41.5 102t101.5 42t103 -42t43 -102t-43 -102.5t-103 -42.5zM66 1573q-60 0 -102 42.5t-42 102.5t42 102t102 42
t102.5 -42t42.5 -102t-42.5 -102.5t-102.5 -42.5z" />
    <glyph glyph-name="Eth" unicode="&#xd0;" horiz-adv-x="1515" 
d="M186 39v614h-59q-15 0 -26 12t-11 27v35q0 15 11 27t26 12h59v629q0 15 11 27t26 12h500q145 0 278.5 -57t230 -153t153.5 -228t57 -277q0 -117 -36.5 -227t-103 -198t-155 -154.5t-198 -103t-226.5 -36.5h-500q-15 0 -26 12t-11 27zM506 303h196q172 0 286 120t114 296
q0 175 -114 294.5t-286 119.5h-196v-367h291q17 0 28 -11.5t11 -27.5v-37q0 -15 -11 -26t-28 -11h-291v-350z" />
    <glyph glyph-name="Ntilde" unicode="&#xd1;" horiz-adv-x="1583" 
d="M176 39l-2 1378q0 15 12 26t27 11h51l817 -786h2v727q0 16 11 27.5t28 11.5h246q15 0 27 -12t12 -27v-1379q0 -15 -12 -25.5t-27 -10.5h-33q-16 0 -26 10l-809 813h-2v-764q0 -16 -11 -27.5t-28 -11.5h-244q-15 0 -27 12t-12 27zM555 1608l-72 57q-10 7 -13.5 22t1.5 25
q10 19 28 43t46.5 55.5t67 52.5t77.5 21q41 0 79.5 -24t73.5 -48t68 -24q40 0 78 63q8 13 21.5 15t29.5 -11l70 -53q27 -20 2 -59q-12 -21 -26.5 -41t-41.5 -50.5t-63 -49.5t-74 -19q-36 0 -70 15.5t-56 33.5t-49 33.5t-50 15.5q-17 0 -31.5 -11.5t-32 -35t-18.5 -24.5
q-19 -19 -45 -2z" />
    <glyph glyph-name="Ograve" unicode="&#xd2;" horiz-adv-x="1615" 
d="M72 715q0 101 26 197t73 177t114.5 149t148.5 115.5t176.5 74t196.5 26.5q151 0 287.5 -58t235 -157t156.5 -236t58 -288t-58 -287.5t-156.5 -234.5t-235 -155.5t-287.5 -57.5t-287.5 57.5t-234.5 155.5t-155.5 234.5t-57.5 287.5zM399 715q0 -167 120.5 -287.5
t287.5 -120.5q169 0 289.5 120.5t120.5 287.5q0 169 -120.5 290t-289.5 121q-167 0 -287.5 -121t-120.5 -290zM952 1561l-372 168q-34 21 -13 61l70 121q7 12 26 12.5t27 -6.5l348 -213q23 -19 13 -39l-43 -86q-20 -39 -56 -18z" />
    <glyph glyph-name="Oacute" unicode="&#xd3;" horiz-adv-x="1615" 
d="M72 715q0 101 26 197t73 177t114.5 149t148.5 115.5t176.5 74t196.5 26.5q151 0 287.5 -58t235 -157t156.5 -236t58 -288t-58 -287.5t-156.5 -234.5t-235 -155.5t-287.5 -57.5t-287.5 57.5t-234.5 155.5t-155.5 234.5t-57.5 287.5zM399 715q0 -167 120.5 -287.5
t287.5 -120.5q169 0 289.5 120.5t120.5 287.5q0 169 -120.5 290t-289.5 121q-167 0 -287.5 -121t-120.5 -290zM662 1561q-36 -21 -56 18l-43 86q-11 21 12 39l349 213q8 7 27 6.5t26 -12.5l70 -121q21 -40 -13 -61z" />
    <glyph glyph-name="Ocircumflex" unicode="&#xd4;" horiz-adv-x="1615" 
d="M72 715q0 101 26 197t73 177t114.5 149t148.5 115.5t176.5 74t196.5 26.5q151 0 287.5 -58t235 -157t156.5 -236t58 -288t-58 -287.5t-156.5 -234.5t-235 -155.5t-287.5 -57.5t-287.5 57.5t-234.5 155.5t-155.5 234.5t-57.5 287.5zM399 715q0 -167 120.5 -287.5
t287.5 -120.5q169 0 289.5 120.5t120.5 287.5q0 169 -120.5 290t-289.5 121q-167 0 -287.5 -121t-120.5 -290zM604 1561q-28 -15 -45 8l-67 96q-13 19 12 39l276 213q23 17 49 0l283 -213q22 -18 12 -39l-69 -94q-7 -10 -20 -13t-23 3l-203 118z" />
    <glyph glyph-name="Otilde" unicode="&#xd5;" horiz-adv-x="1615" 
d="M72 715q0 101 26 197t73 177t114.5 149t148.5 115.5t176.5 74t196.5 26.5q151 0 287.5 -58t235 -157t156.5 -236t58 -288t-58 -287.5t-156.5 -234.5t-235 -155.5t-287.5 -57.5t-287.5 57.5t-234.5 155.5t-155.5 234.5t-57.5 287.5zM399 715q0 -167 120.5 -287.5
t287.5 -120.5q169 0 289.5 120.5t120.5 287.5q0 169 -120.5 290t-289.5 121q-167 0 -287.5 -121t-120.5 -290zM567 1608l-71 57q-10 7 -14 22t1 25q10 19 28 43t46.5 55.5t67 52.5t77.5 21q41 0 80 -24t74 -48t68 -24q39 0 77 63q8 13 22 15t30 -11l69 -53q27 -20 2 -59
q-9 -16 -18.5 -30.5t-30.5 -40t-42 -43.5t-51.5 -32t-61.5 -14q-45 0 -86.5 24.5t-76.5 49t-63 24.5q-17 0 -31.5 -11.5t-32 -35t-18.5 -24.5q-19 -19 -45 -2z" />
    <glyph glyph-name="Odieresis" unicode="&#xd6;" horiz-adv-x="1615" 
d="M72 715q0 101 26 197t73 177t114.5 149t148.5 115.5t176.5 74t196.5 26.5q151 0 287.5 -58t235 -157t156.5 -236t58 -288t-58 -287.5t-156.5 -234.5t-235 -155.5t-287.5 -57.5t-287.5 57.5t-234.5 155.5t-155.5 234.5t-57.5 287.5zM399 715q0 -167 120.5 -287.5
t287.5 -120.5q169 0 289.5 120.5t120.5 287.5q0 169 -120.5 290t-289.5 121q-167 0 -287.5 -121t-120.5 -290zM1077 1573q-60 0 -101.5 42.5t-41.5 102.5t41.5 102t101.5 42t103 -42t43 -102t-43 -102.5t-103 -42.5zM535 1573q-60 0 -102 42.5t-42 102.5t42 102t102 42
t102.5 -42t42.5 -102t-42.5 -102.5t-102.5 -42.5z" />
    <glyph glyph-name="multiply" unicode="&#xd7;" horiz-adv-x="940" 
d="M205 344l-103 102q-10 10 -10 27t10 27l211 211l-211 213q-10 10 -10 26t10 27l101 102q11 11 28 11t27 -11l211 -211l213 213q11 10 26.5 9.5t26.5 -11.5l103 -102q11 -11 11.5 -26.5t-9.5 -26.5l-213 -213l213 -213q10 -11 9.5 -27t-11.5 -27l-103 -100
q-11 -11 -26.5 -11.5t-26.5 9.5l-213 213l-211 -211q-10 -10 -26 -10t-27 10z" />
    <glyph glyph-name="Oslash" unicode="&#xd8;" horiz-adv-x="1628" 
d="M117 47q-11 11 -11.5 26.5t9.5 26.5l137 136q-174 206 -174 479q0 101 26 197t73 177t114.5 149t148.5 115.5t176.5 74t196.5 26.5q274 0 481 -178l144 141q11 12 26.5 11.5t26.5 -11.5l25 -24q12 -11 12 -26.5t-12 -27.5l-144 -143q178 -207 178 -481q0 -151 -58 -287.5
t-156.5 -234.5t-235 -155.5t-287.5 -57.5q-138 0 -261 46t-220 130l-137 -136q-11 -10 -27 -9t-27 12zM487 471l574 571q-115 84 -248 84q-167 0 -287 -121t-120 -290q0 -136 81 -244zM567 391q108 -84 246 -84q169 0 289.5 120.5t120.5 287.5q0 140 -84 248z" />
    <glyph glyph-name="Ugrave" unicode="&#xd9;" horiz-adv-x="1478" 
d="M156 549v846q0 15 12 27t27 12h251q17 0 28 -11.5t11 -27.5v-830q0 -108 72 -183t180 -75q109 0 182.5 75t73.5 183v830q0 16 11 27.5t28 11.5h252q15 0 27 -12t12 -27v-846q0 -153 -78.5 -284t-213.5 -208t-294 -77q-158 0 -292 77t-211.5 208t-77.5 284zM885 1561
l-373 168q-33 21 -12 61l69 121q7 12 26.5 12.5t27.5 -6.5l348 -213q23 -18 12 -39l-43 -86q-20 -39 -55 -18z" />
    <glyph glyph-name="Uacute" unicode="&#xda;" horiz-adv-x="1478" 
d="M156 549v846q0 15 12 27t27 12h251q17 0 28 -11.5t11 -27.5v-830q0 -108 72 -183t180 -75q109 0 182.5 75t73.5 183v830q0 16 11 27.5t28 11.5h252q15 0 27 -12t12 -27v-846q0 -153 -78.5 -284t-213.5 -208t-294 -77q-158 0 -292 77t-211.5 208t-77.5 284zM594 1561
q-35 -21 -55 18l-43 86q-10 21 12 39l348 213q8 7 27 6.5t26 -12.5l70 -121q21 -40 -12 -61z" />
    <glyph glyph-name="Ucircumflex" unicode="&#xdb;" horiz-adv-x="1478" 
d="M156 549v846q0 15 12 27t27 12h251q17 0 28 -11.5t11 -27.5v-830q0 -108 72 -183t180 -75q109 0 182.5 75t73.5 183v830q0 16 11 27.5t28 11.5h252q15 0 27 -12t12 -27v-846q0 -153 -78.5 -284t-213.5 -208t-294 -77q-158 0 -292 77t-211.5 208t-77.5 284zM535 1561
q-29 -15 -46 8l-67 96q-13 19 12 39l277 213q23 17 49 0l282 -213q23 -19 13 -39l-70 -94q-7 -10 -20 -13t-23 3l-203 118z" />
    <glyph glyph-name="Udieresis" unicode="&#xdc;" horiz-adv-x="1478" 
d="M156 549v846q0 15 12 27t27 12h251q17 0 28 -11.5t11 -27.5v-830q0 -108 72 -183t180 -75q109 0 182.5 75t73.5 183v830q0 16 11 27.5t28 11.5h252q15 0 27 -12t12 -27v-846q0 -153 -78.5 -284t-213.5 -208t-294 -77q-158 0 -292 77t-211.5 208t-77.5 284zM1008 1573
q-60 0 -102 42.5t-42 102.5t42 102t102 42t102.5 -42t42.5 -102t-42.5 -102.5t-102.5 -42.5zM465 1573q-60 0 -101.5 42.5t-41.5 102.5t41.5 102t101.5 42t102.5 -42t42.5 -102t-42.5 -102.5t-102.5 -42.5z" />
    <glyph glyph-name="Yacute" unicode="&#xdd;" horiz-adv-x="1208" 
d="M440 39v651l-452 684q-12 20 -2 40t34 20h267q18 0 32 -19l285 -420l285 420q14 19 33 19h266q24 0 34.5 -20t-1.5 -40l-459 -682v-653q0 -15 -12 -27t-27 -12h-244q-17 0 -28 11.5t-11 27.5zM459 1561q-36 -21 -56 18l-43 86q-10 20 13 39l348 213q8 7 27 6.5t26 -12.5
l70 -121q21 -40 -13 -61z" />
    <glyph glyph-name="Thorn" unicode="&#xde;" horiz-adv-x="1200" 
d="M176 39v1356q0 16 11 27.5t28 11.5h242q15 0 27 -12t12 -27v-221h213q189 0 323.5 -133.5t134.5 -319.5q0 -125 -61.5 -231t-166.5 -168t-228 -62h-215v-221q0 -15 -12 -27t-27 -12h-242q-17 0 -28 11.5t-11 27.5zM496 559h194q67 0 114.5 47t47.5 115q0 64 -47.5 107.5
t-114.5 43.5h-194v-313z" />
    <glyph glyph-name="germandbls" unicode="&#xdf;" horiz-adv-x="1105" 
d="M111 39v807q0 299 139.5 453.5t372.5 154.5q63 0 123 -20t110 -59t80.5 -103.5t30.5 -145.5q0 -60 -23.5 -123.5t-52.5 -107.5t-52.5 -94t-23.5 -86q0 -37 82 -111q166 -145 166 -303q0 -312 -397 -321q-14 0 -26 8.5t-15 21.5l-39 172q-3 16 6 30t26 17q50 8 82.5 35.5
t32.5 71.5q0 57 -92 119q-62 46 -98.5 94.5t-36.5 114.5q0 49 23.5 110.5t52 111.5t52 113.5t23.5 114.5q0 30 -17.5 51t-49.5 21q-18 0 -38 -7.5t-44.5 -31t-44 -59.5t-32.5 -100.5t-13 -147.5v-801q0 -15 -12 -27t-27 -12h-229q-15 0 -27 12t-12 27z" />
    <glyph glyph-name="agrave" unicode="&#xe0;" horiz-adv-x="878" 
d="M55 250q0 121 82 197.5t219 76.5q41 0 80.5 -8t58.5 -16l19 -8q0 66 -21 93t-90 27q-41 0 -102.5 -9t-101.5 -21q-42 -13 -49 43l-19 129q-7 42 31 55q21 7 110 19t162 12q188 0 267 -82t79 -266v-453q0 -15 -12 -27t-27 -12h-90q-25 0 -37 27l-28 55q-31 -28 -57.5 -47
t-78.5 -37t-112 -18q-123 0 -203 75t-80 195zM322 270q0 -37 25.5 -63.5t62.5 -26.5t63.5 26.5t26.5 63.5q-2 36 -28 61t-62 25q-37 0 -62.5 -25.5t-25.5 -60.5zM614 1049l-372 168q-34 21 -13 61l70 121q7 12 26 12.5t27 -6.5l348 -213q23 -19 13 -39l-43 -86
q-20 -39 -56 -18z" />
    <glyph glyph-name="aacute" unicode="&#xe1;" horiz-adv-x="878" 
d="M55 250q0 121 82 197.5t219 76.5q41 0 80.5 -8t58.5 -16l19 -8q0 66 -21 93t-90 27q-41 0 -102.5 -9t-101.5 -21q-42 -13 -49 43l-19 129q-7 42 31 55q21 7 110 19t162 12q188 0 267 -82t79 -266v-453q0 -15 -12 -27t-27 -12h-90q-25 0 -37 27l-28 55q-31 -28 -57.5 -47
t-78.5 -37t-112 -18q-123 0 -203 75t-80 195zM322 270q0 -37 25.5 -63.5t62.5 -26.5t63.5 26.5t26.5 63.5q-2 36 -28 61t-62 25q-37 0 -62.5 -25.5t-25.5 -60.5zM303 1049q-35 -21 -55 18l-43 86q-10 21 12 39l348 213q8 7 27 6.5t26 -12.5l70 -121q21 -40 -12 -61z" />
    <glyph glyph-name="acircumflex" unicode="&#xe2;" horiz-adv-x="878" 
d="M55 250q0 121 82 197.5t219 76.5q41 0 80.5 -8t58.5 -16l19 -8q0 66 -21 93t-90 27q-41 0 -102.5 -9t-101.5 -21q-42 -13 -49 43l-19 129q-7 42 31 55q21 7 110 19t162 12q188 0 267 -82t79 -266v-453q0 -15 -12 -27t-27 -12h-90q-25 0 -37 27l-28 55q-31 -28 -57.5 -47
t-78.5 -37t-112 -18q-123 0 -203 75t-80 195zM322 270q0 -37 25.5 -63.5t62.5 -26.5t63.5 26.5t26.5 63.5q-2 36 -28 61t-62 25q-37 0 -62.5 -25.5t-25.5 -60.5zM246 1049q-28 -15 -45 8l-68 96q-13 19 12 39l277 213q23 17 49 0l283 -213q22 -18 12 -39l-70 -94
q-7 -10 -20 -13t-23 3l-202 118z" />
    <glyph glyph-name="atilde" unicode="&#xe3;" horiz-adv-x="878" 
d="M55 250q0 121 82 197.5t219 76.5q41 0 80.5 -8t58.5 -16l19 -8q0 66 -21 93t-90 27q-41 0 -102.5 -9t-101.5 -21q-42 -13 -49 43l-19 129q-7 42 31 55q21 7 110 19t162 12q188 0 267 -82t79 -266v-453q0 -15 -12 -27t-27 -12h-90q-25 0 -37 27l-28 55q-31 -28 -57.5 -47
t-78.5 -37t-112 -18q-123 0 -203 75t-80 195zM322 270q0 -37 25.5 -63.5t62.5 -26.5t63.5 26.5t26.5 63.5q-2 36 -28 61t-62 25q-37 0 -62.5 -25.5t-25.5 -60.5zM195 1137l-72 57q-10 7 -13.5 22t1.5 25q10 19 28 43t46.5 55.5t67 52.5t77.5 21q41 0 79.5 -24t73.5 -48
t68 -24q40 0 78 63q8 13 21.5 15t29.5 -11l70 -53q27 -20 2 -59q-12 -21 -26.5 -41t-41.5 -50.5t-63 -49.5t-74 -19q-36 0 -70 15.5t-56 33.5t-49 33.5t-50 15.5q-17 0 -31.5 -11.5t-32 -35t-18.5 -24.5q-19 -19 -45 -2z" />
    <glyph glyph-name="adieresis" unicode="&#xe4;" horiz-adv-x="878" 
d="M55 250q0 121 82 197.5t219 76.5q41 0 80.5 -8t58.5 -16l19 -8q0 66 -21 93t-90 27q-41 0 -102.5 -9t-101.5 -21q-42 -13 -49 43l-19 129q-7 42 31 55q21 7 110 19t162 12q188 0 267 -82t79 -266v-453q0 -15 -12 -27t-27 -12h-90q-25 0 -37 27l-28 55q-31 -28 -57.5 -47
t-78.5 -37t-112 -18q-123 0 -203 75t-80 195zM322 270q0 -37 25.5 -63.5t62.5 -26.5t63.5 26.5t26.5 63.5q-2 36 -28 61t-62 25q-37 0 -62.5 -25.5t-25.5 -60.5zM657 1096q-60 0 -101.5 42.5t-41.5 102.5t41.5 101.5t101.5 41.5t103 -41.5t43 -101.5t-43 -102.5t-103 -42.5z
M238 1096q-60 0 -102 42.5t-42 102.5t42 101.5t102 41.5t102.5 -41.5t42.5 -101.5t-42.5 -102.5t-102.5 -42.5z" />
    <glyph glyph-name="aring" unicode="&#xe5;" horiz-adv-x="878" 
d="M55 250q0 121 82 197.5t219 76.5q41 0 80.5 -8t58.5 -16l19 -8q0 66 -21 93t-90 27q-41 0 -102.5 -9t-101.5 -21q-42 -13 -49 43l-19 129q-7 42 31 55q21 7 110 19t162 12q188 0 267 -82t79 -266v-453q0 -15 -12 -27t-27 -12h-90q-25 0 -37 27l-28 55q-31 -28 -57.5 -47
t-78.5 -37t-112 -18q-123 0 -203 75t-80 195zM322 270q0 -37 25.5 -63.5t62.5 -26.5t63.5 26.5t26.5 63.5q-2 36 -28 61t-62 25q-37 0 -62.5 -25.5t-25.5 -60.5zM449 983q-98 0 -167 69t-69 167t69 166.5t167 68.5q97 0 166 -68.5t69 -166.5t-69 -167t-166 -69zM449 1128
q35 0 61.5 27.5t26.5 63.5q0 35 -26.5 61.5t-61.5 26.5q-36 0 -63.5 -26.5t-27.5 -61.5t28 -63t63 -28z" />
    <glyph glyph-name="ae" unicode="&#xe6;" horiz-adv-x="1353" 
d="M53 252q0 118 81.5 195t223.5 77q36 0 75 -8t60 -16l21 -8q2 69 -23 97.5t-88 28.5q-77 0 -204 -24q-15 -2 -29.5 8t-17.5 25l-23 141q-1 15 9 27t24 14q161 31 272 31q180 0 258 -72q109 72 236 72q160 0 274.5 -109.5t114.5 -275.5q0 -19 -1 -30.5t-4.5 -27.5t-13 -24
t-24.5 -8h-492q6 -51 46 -94.5t112 -43.5q74 0 139 49q12 8 26.5 9t24.5 -9l107 -120q11 -11 11.5 -28t-9.5 -28q-120 -120 -307 -120q-91 0 -171 35t-136 98q-13 -16 -34 -34.5t-57 -43t-88 -40t-108 -15.5q-129 0 -207 75t-78 197zM809 524h219q-3 39 -35.5 68t-72.5 29
q-41 0 -73 -28.5t-38 -68.5zM322 270q0 -37 25.5 -63.5t62.5 -26.5t63.5 26.5t26.5 63.5q-2 36 -28 61t-62 25q-37 0 -62.5 -25.5t-25.5 -60.5z" />
    <glyph glyph-name="ccedilla" unicode="&#xe7;" horiz-adv-x="862" 
d="M348 2q-131 44 -215 154.5t-84 253.5q0 118 62 217.5t163.5 156t217.5 56.5q184 0 307 -148q10 -14 6.5 -29t-17.5 -28l-122 -117q-8 -7 -22.5 -5.5t-22.5 9.5q-50 53 -119 53q-67 0 -115.5 -48.5t-48.5 -116.5q0 -69 46.5 -117.5t113.5 -48.5q49 0 78.5 16t60.5 47
q25 25 45 8l123 -106q33 -30 14 -57q-114 -169 -321 -172v-89q92 -12 140 -67.5t48 -140.5q0 -90 -63.5 -154t-153.5 -64q-44 0 -86.5 20t-69.5 52q-12 14 -9 30t18 30l47 41q9 9 22 6.5t21 -11.5q13 -18 49 -18q24 0 42.5 20.5t18.5 45.5q0 79 -139 86q-35 5 -35 36v199z
" />
    <glyph glyph-name="egrave" unicode="&#xe8;" horiz-adv-x="899" 
d="M49 410q0 176 122.5 303t301.5 127q160 0 274.5 -109.5t114.5 -275.5q0 -28 -4 -56q-1 -15 -13 -24.5t-26 -9.5h-491q6 -50 45.5 -93t111.5 -43q36 0 76.5 15t67.5 35q13 11 27.5 11t23.5 -11l102 -123q10 -13 10.5 -29t-12.5 -31q-116 -116 -303 -116
q-181 0 -304.5 125.5t-123.5 304.5zM354 524h219q-3 39 -35.5 68t-72.5 29q-41 0 -73 -28.5t-38 -68.5zM643 1049l-373 168q-33 21 -12 61l70 121q7 12 26 12.5t27 -6.5l348 -213q23 -18 12 -39l-43 -86q-20 -39 -55 -18z" />
    <glyph glyph-name="eacute" unicode="&#xe9;" horiz-adv-x="899" 
d="M49 410q0 176 122.5 303t301.5 127q160 0 274.5 -109.5t114.5 -275.5q0 -28 -4 -56q-1 -15 -13 -24.5t-26 -9.5h-491q6 -50 45.5 -93t111.5 -43q36 0 76.5 15t67.5 35q13 11 27.5 11t23.5 -11l102 -123q10 -13 10.5 -29t-12.5 -31q-116 -116 -303 -116
q-181 0 -304.5 125.5t-123.5 304.5zM354 524h219q-3 39 -35.5 68t-72.5 29q-41 0 -73 -28.5t-38 -68.5zM332 1049q-36 -21 -56 18l-43 86q-10 20 13 39l348 213q8 7 27 6.5t26 -12.5l70 -121q21 -40 -12 -61z" />
    <glyph glyph-name="ecircumflex" unicode="&#xea;" horiz-adv-x="899" 
d="M49 410q0 176 122.5 303t301.5 127q160 0 274.5 -109.5t114.5 -275.5q0 -28 -4 -56q-1 -15 -13 -24.5t-26 -9.5h-491q6 -50 45.5 -93t111.5 -43q36 0 76.5 15t67.5 35q13 11 27.5 11t23.5 -11l102 -123q10 -13 10.5 -29t-12.5 -31q-116 -116 -303 -116
q-181 0 -304.5 125.5t-123.5 304.5zM354 524h219q-3 39 -35.5 68t-72.5 29q-41 0 -73 -28.5t-38 -68.5zM274 1049q-28 -15 -45 8l-67 96q-13 19 12 39l277 213q23 17 49 0l282 -213q23 -19 13 -39l-70 -94q-7 -10 -20 -13t-23 3l-203 118z" />
    <glyph glyph-name="edieresis" unicode="&#xeb;" horiz-adv-x="899" 
d="M49 410q0 176 122.5 303t301.5 127q160 0 274.5 -109.5t114.5 -275.5q0 -28 -4 -56q-1 -15 -13 -24.5t-26 -9.5h-491q6 -50 45.5 -93t111.5 -43q36 0 76.5 15t67.5 35q13 11 27.5 11t23.5 -11l102 -123q10 -13 10.5 -29t-12.5 -31q-116 -116 -303 -116
q-181 0 -304.5 125.5t-123.5 304.5zM354 524h219q-3 39 -35.5 68t-72.5 29q-41 0 -73 -28.5t-38 -68.5zM686 1096q-60 0 -101.5 42.5t-41.5 102.5t41.5 101.5t101.5 41.5t102.5 -41.5t42.5 -101.5t-42.5 -102.5t-102.5 -42.5zM266 1096q-60 0 -101.5 42.5t-41.5 102.5
t41.5 101.5t101.5 41.5t103 -41.5t43 -101.5t-43 -102.5t-103 -42.5z" />
    <glyph glyph-name="igrave" unicode="&#xec;" horiz-adv-x="524" 
d="M111 39v739q0 17 11.5 28t27.5 11h225q16 0 27.5 -11t11.5 -28v-739q0 -15 -12 -27t-27 -12h-225q-15 0 -27 12t-12 27zM408 1049l-373 168q-33 21 -12 61l69 121q7 12 26 12.5t27 -6.5l349 -213q22 -18 12 -39l-43 -86q-20 -39 -55 -18z" />
    <glyph glyph-name="iacute" unicode="&#xed;" horiz-adv-x="524" 
d="M111 39v739q0 17 11.5 28t27.5 11h225q16 0 27.5 -11t11.5 -28v-739q0 -15 -12 -27t-27 -12h-225q-15 0 -27 12t-12 27zM117 1049q-36 -21 -56 18l-43 86q-10 20 13 39l348 213q8 7 27 6.5t26 -12.5l70 -121q21 -40 -13 -61z" />
    <glyph glyph-name="icircumflex" unicode="&#xee;" horiz-adv-x="524" 
d="M111 39v739q0 17 11.5 28t27.5 11h225q16 0 27.5 -11t11.5 -28v-739q0 -15 -12 -27t-27 -12h-225q-15 0 -27 12t-12 27zM59 1049q-28 -15 -45 8l-67 96q-13 19 12 39l277 213q23 17 49 0l282 -213q23 -19 13 -39l-70 -94q-7 -10 -20 -13t-23 3l-203 118z" />
    <glyph glyph-name="idieresis" unicode="&#xef;" horiz-adv-x="524" 
d="M111 39v739q0 17 11.5 28t27.5 11h225q16 0 27.5 -11t11.5 -28v-739q0 -15 -12 -27t-27 -12h-225q-15 0 -27 12t-12 27zM471 1096q-60 0 -101.5 42.5t-41.5 102.5t41.5 101.5t101.5 41.5t102.5 -41.5t42.5 -101.5t-42.5 -102.5t-102.5 -42.5zM51 1096q-60 0 -101.5 42.5
t-41.5 102.5t41.5 101.5t101.5 41.5t103 -41.5t43 -101.5t-43 -102.5t-103 -42.5z" />
    <glyph glyph-name="eth" unicode="&#xf0;" horiz-adv-x="1071" 
d="M49 449q0 108 36.5 195t95.5 140t130.5 81t145.5 28q43 0 98.5 -12t95.5 -29q-30 137 -182 233l-158 -90q-15 -9 -29 -5t-22 18l-18 30q-8 13 -4.5 30t16.5 24l96 55q-56 32 -125 49q-39 11 -24 51l59 158q17 47 78 27q37 -12 111 -50.5t151 -91.5l145 86q14 7 29 2.5
t23 -18.5l18 -29q8 -13 4.5 -29.5t-16.5 -23.5l-107 -61q316 -272 316 -680q0 -161 -56.5 -286t-169.5 -198t-268 -73q-192 0 -330.5 138t-138.5 331zM326 459q0 -80 57.5 -138.5t138.5 -58.5t139 58.5t58 138.5q0 82 -57.5 140t-139.5 58t-139 -58t-57 -140z" />
    <glyph glyph-name="ntilde" unicode="&#xf1;" horiz-adv-x="1081" 
d="M111 39v741q0 17 11.5 28t27.5 11h96q10 0 21.5 -7t15.5 -17l32 -82q117 127 289 127q183 0 286 -122.5t103 -305.5v-373q0 -15 -12 -27t-27 -12h-219q-17 0 -28 11.5t-11 27.5v383q0 65 -36.5 109t-102.5 44q-63 0 -109.5 -40.5t-46.5 -102.5v-393q0 -39 -36 -39h-215
q-15 0 -27 12t-12 27zM311 1137l-71 57q-10 7 -14 22t1 25q10 19 28 43t46.5 55.5t67 52.5t77.5 21q41 0 80 -24t74 -48t68 -24q39 0 77 63q8 13 22 15t30 -11l69 -53q27 -20 2 -59q-9 -16 -18.5 -30.5t-30.5 -40t-42 -43.5t-51.5 -32t-61.5 -14q-45 0 -86.5 24.5t-76.5 49
t-63 24.5q-17 0 -31.5 -11.5t-32 -35t-18.5 -24.5q-19 -19 -45 -2z" />
    <glyph glyph-name="ograve" unicode="&#xf2;" horiz-adv-x="946" 
d="M47 412q0 174 126 301t300 127t300 -127t126 -301q0 -177 -125.5 -304.5t-300.5 -127.5t-300.5 127.5t-125.5 304.5zM311 412q0 -69 47.5 -118.5t114.5 -49.5t114.5 49.5t47.5 118.5q0 68 -47.5 115.5t-114.5 47.5t-114.5 -47.5t-47.5 -115.5zM618 1049l-372 168
q-34 21 -13 61l70 121q7 12 26 12.5t27 -6.5l349 -213q23 -18 12 -39l-43 -86q-20 -39 -56 -18z" />
    <glyph glyph-name="oacute" unicode="&#xf3;" horiz-adv-x="946" 
d="M47 412q0 174 126 301t300 127t300 -127t126 -301q0 -177 -125.5 -304.5t-300.5 -127.5t-300.5 127.5t-125.5 304.5zM311 412q0 -69 47.5 -118.5t114.5 -49.5t114.5 49.5t47.5 118.5q0 68 -47.5 115.5t-114.5 47.5t-114.5 -47.5t-47.5 -115.5zM324 1049q-36 -21 -56 18
l-43 86q-10 20 13 39l348 213q8 7 27 6.5t26 -12.5l70 -121q21 -40 -13 -61z" />
    <glyph glyph-name="ocircumflex" unicode="&#xf4;" horiz-adv-x="946" 
d="M47 412q0 174 126 301t300 127t300 -127t126 -301q0 -177 -125.5 -304.5t-300.5 -127.5t-300.5 127.5t-125.5 304.5zM311 412q0 -69 47.5 -118.5t114.5 -49.5t114.5 49.5t47.5 118.5q0 68 -47.5 115.5t-114.5 47.5t-114.5 -47.5t-47.5 -115.5zM270 1049q-28 -15 -45 8
l-67 96q-13 19 12 39l276 213q24 18 50 0l282 -213q23 -19 13 -39l-70 -94q-7 -10 -20 -13t-23 3l-203 118z" />
    <glyph glyph-name="otilde" unicode="&#xf5;" horiz-adv-x="946" 
d="M47 412q0 174 126 301t300 127t300 -127t126 -301q0 -177 -125.5 -304.5t-300.5 -127.5t-300.5 127.5t-125.5 304.5zM311 412q0 -69 47.5 -118.5t114.5 -49.5t114.5 49.5t47.5 118.5q0 68 -47.5 115.5t-114.5 47.5t-114.5 -47.5t-47.5 -115.5zM233 1137l-71 57
q-10 7 -13.5 22t1.5 25q10 19 28 43t46.5 55.5t67 52.5t77.5 21q41 0 79.5 -24t73.5 -48t68 -24q40 0 78 63q8 13 21.5 15t29.5 -11l69 -53q28 -21 3 -59q-12 -21 -26.5 -41t-41.5 -50.5t-63 -49.5t-74 -19q-45 0 -86.5 24.5t-76.5 49t-63 24.5q-17 0 -31.5 -11.5t-31 -34.5
t-18.5 -25q-20 -20 -46 -2z" />
    <glyph glyph-name="odieresis" unicode="&#xf6;" horiz-adv-x="946" 
d="M47 412q0 174 126 301t300 127t300 -127t126 -301q0 -177 -125.5 -304.5t-300.5 -127.5t-300.5 127.5t-125.5 304.5zM311 412q0 -69 47.5 -118.5t114.5 -49.5t114.5 49.5t47.5 118.5q0 68 -47.5 115.5t-114.5 47.5t-114.5 -47.5t-47.5 -115.5zM682 1096
q-60 0 -101.5 42.5t-41.5 102.5t41.5 101.5t101.5 41.5t102.5 -41.5t42.5 -101.5t-42.5 -102.5t-102.5 -42.5zM262 1096q-60 0 -101.5 42.5t-41.5 102.5t41.5 101.5t101.5 41.5t103 -41.5t43 -101.5t-43 -102.5t-103 -42.5z" />
    <glyph glyph-name="divide" unicode="&#xf7;" horiz-adv-x="1011" 
d="M500 965q-63 0 -107.5 45t-44.5 108t44.5 107.5t107.5 44.5t108 -44.5t45 -107.5t-45 -108t-108 -45zM96 598q-15 0 -27 12t-12 27v143q0 15 12 27t27 12h822q15 0 25.5 -12t10.5 -27v-143q0 -15 -10.5 -27t-25.5 -12h-822zM346 315q0 63 44.5 107.5t107.5 44.5
t108 -44.5t45 -107.5t-45 -108t-108 -45t-107.5 45t-44.5 108z" />
    <glyph glyph-name="oslash" unicode="&#xf8;" horiz-adv-x="954" 
d="M90 43q-11 11 -11.5 26.5t9.5 26.5l51 51q-88 115 -88 267q0 174 126 300t300 126q140 0 258 -90l58 57q11 12 26.5 11.5t26.5 -11.5l24 -25q12 -10 12 -25.5t-12 -27.5l-57 -57q90 -118 90 -258q0 -116 -57.5 -216t-156 -159t-212.5 -59q-143 0 -258 88l-51 -52
q-11 -10 -26.5 -9.5t-26.5 11.5zM330 344l217 217q-28 14 -70 14q-68 0 -115 -47t-47 -114q0 -40 15 -70zM408 258q28 -14 69 -14q67 0 114.5 50.5t47.5 119.5q0 32 -14 67z" />
    <glyph glyph-name="ugrave" unicode="&#xf9;" 
d="M92 410v370q0 17 11.5 28t27.5 11h219q16 0 27.5 -11t11.5 -28v-379q0 -66 35 -111.5t96 -45.5q57 0 90 44t33 101v391q0 39 43 39h209q16 0 27.5 -11t11.5 -28v-741q0 -15 -12 -27t-27 -12h-96q-27 0 -39 29l-31 75q-58 -55 -88 -75q-78 -49 -188 -49q-89 0 -159 34
t-113.5 93.5t-66 136.5t-22.5 166zM684 1049l-373 168q-33 21 -12 61l70 121q7 12 26 12.5t27 -6.5l348 -213q22 -18 12 -39l-43 -86q-20 -39 -55 -18z" />
    <glyph glyph-name="uacute" unicode="&#xfa;" 
d="M92 410v370q0 17 11.5 28t27.5 11h219q16 0 27.5 -11t11.5 -28v-379q0 -66 35 -111.5t96 -45.5q57 0 90 44t33 101v391q0 39 43 39h209q16 0 27.5 -11t11.5 -28v-741q0 -15 -12 -27t-27 -12h-96q-27 0 -39 29l-31 75q-58 -55 -88 -75q-78 -49 -188 -49q-89 0 -159 34
t-113.5 93.5t-66 136.5t-22.5 166zM373 1049q-36 -21 -56 18l-43 86q-10 20 13 39l348 213q8 7 27 6.5t26 -12.5l70 -121q21 -40 -13 -61z" />
    <glyph glyph-name="ucircumflex" unicode="&#xfb;" 
d="M92 410v370q0 17 11.5 28t27.5 11h219q16 0 27.5 -11t11.5 -28v-379q0 -66 35 -111.5t96 -45.5q57 0 90 44t33 101v391q0 39 43 39h209q16 0 27.5 -11t11.5 -28v-741q0 -15 -12 -27t-27 -12h-96q-27 0 -39 29l-31 75q-58 -55 -88 -75q-78 -49 -188 -49q-89 0 -159 34
t-113.5 93.5t-66 136.5t-22.5 166zM315 1049q-28 -15 -45 8l-67 96q-13 19 12 39l277 213q23 17 49 0l282 -213q23 -19 13 -39l-70 -94q-7 -10 -20 -13t-23 3l-203 118z" />
    <glyph glyph-name="udieresis" unicode="&#xfc;" 
d="M92 410v370q0 17 11.5 28t27.5 11h219q16 0 27.5 -11t11.5 -28v-379q0 -66 35 -111.5t96 -45.5q57 0 90 44t33 101v391q0 39 43 39h209q16 0 27.5 -11t11.5 -28v-741q0 -15 -12 -27t-27 -12h-96q-27 0 -39 29l-31 75q-58 -55 -88 -75q-78 -49 -188 -49q-89 0 -159 34
t-113.5 93.5t-66 136.5t-22.5 166zM727 1096q-60 0 -101.5 42.5t-41.5 102.5t41.5 101.5t101.5 41.5t102.5 -41.5t42.5 -101.5t-42.5 -102.5t-102.5 -42.5zM307 1096q-60 0 -101.5 42.5t-41.5 102.5t41.5 101.5t101.5 41.5t103 -41.5t43 -101.5t-43 -102.5t-103 -42.5z" />
    <glyph glyph-name="yacute" unicode="&#xfd;" horiz-adv-x="952" 
d="M319 84l-307 682q-9 20 1.5 36.5t33.5 16.5h234q23 0 34 -22l158 -381h4l162 381q3 9 13 15.5t22 6.5h231q23 0 34 -16.5t1 -36.5l-627 -1356q-12 -24 -34 -24h-230q-23 0 -34 16.5t-1 38.5zM328 1049q-36 -21 -56 18l-43 86q-10 20 13 39l348 213q8 7 27 6.5t26 -12.5
l70 -121q21 -40 -13 -61z" />
    <glyph glyph-name="thorn" unicode="&#xfe;" 
d="M416 12v-590q0 -15 -12 -26.5t-27 -11.5h-227q-15 0 -27 11.5t-12 26.5v1973q0 15 12 27t27 12h227q15 0 27 -12t12 -27v-607q29 21 79 36.5t99 15.5q172 0 285.5 -119t113.5 -311q0 -181 -126 -305.5t-302 -124.5q-81 0 -149 32zM383 410q0 -70 46 -117t116 -47
q69 0 116.5 47.5t47.5 116.5q0 68 -47.5 114.5t-116.5 46.5q-68 0 -115 -47t-47 -114z" />
    <glyph glyph-name="ydieresis" unicode="&#xff;" horiz-adv-x="952" 
d="M319 84l-307 682q-9 20 1.5 36.5t33.5 16.5h234q23 0 34 -22l158 -381h4l162 381q3 9 13 15.5t22 6.5h231q23 0 34 -16.5t1 -36.5l-627 -1356q-12 -24 -34 -24h-230q-23 0 -34 16.5t-1 38.5zM684 1096q-60 0 -101.5 42.5t-41.5 102.5t41.5 101.5t101.5 41.5t102.5 -41.5
t42.5 -101.5t-42.5 -102.5t-102.5 -42.5zM264 1096q-60 0 -101.5 42.5t-41.5 102.5t41.5 101.5t101.5 41.5t103 -41.5t43 -101.5t-43 -102.5t-103 -42.5z" />
    <glyph glyph-name="Amacron" unicode="&#x100;" horiz-adv-x="1355" 
d="M27 0q-23 0 -33.5 16.5t-1.5 36.5l641 1379q11 22 35 22h20q24 0 35 -22l641 -1379q9 -20 -1.5 -36.5t-33.5 -16.5h-227q-28 0 -43.5 11t-28.5 40l-74 162h-557l-73 -164q-20 -49 -74 -49h-225zM522 492h312l-156 337h-2zM416 1640q-17 0 -28 11t-11 26v84q0 17 11 28
t28 11h524q17 0 28 -11t11 -28v-84q0 -15 -11 -26t-28 -11h-524z" />
    <glyph glyph-name="amacron" unicode="&#x101;" horiz-adv-x="878" 
d="M55 250q0 121 82 197.5t219 76.5q41 0 80.5 -8t58.5 -16l19 -8q0 66 -21 93t-90 27q-41 0 -102.5 -9t-101.5 -21q-42 -13 -49 43l-19 129q-7 42 31 55q21 7 110 19t162 12q188 0 267 -82t79 -266v-453q0 -15 -12 -27t-27 -12h-90q-25 0 -37 27l-28 55q-31 -28 -57.5 -47
t-78.5 -37t-112 -18q-123 0 -203 75t-80 195zM322 270q0 -37 25.5 -63.5t62.5 -26.5t63.5 26.5t26.5 63.5q-2 36 -28 61t-62 25q-37 0 -62.5 -25.5t-25.5 -60.5zM186 1153q-17 0 -28 11t-11 26v84q0 17 11 28t28 11h525q17 0 28 -11t11 -28v-84q0 -15 -11 -26t-28 -11h-525z
" />
    <glyph glyph-name="Abreve" unicode="&#x102;" horiz-adv-x="1355" 
d="M27 0q-23 0 -33.5 16.5t-1.5 36.5l641 1379q11 22 35 22h20q24 0 35 -22l641 -1379q9 -20 -1.5 -36.5t-33.5 -16.5h-227q-28 0 -43.5 11t-28.5 40l-74 162h-557l-73 -164q-20 -49 -74 -49h-225zM522 492h312l-156 337h-2zM678 1563q-113 0 -194.5 70t-96.5 175
q-3 19 8 32t31 13h92q12 0 22 -7.5t13 -16.5q14 -43 48 -70.5t77 -27.5q38 0 72.5 29.5t48.5 68.5q3 10 13.5 17t21.5 7h96q19 0 30 -13t9 -32q-17 -106 -98.5 -175.5t-192.5 -69.5z" />
    <glyph glyph-name="abreve" unicode="&#x103;" horiz-adv-x="878" 
d="M55 250q0 121 82 197.5t219 76.5q41 0 80.5 -8t58.5 -16l19 -8q0 66 -21 93t-90 27q-41 0 -102.5 -9t-101.5 -21q-42 -13 -49 43l-19 129q-7 42 31 55q21 7 110 19t162 12q188 0 267 -82t79 -266v-453q0 -15 -12 -27t-27 -12h-90q-25 0 -37 27l-28 55q-31 -28 -57.5 -47
t-78.5 -37t-112 -18q-123 0 -203 75t-80 195zM322 270q0 -37 25.5 -63.5t62.5 -26.5t63.5 26.5t26.5 63.5q-2 36 -28 61t-62 25q-37 0 -62.5 -25.5t-25.5 -60.5zM449 1079q-113 0 -194.5 70t-96.5 176q-3 19 8 32t31 13h92q12 0 22 -7.5t13 -16.5q14 -43 48 -71t77 -28
q38 0 72 30t48 69q3 10 13.5 17t21.5 7h96q19 0 30 -13t9 -32q-18 -106 -98.5 -176t-191.5 -70z" />
    <glyph glyph-name="Aogonek" unicode="&#x104;" horiz-adv-x="1355" 
d="M27 0q-23 0 -33.5 16.5t-1.5 36.5l643 1379q11 22 35 22h20q24 0 35 -22l639 -1379q9 -20 -1.5 -36.5t-33.5 -16.5h-174q-92 -92 -92 -195q0 -60 36 -98.5t107 -38.5q16 0 30.5 2t31 6t22.5 5q20 3 32.5 -8.5t12.5 -30.5v-68q0 -13 -9 -24.5t-21 -14.5q-72 -16 -129 -16
q-124 0 -203.5 59t-79.5 174q0 48 15 94t35.5 77t43.5 56.5t36.5 36.5t16.5 13l-84 184h-557l-73 -164q-20 -49 -74 -49h-225zM522 492h312l-158 337h-2z" />
    <glyph glyph-name="aogonek" unicode="&#x105;" horiz-adv-x="878" 
d="M55 250q0 121 82 197.5t219 76.5q41 0 80.5 -8t58.5 -16l19 -8q0 71 -20.5 98.5t-90.5 27.5q-77 0 -204 -24q-42 -8 -49 43l-19 117q-7 42 31 55q21 7 110 19t162 12q188 0 267 -82t79 -266v-453q0 -15 -12 -27t-27 -12h-10q-92 -92 -92 -195q0 -60 36 -98.5t107 -38.5
q16 0 30.5 2t31 6t22.5 5q20 3 32.5 -8.5t12.5 -30.5v-68q0 -13 -9 -24.5t-21 -14.5q-72 -16 -129 -16q-124 0 -203.5 59t-79.5 174q0 56 19.5 108.5t47.5 87t47.5 53.5t30.5 26l-28 55q-31 -28 -57.5 -47t-78.5 -37t-112 -18q-123 0 -203 75t-80 195zM322 270
q0 -37 25.5 -63.5t62.5 -26.5t63.5 26.5t26.5 63.5q-2 36 -28 61t-62 25q-37 0 -62.5 -25.5t-25.5 -60.5z" />
    <glyph glyph-name="Cacute" unicode="&#x106;" horiz-adv-x="1378" 
d="M72 715q0 151 58.5 288t157 235.5t235.5 157t288 58.5t270.5 -46.5t225.5 -143.5q13 -12 13.5 -29t-11.5 -29l-160 -166q-11 -10 -26 -10t-25 10q-117 105 -277 105q-171 0 -286 -124t-115 -298q0 -172 116 -294t287 -122q73 0 146.5 26t128.5 73q10 9 27 8t26 -11
l160 -170q10 -11 9.5 -27.5t-11.5 -27.5q-204 -198 -498 -198q-101 0 -197 26t-177 73t-149 114.5t-115.5 148.5t-74 176.5t-26.5 196.5zM668 1561q-36 -21 -56 18l-43 86q-10 20 13 39l348 213q8 7 27 6.5t26 -12.5l70 -121q21 -40 -13 -61z" />
    <glyph glyph-name="cacute" unicode="&#x107;" horiz-adv-x="860" 
d="M47 410q0 118 61.5 217.5t163 156t217.5 56.5q185 0 308 -148q10 -14 6.5 -29t-17.5 -28l-122 -117q-8 -7 -23 -5.5t-23 9.5q-50 53 -118 53q-67 0 -115.5 -48.5t-48.5 -116.5q0 -69 46.5 -117.5t113.5 -48.5q49 0 78.5 16t60.5 47q25 25 45 8l123 -106q33 -30 14 -57
q-114 -172 -330 -172q-178 0 -309 124.5t-131 305.5zM342 1049q-35 -21 -55 18l-43 86q-10 21 12 39l348 213q8 7 27 6.5t26 -12.5l70 -121q21 -40 -12 -61z" />
    <glyph glyph-name="Ccircumflex" unicode="&#x108;" horiz-adv-x="1378" 
d="M72 715q0 151 58.5 288t157 235.5t235.5 157t288 58.5t270.5 -46.5t225.5 -143.5q13 -12 13.5 -29t-11.5 -29l-160 -166q-11 -10 -26 -10t-25 10q-117 105 -277 105q-171 0 -286 -124t-115 -298q0 -172 116 -294t287 -122q73 0 146.5 26t128.5 73q10 9 27 8t26 -11
l160 -170q10 -11 9.5 -27.5t-11.5 -27.5q-204 -198 -498 -198q-101 0 -197 26t-177 73t-149 114.5t-115.5 148.5t-74 176.5t-26.5 196.5zM610 1561q-28 -15 -45 8l-67 96q-13 19 12 39l276 213q24 18 50 0l282 -213q22 -18 12 -39l-69 -94q-7 -10 -20 -13t-23 3l-203 118z
" />
    <glyph glyph-name="ccircumflex" unicode="&#x109;" horiz-adv-x="860" 
d="M47 410q0 118 61.5 217.5t163 156t217.5 56.5q185 0 308 -148q10 -14 6.5 -29t-17.5 -28l-122 -117q-8 -7 -23 -5.5t-23 9.5q-50 53 -118 53q-67 0 -115.5 -48.5t-48.5 -116.5q0 -69 46.5 -117.5t113.5 -48.5q49 0 78.5 16t60.5 47q25 25 45 8l123 -106q33 -30 14 -57
q-114 -172 -330 -172q-178 0 -309 124.5t-131 305.5zM285 1049q-28 -15 -45 8l-68 96q-13 19 12 39l277 213q23 17 49 0l283 -213q23 -18 12 -39l-70 -94q-7 -10 -20 -13t-23 3l-203 118z" />
    <glyph glyph-name="Cdotaccent" unicode="&#x10a;" horiz-adv-x="1378" 
d="M72 715q0 151 58.5 288t157 235.5t235.5 157t288 58.5t270.5 -46.5t225.5 -143.5q13 -12 13.5 -29t-11.5 -29l-160 -166q-11 -10 -26 -10t-25 10q-117 105 -277 105q-171 0 -286 -124t-115 -298q0 -172 116 -294t287 -122q73 0 146.5 26t128.5 73q10 9 27 8t26 -11
l160 -170q10 -11 9.5 -27.5t-11.5 -27.5q-204 -198 -498 -198q-101 0 -197 26t-177 73t-149 114.5t-115.5 148.5t-74 176.5t-26.5 196.5zM813 1585q-67 0 -114.5 47.5t-47.5 114.5q0 68 47.5 116t114.5 48t115.5 -48.5t48.5 -115.5t-48 -114.5t-116 -47.5z" />
    <glyph glyph-name="cdotaccent" unicode="&#x10b;" horiz-adv-x="860" 
d="M47 410q0 118 61.5 217.5t163 156t217.5 56.5q185 0 308 -148q10 -14 6.5 -29t-17.5 -28l-122 -117q-8 -7 -23 -5.5t-23 9.5q-50 53 -118 53q-67 0 -115.5 -48.5t-48.5 -116.5q0 -69 46.5 -117.5t113.5 -48.5q49 0 78.5 16t60.5 47q25 25 45 8l123 -106q33 -30 14 -57
q-114 -172 -330 -172q-178 0 -309 124.5t-131 305.5zM487 1067q-67 0 -114 47t-47 115t47 116t114 48t115.5 -48.5t48.5 -115.5t-48 -114.5t-116 -47.5z" />
    <glyph glyph-name="Ccaron" unicode="&#x10c;" horiz-adv-x="1378" 
d="M72 715q0 151 58.5 288t157 235.5t235.5 157t288 58.5t270.5 -46.5t225.5 -143.5q13 -12 13.5 -29t-11.5 -29l-160 -166q-11 -10 -26 -10t-25 10q-117 105 -277 105q-171 0 -286 -124t-115 -298q0 -172 116 -294t287 -122q73 0 146.5 26t128.5 73q10 9 27 8t26 -11
l160 -170q10 -11 9.5 -27.5t-11.5 -27.5q-204 -198 -498 -198q-101 0 -197 26t-177 73t-149 114.5t-115.5 148.5t-74 176.5t-26.5 196.5zM791 1561l-283 213q-22 18 -12 38l69 95q7 10 20 13t23 -3l203 -119l205 119q28 15 45 -8l67 -97q13 -18 -12 -38l-276 -213
q-23 -17 -49 0z" />
    <glyph glyph-name="ccaron" unicode="&#x10d;" horiz-adv-x="860" 
d="M47 410q0 118 61.5 217.5t163 156t217.5 56.5q185 0 308 -148q10 -14 6.5 -29t-17.5 -28l-122 -117q-8 -7 -23 -5.5t-23 9.5q-50 53 -118 53q-67 0 -115.5 -48.5t-48.5 -116.5q0 -69 46.5 -117.5t113.5 -48.5q49 0 78.5 16t60.5 47q25 25 45 8l123 -106q33 -30 14 -57
q-114 -172 -330 -172q-178 0 -309 124.5t-131 305.5zM465 1049l-283 213q-22 18 -12 38l70 95q7 10 20 13t23 -3l202 -119l205 119q28 15 45 -8l68 -97q13 -18 -12 -38l-277 -213q-23 -17 -49 0z" />
    <glyph glyph-name="Dcaron" unicode="&#x10e;" horiz-adv-x="1505" 
d="M176 39v1356q0 15 11 27t26 12h500q145 0 278.5 -57t230 -153t153.5 -228t57 -277q0 -117 -36.5 -227t-103 -198t-155 -154.5t-198 -103t-226.5 -36.5h-500q-15 0 -26 12t-11 27zM496 303h196q172 0 286 120t114 296q0 175 -114 294.5t-286 119.5h-196v-830zM645 1561
l-283 213q-22 18 -12 38l70 95q7 10 20 13t23 -3l203 -119l204 119q28 15 45 -8l68 -97q13 -18 -12 -38l-277 -213q-23 -17 -49 0z" />
    <glyph glyph-name="dcaron" unicode="&#x10f;" horiz-adv-x="1126" 
d="M51 410q0 105 32.5 188.5t89.5 135.5t129.5 79t156.5 27q47 0 97 -13t73 -26v594q0 15 12 27t27 12h227q15 0 27 -12t12 -27v-1356q0 -15 -12 -27t-27 -12h-96q-29 0 -43 41l-25 68q-4 -5 -11.5 -14t-33.5 -31t-55 -39t-76.5 -31t-97.5 -14q-172 0 -289 125.5t-117 304.5
zM332 412q0 -71 48 -119.5t118 -48.5t117 48.5t47 119.5q0 69 -47 116t-117 47t-118 -47t-48 -116zM1190 854l-31 31q-10 13 -9 25t11 20q15 11 33 27t46.5 48t47 77.5t19.5 93.5q-35 -15 -82 -15q-61 0 -104.5 42.5t-43.5 103.5t46.5 104t115.5 43q32 0 62.5 -12.5
t59.5 -38.5t46.5 -74.5t17.5 -111.5q0 -61 -16.5 -118t-35.5 -92.5t-52 -73t-47 -50t-39 -33.5q-25 -18 -45 4z" />
    <glyph glyph-name="Dcroat" unicode="&#x110;" horiz-adv-x="1515" 
d="M186 39v614h-59q-15 0 -26 12t-11 27v35q0 15 11 27t26 12h59v629q0 15 11 27t26 12h500q145 0 278.5 -57t230 -153t153.5 -228t57 -277q0 -117 -36.5 -227t-103 -198t-155 -154.5t-198 -103t-226.5 -36.5h-500q-15 0 -26 12t-11 27zM506 303h196q172 0 286 120t114 296
q0 175 -114 294.5t-286 119.5h-196v-367h291q17 0 28 -11.5t11 -27.5v-37q0 -15 -11 -26t-28 -11h-291v-350z" />
    <glyph glyph-name="dcroat" unicode="&#x111;" 
d="M51 410q0 105 32.5 188.5t89.5 135.5t129.5 79t156.5 27q47 0 97 -13t73 -26v286h-197q-17 0 -28 11t-11 26v37q0 16 11 27.5t28 11.5h197v195q0 15 12 27t27 12h227q15 0 27 -12t12 -27v-195h65q15 0 26 -12t11 -27v-35q0 -15 -11 -27t-26 -12h-65v-1048q0 -15 -12 -27
t-27 -12h-96q-29 0 -43 41l-25 68q-4 -5 -11.5 -14t-33.5 -31t-55 -39t-76.5 -31t-97.5 -14q-172 0 -289 125.5t-117 304.5zM336 410q0 -69 47.5 -116.5t116.5 -47.5t115.5 47.5t46.5 116.5q0 68 -46.5 114.5t-115.5 46.5t-116.5 -46.5t-47.5 -114.5z" />
    <glyph glyph-name="Emacron" unicode="&#x112;" horiz-adv-x="1200" 
d="M176 39v1356q0 16 11 27.5t28 11.5h848q17 0 28 -11.5t11 -27.5v-224q0 -15 -11 -26.5t-28 -11.5h-567v-254h467q15 0 26.5 -12t11.5 -27v-224q0 -17 -11 -27.5t-27 -10.5h-467v-277h567q17 0 28 -11.5t11 -27.5v-223q0 -16 -11 -27.5t-28 -11.5h-848q-17 0 -28 11.5
t-11 27.5zM387 1640q-17 0 -28 11t-11 26v84q0 17 11 28t28 11h524q17 0 28 -11t11 -28v-84q0 -15 -11 -26t-28 -11h-524z" />
    <glyph glyph-name="emacron" unicode="&#x113;" horiz-adv-x="899" 
d="M49 410q0 176 122.5 303t301.5 127q160 0 274.5 -109.5t114.5 -275.5q0 -28 -4 -56q-1 -15 -13 -24.5t-26 -9.5h-491q6 -50 45.5 -93t111.5 -43q36 0 76.5 15t67.5 35q13 11 27.5 11t23.5 -11l102 -123q10 -13 10.5 -29t-12.5 -31q-116 -116 -303 -116
q-181 0 -304.5 125.5t-123.5 304.5zM354 524h219q-3 39 -35.5 68t-72.5 29q-41 0 -73 -28.5t-38 -68.5zM215 1153q-17 0 -28 11t-11 26v84q0 17 11 28t28 11h524q17 0 28 -11t11 -28v-84q0 -15 -11 -26t-28 -11h-524z" />
    <glyph glyph-name="Ebreve" unicode="&#x114;" horiz-adv-x="1200" 
d="M176 39v1356q0 16 11 27.5t28 11.5h848q17 0 28 -11.5t11 -27.5v-224q0 -15 -11 -26.5t-28 -11.5h-567v-254h467q15 0 26.5 -12t11.5 -27v-224q0 -17 -11 -27.5t-27 -10.5h-467v-277h567q17 0 28 -11.5t11 -27.5v-223q0 -16 -11 -27.5t-28 -11.5h-848q-17 0 -28 11.5
t-11 27.5zM649 1563q-113 0 -194.5 70t-96.5 175q-3 19 8 32t31 13h92q12 0 22 -7.5t13 -16.5q14 -43 48 -70.5t77 -27.5q38 0 72.5 29.5t48.5 68.5q3 10 13.5 17t21.5 7h96q19 0 30 -13t9 -32q-17 -106 -98.5 -175.5t-192.5 -69.5z" />
    <glyph glyph-name="ebreve" unicode="&#x115;" horiz-adv-x="899" 
d="M49 410q0 176 122.5 303t301.5 127q160 0 274.5 -109.5t114.5 -275.5q0 -28 -4 -56q-1 -15 -13 -24.5t-26 -9.5h-491q6 -50 45.5 -93t111.5 -43q36 0 76.5 15t67.5 35q13 11 27.5 11t23.5 -11l102 -123q10 -13 10.5 -29t-12.5 -31q-116 -116 -303 -116
q-181 0 -304.5 125.5t-123.5 304.5zM354 524h219q-3 39 -35.5 68t-72.5 29q-41 0 -73 -28.5t-38 -68.5zM477 1079q-113 0 -194.5 70t-96.5 176q-3 19 8 32t31 13h92q12 0 22 -7.5t13 -16.5q14 -43 48 -71t77 -28q38 0 72.5 30t48.5 69q3 10 13.5 17t21.5 7h96q19 0 30 -13
t9 -32q-17 -106 -98.5 -176t-192.5 -70z" />
    <glyph glyph-name="Edotaccent" unicode="&#x116;" horiz-adv-x="1200" 
d="M176 39v1356q0 16 11 27.5t28 11.5h848q17 0 28 -11.5t11 -27.5v-224q0 -15 -11 -26.5t-28 -11.5h-567v-254h467q15 0 26.5 -12t11.5 -27v-224q0 -17 -11 -27.5t-27 -10.5h-467v-277h567q17 0 28 -11.5t11 -27.5v-223q0 -16 -11 -27.5t-28 -11.5h-848q-17 0 -28 11.5
t-11 27.5zM649 1585q-67 0 -114.5 47.5t-47.5 114.5q0 68 47.5 116t114.5 48t115.5 -48.5t48.5 -115.5t-48 -114.5t-116 -47.5z" />
    <glyph glyph-name="edotaccent" unicode="&#x117;" horiz-adv-x="899" 
d="M49 410q0 176 122.5 303t301.5 127q160 0 274.5 -109.5t114.5 -275.5q0 -28 -4 -56q-1 -15 -13 -24.5t-26 -9.5h-491q6 -50 45.5 -93t111.5 -43q36 0 76.5 15t67.5 35q13 11 27.5 11t23.5 -11l102 -123q10 -13 10.5 -29t-12.5 -31q-116 -116 -303 -116
q-181 0 -304.5 125.5t-123.5 304.5zM354 524h219q-3 39 -35.5 68t-72.5 29q-41 0 -73 -28.5t-38 -68.5zM477 1067q-67 0 -114.5 47.5t-47.5 114.5q0 68 47.5 116t114.5 48t115.5 -48.5t48.5 -115.5t-48 -114.5t-116 -47.5z" />
    <glyph glyph-name="Eogonek" unicode="&#x118;" horiz-adv-x="1200" 
d="M176 39v1356q0 16 11 27.5t28 11.5h848q17 0 28 -11.5t11 -27.5v-224q0 -15 -11 -26.5t-28 -11.5h-567v-254h467q15 0 26.5 -12t11.5 -27v-224q0 -17 -11 -27.5t-27 -10.5h-467v-277h567q17 0 28 -11.5t11 -27.5v-190q0 -6 -0.5 -12t-1 -10t-2.5 -8.5t-3 -7.5t-4.5 -7
t-4.5 -5.5t-5.5 -5.5t-5.5 -5t-7 -5.5t-7 -5.5q-92 -92 -92 -195q0 -60 36 -98.5t107 -38.5q16 0 30.5 2t31 6t22.5 5q20 3 32.5 -8.5t12.5 -30.5v-68q0 -13 -9.5 -24.5t-21.5 -14.5q-72 -16 -129 -16q-124 0 -203 59t-79 174q0 136 112 248h-696q-17 0 -28 11.5t-11 27.5z
" />
    <glyph glyph-name="eogonek" unicode="&#x119;" horiz-adv-x="903" 
d="M274 -248q0 130 105 240q-145 32 -236.5 149t-91.5 269q0 176 122.5 303t301.5 127q160 0 274.5 -109.5t114.5 -275.5q0 -28 -4 -56q-1 -15 -13 -24.5t-26 -9.5h-491q6 -51 45.5 -94.5t111.5 -43.5q75 0 140 49q12 8 26.5 9t24.5 -9q14 -16 48 -56t58 -64
q11 -11 11.5 -28t-9.5 -28q-106 -106 -268 -118q-74 -87 -74 -177q0 -60 36.5 -98.5t107.5 -38.5q16 0 30.5 2t31 6t22.5 5q20 3 32.5 -8.5t12.5 -30.5v-68q0 -13 -9.5 -24.5t-21.5 -14.5q-72 -16 -129 -16q-124 0 -203.5 59t-79.5 174zM356 524h219q-3 39 -35.5 68
t-72.5 29q-41 0 -73 -28.5t-38 -68.5z" />
    <glyph glyph-name="Ecaron" unicode="&#x11a;" horiz-adv-x="1200" 
d="M176 39v1356q0 16 11 27.5t28 11.5h848q17 0 28 -11.5t11 -27.5v-224q0 -15 -11 -26.5t-28 -11.5h-567v-254h467q15 0 26.5 -12t11.5 -27v-224q0 -17 -11 -27.5t-27 -10.5h-467v-277h567q17 0 28 -11.5t11 -27.5v-223q0 -16 -11 -27.5t-28 -11.5h-848q-17 0 -28 11.5
t-11 27.5zM627 1561l-283 213q-22 18 -12 38l69 95q7 10 20 13t23 -3l203 -119l205 119q28 15 45 -8l68 -97q13 -18 -13 -38l-276 -213q-23 -17 -49 0z" />
    <glyph glyph-name="ecaron" unicode="&#x11b;" horiz-adv-x="899" 
d="M49 410q0 176 122.5 303t301.5 127q160 0 274.5 -109.5t114.5 -275.5q0 -28 -4 -56q-1 -15 -13 -24.5t-26 -9.5h-491q6 -50 45.5 -93t111.5 -43q36 0 76.5 15t67.5 35q13 11 27.5 11t23.5 -11l102 -123q10 -13 10.5 -29t-12.5 -31q-116 -116 -303 -116
q-181 0 -304.5 125.5t-123.5 304.5zM354 524h219q-3 39 -35.5 68t-72.5 29q-41 0 -73 -28.5t-38 -68.5zM455 1049l-283 213q-22 18 -12 38l69 95q7 10 20 13t23 -3l203 -119l205 119q28 15 45 -8l68 -97q13 -18 -13 -38l-276 -213q-23 -17 -49 0z" />
    <glyph glyph-name="Gcircumflex" unicode="&#x11c;" horiz-adv-x="1437" 
d="M74 715q0 151 58 287.5t156 235t234.5 156.5t286.5 58q130 0 263 -51t237 -141q14 -11 15 -27.5t-11 -28.5l-162 -172q-27 -23 -55 -2q-106 98 -269 98q-167 0 -285 -122t-118 -291q0 -168 119 -288t286 -120q102 0 183 33v119h-129q-17 0 -28 11t-11 26v202q0 17 11 28
t28 11h411q15 0 26 -12t11 -27l2 -551q0 -20 -16 -32q-9 -5 -25 -14t-68 -32t-108 -40.5t-140 -32t-167 -14.5q-150 0 -286.5 57.5t-234.5 155t-156 233.5t-58 287zM608 1561q-28 -15 -45 8l-67 96q-13 19 12 39l276 213q24 18 50 0l282 -213q23 -18 12 -39l-69 -94
q-7 -10 -20 -13t-23 3l-203 118z" />
    <glyph glyph-name="gcircumflex" unicode="&#x11d;" horiz-adv-x="952" 
d="M23 74q0 45 17 85t40.5 64.5t47.5 42.5t41 26l17 7q-7 7 -16.5 20.5t-26 61.5t-16.5 104q0 144 106 249.5t254 105.5h387q17 0 28 -11t11 -28v-84q0 -24 -22 -35l-119 -43q3 -3 8.5 -8t19 -23.5t23.5 -39.5t18.5 -55.5t8.5 -72.5q0 -120 -99.5 -214.5t-254.5 -94.5h-148
q-32 0 -49.5 -15t-17.5 -40q0 -27 19.5 -41.5t45.5 -14.5h246q149 0 250.5 -83t101.5 -216q0 -158 -115 -257t-346 -99q-114 0 -200 25t-134 66.5t-71 89t-23 98.5q0 43 15.5 80t39.5 60.5t40 36t30 19.5v6q-15 5 -36.5 17.5t-51 38t-49.5 71t-20 101.5zM387 467
q0 -46 31.5 -76.5t77.5 -30.5q47 0 77.5 30.5t30.5 76.5t-30.5 76t-77.5 30q-46 0 -77.5 -30.5t-31.5 -75.5zM336 -299q0 -44 37.5 -70t109.5 -26q73 0 110.5 26.5t37.5 69.5q0 37 -35.5 61.5t-112.5 24.5q-61 0 -104 -22t-43 -64zM311 1049q-28 -15 -45 8l-67 96
q-13 19 12 39l276 213q24 18 50 0l282 -213q23 -18 12 -39l-69 -94q-7 -10 -20 -13t-23 3l-203 118z" />
    <glyph glyph-name="Gbreve" unicode="&#x11e;" horiz-adv-x="1437" 
d="M74 715q0 151 58 287.5t156 235t234.5 156.5t286.5 58q130 0 263 -51t237 -141q14 -11 15 -27.5t-11 -28.5l-162 -172q-27 -23 -55 -2q-106 98 -269 98q-167 0 -285 -122t-118 -291q0 -168 119 -288t286 -120q102 0 183 33v119h-129q-17 0 -28 11t-11 26v202q0 17 11 28
t28 11h411q15 0 26 -12t11 -27l2 -551q0 -20 -16 -32q-9 -5 -25 -14t-68 -32t-108 -40.5t-140 -32t-167 -14.5q-150 0 -286.5 57.5t-234.5 155t-156 233.5t-58 287zM811 1563q-113 0 -194.5 70t-96.5 175q-3 19 8 32t31 13h92q12 0 22 -7.5t13 -16.5q14 -43 48 -70.5
t77 -27.5q38 0 72.5 29.5t48.5 68.5q3 10 13.5 17t21.5 7h96q19 0 30 -13t9 -32q-17 -106 -98.5 -175.5t-192.5 -69.5z" />
    <glyph glyph-name="gbreve" unicode="&#x11f;" horiz-adv-x="952" 
d="M23 74q0 45 17 85t40.5 64.5t47.5 42.5t41 26l17 7q-7 7 -16.5 20.5t-26 61.5t-16.5 104q0 144 106 249.5t254 105.5h387q17 0 28 -11t11 -28v-84q0 -24 -22 -35l-119 -43q3 -3 8.5 -8t19 -23.5t23.5 -39.5t18.5 -55.5t8.5 -72.5q0 -120 -99.5 -214.5t-254.5 -94.5h-148
q-32 0 -49.5 -15t-17.5 -40q0 -27 19.5 -41.5t45.5 -14.5h246q149 0 250.5 -83t101.5 -216q0 -158 -115 -257t-346 -99q-114 0 -200 25t-134 66.5t-71 89t-23 98.5q0 43 15.5 80t39.5 60.5t40 36t30 19.5v6q-15 5 -36.5 17.5t-51 38t-49.5 71t-20 101.5zM387 467
q0 -46 31.5 -76.5t77.5 -30.5q47 0 77.5 30.5t30.5 76.5t-30.5 76t-77.5 30q-46 0 -77.5 -30.5t-31.5 -75.5zM336 -299q0 -44 37.5 -70t109.5 -26q73 0 110.5 26.5t37.5 69.5q0 37 -35.5 61.5t-112.5 24.5q-61 0 -104 -22t-43 -64zM514 1079q-113 0 -194.5 70t-96.5 176
q-3 19 8 32t31 13h92q12 0 22 -7.5t13 -16.5q14 -43 48 -71t77 -28q38 0 72.5 30t48.5 69q3 10 13.5 17t21.5 7h96q19 0 30 -13t9 -32q-17 -106 -98.5 -176t-192.5 -70z" />
    <glyph glyph-name="Gdotaccent" unicode="&#x120;" horiz-adv-x="1437" 
d="M74 715q0 151 58 287.5t156 235t234.5 156.5t286.5 58q130 0 263 -51t237 -141q14 -11 15 -27.5t-11 -28.5l-162 -172q-27 -23 -55 -2q-106 98 -269 98q-167 0 -285 -122t-118 -291q0 -168 119 -288t286 -120q102 0 183 33v119h-129q-17 0 -28 11t-11 26v202q0 17 11 28
t28 11h411q15 0 26 -12t11 -27l2 -551q0 -20 -16 -32q-9 -5 -25 -14t-68 -32t-108 -40.5t-140 -32t-167 -14.5q-150 0 -286.5 57.5t-234.5 155t-156 233.5t-58 287zM811 1585q-67 0 -114.5 47.5t-47.5 114.5q0 68 47.5 116t114.5 48t115.5 -48.5t48.5 -115.5t-48 -114.5
t-116 -47.5z" />
    <glyph glyph-name="gdotaccent" unicode="&#x121;" horiz-adv-x="952" 
d="M23 74q0 45 17 85t40.5 64.5t47.5 42.5t41 26l17 7q-7 7 -16.5 20.5t-26 61.5t-16.5 104q0 144 106 249.5t254 105.5h387q17 0 28 -11t11 -28v-84q0 -24 -22 -35l-119 -43q3 -3 8.5 -8t19 -23.5t23.5 -39.5t18.5 -55.5t8.5 -72.5q0 -120 -99.5 -214.5t-254.5 -94.5h-148
q-32 0 -49.5 -15t-17.5 -40q0 -27 19.5 -41.5t45.5 -14.5h246q149 0 250.5 -83t101.5 -216q0 -158 -115 -257t-346 -99q-114 0 -200 25t-134 66.5t-71 89t-23 98.5q0 43 15.5 80t39.5 60.5t40 36t30 19.5v6q-15 5 -36.5 17.5t-51 38t-49.5 71t-20 101.5zM387 467
q0 -46 31.5 -76.5t77.5 -30.5q47 0 77.5 30.5t30.5 76.5t-30.5 76t-77.5 30q-46 0 -77.5 -30.5t-31.5 -75.5zM336 -299q0 -44 37.5 -70t109.5 -26q73 0 110.5 26.5t37.5 69.5q0 37 -35.5 61.5t-112.5 24.5q-61 0 -104 -22t-43 -64zM522 1067q-68 0 -115 47.5t-47 114.5
q0 68 47.5 116t114.5 48q68 0 116 -48.5t48 -115.5t-48 -114.5t-116 -47.5z" />
    <glyph glyph-name="Gcommaaccent" unicode="&#x122;" horiz-adv-x="1437" 
d="M74 715q0 151 58 287.5t156 235t234.5 156.5t286.5 58q130 0 263 -51t237 -141q14 -11 15 -27.5t-11 -28.5l-162 -172q-27 -23 -55 -2q-106 98 -269 98q-167 0 -285 -122t-118 -291q0 -168 119 -288t286 -120q102 0 183 33v119h-129q-17 0 -28 11t-11 26v202q0 17 11 28
t28 11h411q15 0 26 -12t11 -27l2 -551q0 -20 -16 -32q-9 -5 -25 -14t-68 -32t-108 -40.5t-140 -32t-167 -14.5q-150 0 -286.5 57.5t-234.5 155t-156 233.5t-58 287zM829 -184q31 0 62.5 -12.5t60 -39t46.5 -75t18 -111.5q0 -39 -5.5 -75.5t-18 -68t-23.5 -56t-31.5 -50
t-31 -39.5t-32.5 -34t-26.5 -24t-22.5 -19q-25 -18 -45 4l-30 30q-10 13 -9 25t11 20q11 8 24 18.5t36 35t40 50.5t30.5 64.5t14.5 77.5q-35 -14 -82 -14q-61 0 -104 42t-43 103t46 104.5t115 43.5z" />
    <glyph glyph-name="gcommaaccent" unicode="&#x123;" horiz-adv-x="952" 
d="M526 1073q-31 0 -62 12.5t-60 39t-46.5 75t-17.5 111.5q0 61 16.5 117.5t35.5 92t52 73.5t46.5 50t39.5 33q25 18 45 -4l31 -31q10 -13 9 -25t-11 -20q-15 -11 -33 -27t-46 -48t-46.5 -77t-19.5 -93q35 14 82 14q61 0 104 -42t43 -103t-46.5 -104.5t-115.5 -43.5zM23 74
q0 45 17 85t40.5 64.5t47.5 42.5t41 26l17 7q-7 7 -16.5 20.5t-26 61.5t-16.5 104q0 144 106 249.5t254 105.5h387q17 0 28 -11t11 -28v-84q0 -24 -22 -35l-119 -43q3 -3 8.5 -8t19 -23.5t23.5 -39.5t18.5 -55.5t8.5 -72.5q0 -120 -99.5 -214.5t-254.5 -94.5h-148
q-32 0 -49.5 -15t-17.5 -40q0 -27 19.5 -41.5t45.5 -14.5h246q149 0 250.5 -83t101.5 -216q0 -158 -115 -257t-346 -99q-114 0 -200 25t-134 66.5t-71 89t-23 98.5q0 43 15.5 80t39.5 60.5t40 36t30 19.5v6q-15 5 -36.5 17.5t-51 38t-49.5 71t-20 101.5zM387 467
q0 -46 31.5 -76.5t77.5 -30.5q47 0 77.5 30.5t30.5 76.5t-30.5 76t-77.5 30q-46 0 -77.5 -30.5t-31.5 -75.5zM336 -299q0 -44 37.5 -70t109.5 -26q73 0 110.5 26.5t37.5 69.5q0 37 -35.5 61.5t-112.5 24.5q-61 0 -104 -22t-43 -64z" />
    <glyph glyph-name="Hcircumflex" unicode="&#x124;" horiz-adv-x="1581" 
d="M176 39v1356q0 15 12 27t27 12h244q17 0 28 -11.5t11 -27.5v-516h585v516q0 16 11 27.5t28 11.5h244q15 0 27 -12t12 -27v-1356q0 -15 -12 -27t-27 -12h-244q-17 0 -28 11.5t-11 27.5v539h-585v-539q0 -16 -11 -27.5t-28 -11.5h-244q-15 0 -27 12t-12 27zM588 1561
q-28 -15 -45 8l-68 96q-13 19 12 39l277 213q23 17 49 0l283 -213q23 -18 12 -39l-70 -94q-7 -10 -20 -13t-23 3l-202 118z" />
    <glyph glyph-name="hcircumflex" unicode="&#x125;" horiz-adv-x="1085" 
d="M111 39v1356q0 15 12 27t27 12h227q15 0 27 -12t12 -27v-602q92 47 190 47q94 0 169.5 -35t123 -95t73 -137t25.5 -163v-371q0 -15 -12 -27t-27 -12h-217q-17 0 -28 11.5t-11 27.5v375q0 69 -41.5 115t-107.5 46q-58 0 -97.5 -37.5t-39.5 -123.5v-375q0 -21 -9.5 -30
t-35.5 -9h-221q-15 0 -27 12t-12 27zM49 1493q-28 -15 -45 8l-67 96q-13 19 12 39l276 213q23 17 49 0l283 -213q23 -18 12 -39l-69 -94q-7 -10 -20 -13t-23 3l-203 119z" />
    <glyph glyph-name="Hbar" unicode="&#x126;" horiz-adv-x="1581" 
d="M176 39v1048h-57q-15 0 -26 12t-11 27v35q0 15 11 27t26 12h57v195q0 15 12 27t27 12h244q17 0 28 -11.5t11 -27.5v-195h585v195q0 16 11 27.5t28 11.5h244q15 0 27 -12t12 -27v-195h57q17 0 28 -11.5t11 -27.5v-37q0 -15 -11 -26t-28 -11h-57v-1048q0 -15 -12 -27
t-27 -12h-244q-17 0 -28 11.5t-11 27.5v539h-585v-539q0 -16 -11 -27.5t-28 -11.5h-244q-15 0 -27 12t-12 27zM498 879h585v208h-585v-208z" />
    <glyph glyph-name="hbar" unicode="&#x127;" horiz-adv-x="1087" 
d="M111 39v1048h-64q-15 0 -26 12t-11 27v35q0 15 11 27t26 12h64v195q0 15 12 27t27 12h227q15 0 27 -12t12 -27v-195h198q17 0 28 -11.5t11 -27.5v-37q0 -15 -11 -26t-28 -11h-198v-296q99 47 190 47q184 0 287.5 -123t103.5 -305v-371q0 -15 -12 -27t-27 -12h-217
q-17 0 -28 11.5t-11 27.5v371q0 69 -41.5 115t-107.5 46q-55 0 -96 -34t-41 -107v-391q0 -39 -45 -39h-221q-15 0 -27 12t-12 27z" />
    <glyph glyph-name="Itilde" unicode="&#x128;" horiz-adv-x="675" 
d="M176 39v1356q0 15 12 27t27 12h246q15 0 27 -12t12 -27v-1356q0 -15 -12 -27t-27 -12h-246q-15 0 -27 12t-12 27zM98 1608l-71 57q-10 7 -14 22t1 25q10 19 28 43t46.5 55.5t67 52.5t77.5 21q41 0 80 -24t74 -48t68 -24q39 0 77 63q8 13 22 15t30 -11l69 -53
q27 -20 2 -59q-9 -16 -18.5 -30.5t-30.5 -40t-42 -43.5t-51.5 -32t-61.5 -14q-36 0 -70 15.5t-56.5 33.5t-49.5 33.5t-50 15.5q-17 0 -31.5 -11.5t-32 -35t-18.5 -24.5q-19 -19 -45 -2z" />
    <glyph glyph-name="itilde" unicode="&#x129;" horiz-adv-x="524" 
d="M111 39v739q0 17 11.5 28t27.5 11h225q16 0 27.5 -11t11.5 -28v-739q0 -15 -12 -27t-27 -12h-225q-15 0 -27 12t-12 27zM23 1137l-72 57q-10 7 -13.5 22t1.5 25q10 19 28 43t46.5 55.5t67 52.5t77.5 21q41 0 79.5 -24t73.5 -48t68 -24q40 0 78 63q8 13 21.5 15t29.5 -11
l70 -53q27 -20 2 -59q-12 -21 -26.5 -41t-41.5 -50.5t-63 -49.5t-74 -19q-36 0 -70 15.5t-56 33.5t-49 33.5t-50 15.5q-17 0 -31.5 -11.5t-32 -35t-18.5 -24.5q-19 -19 -45 -2z" />
    <glyph glyph-name="Imacron" unicode="&#x12a;" horiz-adv-x="675" 
d="M176 39v1356q0 15 12 27t27 12h246q15 0 27 -12t12 -27v-1356q0 -15 -12 -27t-27 -12h-246q-15 0 -27 12t-12 27zM76 1640q-17 0 -28 11t-11 26v84q0 17 11 28t28 11h524q17 0 28 -11t11 -28v-84q0 -15 -11 -26t-28 -11h-524z" />
    <glyph glyph-name="imacron" unicode="&#x12b;" horiz-adv-x="524" 
d="M111 39v739q0 17 11.5 28t27.5 11h225q16 0 27.5 -11t11.5 -28v-739q0 -15 -12 -27t-27 -12h-225q-15 0 -27 12t-12 27zM0 1153q-17 0 -28 11t-11 26v84q0 17 11 28t28 11h524q17 0 28 -11t11 -28v-84q0 -15 -11 -26t-28 -11h-524z" />
    <glyph glyph-name="Ibreve" unicode="&#x12c;" horiz-adv-x="675" 
d="M176 39v1356q0 15 12 27t27 12h246q15 0 27 -12t12 -27v-1356q0 -15 -12 -27t-27 -12h-246q-15 0 -27 12t-12 27zM338 1563q-113 0 -194.5 70t-96.5 175q-3 19 8 32t31 13h92q12 0 22 -7.5t13 -16.5q14 -43 48 -70.5t77 -27.5q38 0 72.5 29.5t48.5 68.5q3 10 13.5 17
t21.5 7h96q19 0 30 -13t9 -32q-17 -106 -98.5 -175.5t-192.5 -69.5z" />
    <glyph glyph-name="ibreve" unicode="&#x12d;" horiz-adv-x="524" 
d="M111 39v739q0 17 11.5 28t27.5 11h225q16 0 27.5 -11t11.5 -28v-739q0 -15 -12 -27t-27 -12h-225q-15 0 -27 12t-12 27zM262 1079q-113 0 -194.5 70t-96.5 176q-3 19 8 32t31 13h92q12 0 22 -7.5t13 -16.5q14 -43 48 -71t77 -28q38 0 72.5 30t48.5 69q3 10 13.5 17
t21.5 7h96q19 0 30 -13t9 -32q-17 -106 -98.5 -176t-192.5 -70z" />
    <glyph glyph-name="Iogonek" unicode="&#x12e;" horiz-adv-x="675" 
d="M176 39v1356q0 15 12 27t27 12h246q15 0 27 -12t12 -27v-1356q0 -15 -12 -27t-27 -12h-60q-92 -92 -92 -195q0 -60 36.5 -98.5t107.5 -38.5q16 0 30.5 2t31 6t22.5 5q20 3 32.5 -8.5t12.5 -30.5v-68q0 -13 -9.5 -24.5t-21.5 -14.5q-72 -16 -129 -16q-124 0 -203.5 59
t-79.5 174q0 135 113 248h-37q-15 0 -27 12t-12 27z" />
    <glyph glyph-name="iogonek" unicode="&#x12f;" horiz-adv-x="524" 
d="M260 1067q-68 0 -115 47.5t-47 114.5q0 68 47.5 116t114.5 48q68 0 116 -48.5t48 -115.5t-48 -114.5t-116 -47.5zM111 39v741q0 17 11.5 28t27.5 11h225q16 0 27.5 -11t11.5 -28v-741q0 -15 -12 -27t-27 -12h-51q-93 -93 -93 -195q0 -60 36.5 -98.5t107.5 -38.5
q16 0 30.5 2t31 6t22.5 5q20 3 32.5 -8.5t12.5 -30.5v-68q0 -13 -9.5 -24.5t-21.5 -14.5q-72 -16 -129 -16q-124 0 -203.5 59t-79.5 174q0 135 113 248h-24q-15 0 -27 12t-12 27z" />
    <glyph glyph-name="Idotaccent" unicode="&#x130;" horiz-adv-x="675" 
d="M176 39v1356q0 15 12 27t27 12h246q15 0 27 -12t12 -27v-1356q0 -15 -12 -27t-27 -12h-246q-15 0 -27 12t-12 27zM338 1585q-68 0 -115 47.5t-47 114.5q0 68 47.5 116t114.5 48q68 0 116 -48.5t48 -115.5t-48 -114.5t-116 -47.5z" />
    <glyph glyph-name="dotlessi" unicode="&#x131;" horiz-adv-x="524" 
d="M111 39v739q0 17 11.5 28t27.5 11h225q16 0 27.5 -11t11.5 -28v-739q0 -15 -12 -27t-27 -12h-225q-15 0 -27 12t-12 27z" />
    <glyph glyph-name="IJ" unicode="&#x132;" horiz-adv-x="1589" 
d="M176 39v1356q0 15 12 27t27 12h246q15 0 27 -12t12 -27v-1356q0 -15 -12 -27t-27 -12h-246q-15 0 -27 12t-12 27zM692 129q-17 27 4 51l140 137q12 11 27.5 11.5t27.5 -11.5q22 -22 44 -32.5t60 -10.5q47 0 84 42t37 114v965q0 16 11 27.5t28 11.5h250q17 0 28 -11.5
t11 -27.5v-967q0 -138 -60.5 -241.5t-159 -155t-220.5 -51.5q-191 0 -312 149z" />
    <glyph glyph-name="ij" unicode="&#x133;" horiz-adv-x="1075" 
d="M260 1067q-68 0 -115 47.5t-47 114.5q0 68 47.5 116t114.5 48q68 0 116 -48.5t48 -115.5t-48 -114.5t-116 -47.5zM111 39v741q0 17 11.5 28t27.5 11h225q16 0 27.5 -11t11.5 -28v-741q0 -15 -12 -27t-27 -12h-225q-15 0 -27 12t-12 27zM811 1067q-67 0 -114.5 47.5
t-47.5 114.5q0 68 47.5 116t114.5 48t115.5 -48.5t48.5 -115.5t-48 -114.5t-116 -47.5zM659 -188v968q0 17 11.5 28t27.5 11h228q16 0 27.5 -11t11.5 -28v-968q0 -210 -116 -328.5t-300 -118.5q-74 0 -147.5 25t-102.5 53q-9 8 -11.5 22t3.5 25l86 170q5 11 20 15.5t27 -1.5
q62 -32 106 -32q66 0 97.5 45.5t31.5 124.5z" />
    <glyph glyph-name="Jcircumflex" unicode="&#x134;" horiz-adv-x="870" 
d="M-29 129q-17 27 4 51l140 137q12 11 27.5 11.5t27.5 -11.5q22 -22 44 -32.5t60 -10.5q47 0 84 42t37 114v965q0 16 11 27.5t28 11.5h250q17 0 28 -11.5t11 -27.5v-967q0 -138 -60.5 -241.5t-159 -155t-220.5 -51.5q-191 0 -312 149zM344 1561q-28 -15 -45 8l-68 96
q-13 18 13 39l276 213q23 17 49 0l283 -213q22 -18 12 -39l-69 -94q-7 -10 -20 -13t-23 3l-203 118z" />
    <glyph glyph-name="jcircumflex" unicode="&#x135;" horiz-adv-x="526" 
d="M111 -188v966q0 17 11.5 28t27.5 11h227q16 0 27.5 -11t11.5 -28v-966q0 -210 -116 -328.5t-300 -118.5q-74 0 -147.5 25t-102.5 53q-9 8 -11.5 22t3.5 25l86 170q5 11 20 15.5t27 -1.5q62 -32 107 -32q66 0 97.5 45.5t31.5 124.5zM61 1049q-28 -15 -45 8l-67 96
q-13 19 12 39l277 213q23 17 49 0l282 -213q23 -19 13 -39l-70 -94q-7 -10 -20 -13t-23 3l-203 118z" />
    <glyph glyph-name="Kcommaaccent" unicode="&#x136;" horiz-adv-x="1378" 
d="M176 49v1335q0 21 14 35.5t35 14.5h240q20 0 34.5 -15t14.5 -35v-538l455 567q17 21 39 21h258q29 0 41.5 -26.5t-4.5 -49.5l-480 -600l523 -680q17 -23 3.5 -49.5t-42.5 -26.5h-283q-10 0 -22 4.5t-15 9.5l-473 643v-610q0 -20 -14.5 -34.5t-34.5 -14.5h-240
q-21 0 -35 14t-14 35zM784 -184q31 0 62.5 -12.5t60 -39t46.5 -75t18 -111.5q0 -39 -5.5 -75.5t-18 -68t-23.5 -56t-31.5 -50t-31 -39.5t-32.5 -34t-26.5 -24t-22.5 -19q-25 -18 -45 4l-30 30q-10 13 -9 25t11 20q11 8 24 18.5t36 35t40 50.5t30.5 64.5t14.5 77.5
q-35 -14 -82 -14q-61 0 -104 42t-43 103t46 104.5t115 43.5z" />
    <glyph glyph-name="kcommaaccent" unicode="&#x137;" horiz-adv-x="1046" 
d="M111 39v1356q0 15 12 27t27 12h227q15 0 27 -12t12 -27v-887l248 287q24 24 51 24h229q27 0 37.5 -20.5t-6.5 -42.5l-270 -314l327 -381q17 -20 6.5 -40.5t-37.5 -20.5h-276q-6 0 -16.5 5t-14.5 11l-278 357v-334q0 -15 -12 -27t-27 -12h-227q-15 0 -27 12t-12 27z
M563 -184q31 0 62.5 -12.5t60 -39t46.5 -75t18 -111.5q0 -39 -5.5 -75.5t-18 -68t-23.5 -56t-31.5 -50t-31 -39.5t-32.5 -34t-26.5 -24t-22.5 -19q-25 -18 -45 4l-31 30q-10 13 -9 25t11 20q15 11 33 27t46.5 48t47 77.5t19.5 93.5q-35 -14 -82 -14q-61 0 -104.5 42
t-43.5 103t46.5 104.5t115.5 43.5z" />
    <glyph glyph-name="kgreenlandic" unicode="&#x138;" horiz-adv-x="1050" 
d="M111 39v741q0 15 12 27t27 12h227q15 0 27 -12t12 -27v-313l268 328q24 24 51 24h230q27 0 37 -20.5t-7 -42.5l-297 -355l334 -340q17 -20 6.5 -40.5t-37.5 -20.5h-276q-6 0 -16.5 5t-14.5 11l-278 316v-293q0 -15 -12 -27t-27 -12h-227q-15 0 -27 12t-12 27z" />
    <glyph glyph-name="Lacute" unicode="&#x139;" horiz-adv-x="1046" 
d="M176 39v1356q0 16 11 27.5t28 11.5h244q15 0 27 -12t12 -27v-1094h487q17 0 28 -11.5t11 -27.5v-223q0 -16 -11 -27.5t-28 -11.5h-770q-17 0 -28 11.5t-11 27.5zM188 1561q-35 -21 -55 18l-43 86q-10 21 12 39l349 213q8 7 27 6.5t26 -12.5l69 -121q21 -40 -12 -61z" />
    <glyph glyph-name="lacute" unicode="&#x13a;" horiz-adv-x="524" 
d="M111 39v1356q0 15 12 27t27 12h225q15 0 27 -12t12 -27v-1356q0 -15 -12 -27t-27 -12h-225q-15 0 -27 12t-12 27zM111 1493q-36 -21 -56 18l-43 86q-10 20 13 39l348 213q8 7 27 6.5t26 -12.5l70 -121q21 -40 -13 -61z" />
    <glyph glyph-name="Lcommaaccent" unicode="&#x13b;" horiz-adv-x="1046" 
d="M176 39v1356q0 16 11 27.5t28 11.5h244q15 0 27 -12t12 -27v-1094h487q17 0 28 -11.5t11 -27.5v-223q0 -16 -11 -27.5t-28 -11.5h-770q-17 0 -28 11.5t-11 27.5zM618 -184q31 0 62.5 -12.5t60 -39t46.5 -75t18 -111.5q0 -39 -5.5 -75.5t-18 -68t-23.5 -56t-31.5 -50
t-31 -39.5t-32.5 -34t-26.5 -24t-22.5 -19q-25 -18 -45 4l-30 30q-10 13 -9 25t11 20q11 8 24 18.5t36 35t40 50.5t30.5 64.5t14.5 77.5q-35 -14 -82 -14q-61 0 -104 42t-43 103t46 104.5t115 43.5z" />
    <glyph glyph-name="lcommaaccent" unicode="&#x13c;" horiz-adv-x="524" 
d="M111 39v1356q0 15 12 27t27 12h225q15 0 27 -12t12 -27v-1356q0 -15 -12 -27t-27 -12h-225q-15 0 -27 12t-12 27zM250 -184q31 0 62 -12.5t60 -39t46.5 -75t17.5 -111.5q0 -61 -16.5 -117.5t-35.5 -92t-52 -73.5t-46.5 -50t-39.5 -33q-25 -18 -45 4l-31 30q-10 13 -9 25
t11 20q11 8 24 18.5t36 35t40 50.5t30.5 64.5t14.5 77.5q-34 -14 -81 -14q-61 0 -104.5 42t-43.5 103t46.5 104.5t115.5 43.5z" />
    <glyph glyph-name="Lcaron" unicode="&#x13d;" horiz-adv-x="1046" 
d="M176 39v1356q0 16 11 27.5t28 11.5h244q15 0 27 -12t12 -27v-1094h487q17 0 28 -11.5t11 -27.5v-223q0 -16 -11 -27.5t-28 -11.5h-770q-17 0 -28 11.5t-11 27.5zM795 1454q32 0 62.5 -12.5t59.5 -38.5t46.5 -74.5t17.5 -111.5q0 -61 -16.5 -118t-35.5 -92.5t-52 -73
t-47 -50t-39 -33.5q-26 -19 -46 4l-30 31q-10 13 -9 25t11 20q11 8 24 18.5t36 35t40 50.5t30.5 64.5t14.5 77.5q-35 -15 -82 -15q-60 0 -103.5 42.5t-43.5 103.5t46.5 104t115.5 43z" />
    <glyph glyph-name="lcaron" unicode="&#x13e;" horiz-adv-x="606" 
d="M111 39v1356q0 15 12 27t27 12h225q15 0 27 -12t12 -27v-1356q0 -15 -12 -27t-27 -12h-225q-15 0 -27 12t-12 27zM672 854l-31 31q-10 13 -9 25t11 20q11 8 24 18.5t36 35t40 50.5t30.5 64.5t14.5 77.5q-34 -15 -81 -15q-61 0 -104.5 42.5t-43.5 103.5t46.5 104t115.5 43
q32 0 62.5 -12.5t59.5 -38.5t46.5 -74.5t17.5 -111.5q0 -61 -16.5 -118t-35.5 -92.5t-52 -73t-47 -50t-39 -33.5q-25 -18 -45 4z" />
    <glyph glyph-name="Ldot" unicode="&#x13f;" horiz-adv-x="1175" 
d="M176 39v1356q0 16 11 27.5t28 11.5h244q15 0 27 -12t12 -27v-1094h487q17 0 28 -11.5t11 -27.5v-223q0 -16 -11 -27.5t-28 -11.5h-770q-17 0 -28 11.5t-11 27.5zM973 575q-67 0 -114.5 47.5t-47.5 114.5q0 68 47.5 116t114.5 48t115.5 -48.5t48.5 -115.5t-48 -114.5
t-116 -47.5z" />
    <glyph glyph-name="ldot" unicode="&#x140;" horiz-adv-x="925" 
d="M111 39v1356q0 15 12 27t27 12h225q15 0 27 -12t12 -27v-1356q0 -15 -12 -27t-27 -12h-225q-15 0 -27 12t-12 27zM702 575q-67 0 -114 47t-47 115t47 116t114 48q68 0 116 -48.5t48 -115.5t-48 -114.5t-116 -47.5z" />
    <glyph glyph-name="Lslash" unicode="&#x141;" horiz-adv-x="1079" 
d="M209 39v584l-47 -27q-13 -8 -29.5 -3.5t-23.5 17.5l-17 31q-8 12 -4.5 28t16.5 23l105 60v643q0 16 11 27.5t28 11.5h244q15 0 26.5 -12t11.5 -27v-457l154 90q15 8 30.5 3.5t22.5 -17.5l19 -33q7 -12 3 -27t-18 -24l-211 -123v-506h488q17 0 28 -11.5t11 -27.5v-223
q0 -16 -11 -27.5t-28 -11.5h-770q-17 0 -28 11.5t-11 27.5z" />
    <glyph glyph-name="lslash" unicode="&#x142;" horiz-adv-x="550" 
d="M137 39v588l-53 -31q-13 -8 -29.5 -3.5t-23.5 17.5l-17 31q-8 12 -4 28t17 23l110 64v639q0 15 12 27t27 12h225q15 0 27 -12t12 -27v-461l103 61q15 8 30.5 3.5t22.5 -17.5l18 -33q8 -12 3.5 -27t-17.5 -24l-160 -94v-764q0 -15 -12 -27t-27 -12h-225q-15 0 -27 12
t-12 27z" />
    <glyph glyph-name="Nacute" unicode="&#x143;" horiz-adv-x="1583" 
d="M176 39l-2 1378q0 15 12 26t27 11h51l817 -786h2v727q0 16 11 27.5t28 11.5h246q15 0 27 -12t12 -27v-1379q0 -15 -12 -25.5t-27 -10.5h-33q-16 0 -26 10l-809 813h-2v-764q0 -16 -11 -27.5t-28 -11.5h-244q-15 0 -27 12t-12 27zM649 1561q-35 -21 -55 18l-43 86
q-10 21 12 39l348 213q8 7 27.5 6.5t26.5 -12.5l69 -121q21 -40 -12 -61z" />
    <glyph glyph-name="nacute" unicode="&#x144;" horiz-adv-x="1081" 
d="M111 39v741q0 17 11.5 28t27.5 11h96q10 0 21.5 -7t15.5 -17l32 -82q117 127 289 127q183 0 286 -122.5t103 -305.5v-373q0 -15 -12 -27t-27 -12h-219q-17 0 -28 11.5t-11 27.5v383q0 65 -36.5 109t-102.5 44q-63 0 -109.5 -40.5t-46.5 -102.5v-393q0 -39 -36 -39h-215
q-15 0 -27 12t-12 27zM420 1049q-35 -21 -55 18l-43 86q-10 21 12 39l348 213q8 7 27 6.5t26 -12.5l70 -121q21 -40 -12 -61z" />
    <glyph glyph-name="Ncommaaccent" unicode="&#x145;" horiz-adv-x="1583" 
d="M176 39l-2 1378q0 15 12 26t27 11h51l817 -786h2v727q0 16 11 27.5t28 11.5h246q15 0 27 -12t12 -27v-1379q0 -15 -12 -25.5t-27 -10.5h-33q-16 0 -26 10l-809 813h-2v-764q0 -16 -11 -27.5t-28 -11.5h-244q-15 0 -27 12t-12 27zM827 -184q31 0 62.5 -12.5t60 -39
t46.5 -75t18 -111.5q0 -39 -5.5 -75.5t-18 -68t-23.5 -56t-31.5 -50t-31 -39.5t-32.5 -34t-26.5 -24t-22.5 -19q-25 -18 -45 4l-30 30q-10 13 -9 25t11 20q11 8 24 18.5t36 35t40 50.5t30.5 64.5t14.5 77.5q-35 -14 -82 -14q-61 0 -104 42t-43 103t46 104.5t115 43.5z" />
    <glyph glyph-name="ncommaaccent" unicode="&#x146;" horiz-adv-x="1083" 
d="M111 39v741q0 17 11.5 28t27.5 11h96q10 0 21.5 -7t15.5 -17l32 -82q117 127 289 127q183 0 286 -122.5t103 -305.5v-373q0 -15 -12 -27t-27 -12h-219q-17 0 -28 11.5t-11 27.5v383q0 65 -36.5 109t-102.5 44q-63 0 -109.5 -40.5t-46.5 -102.5v-393q0 -39 -36 -39h-215
q-15 0 -27 12t-12 27zM549 -184q31 0 62 -12.5t60 -39t46.5 -75t17.5 -111.5q0 -61 -16.5 -117.5t-35.5 -92t-52 -73.5t-46.5 -50t-39.5 -33q-25 -18 -45 4l-31 30q-10 13 -9 25t11 20q11 8 24 18.5t36 35t40 50.5t30.5 64.5t14.5 77.5q-34 -14 -81 -14q-61 0 -104.5 42
t-43.5 103t46.5 104.5t115.5 43.5z" />
    <glyph glyph-name="Ncaron" unicode="&#x147;" horiz-adv-x="1583" 
d="M176 39l-2 1378q0 15 12 26t27 11h51l817 -786h2v727q0 16 11 27.5t28 11.5h246q15 0 27 -12t12 -27v-1379q0 -15 -12 -25.5t-27 -10.5h-33q-16 0 -26 10l-809 813h-2v-764q0 -16 -11 -27.5t-28 -11.5h-244q-15 0 -27 12t-12 27zM772 1561l-283 213q-22 18 -12 38l70 95
q7 10 20 13t23 -3l203 -119l204 119q28 15 45 -8l68 -97q13 -18 -12 -38l-277 -213q-23 -17 -49 0z" />
    <glyph glyph-name="ncaron" unicode="&#x148;" horiz-adv-x="1081" 
d="M111 39v741q0 17 11.5 28t27.5 11h96q10 0 21.5 -7t15.5 -17l32 -82q117 127 289 127q183 0 286 -122.5t103 -305.5v-373q0 -15 -12 -27t-27 -12h-219q-17 0 -28 11.5t-11 27.5v383q0 65 -36.5 109t-102.5 44q-63 0 -109.5 -40.5t-46.5 -102.5v-393q0 -39 -36 -39h-215
q-15 0 -27 12t-12 27zM539 1049l-283 213q-22 18 -12 38l69 95q7 10 20 13t23 -3l203 -119l205 119q28 15 45 -8l68 -97q13 -18 -13 -38l-276 -213q-23 -17 -49 0z" />
    <glyph glyph-name="napostrophe" unicode="&#x149;" horiz-adv-x="1081" 
d="M111 39v741q0 17 11.5 28t27.5 11h96q10 0 21.5 -7t15.5 -17l32 -82q117 127 289 127q183 0 286 -122.5t103 -305.5v-373q0 -15 -12 -27t-27 -12h-219q-17 0 -28 11.5t-11 27.5v383q0 65 -36.5 109t-102.5 44q-63 0 -109.5 -40.5t-46.5 -102.5v-393q0 -39 -36 -39h-215
q-15 0 -27 12t-12 27zM-123 1454q32 0 62.5 -12.5t59.5 -38.5t46.5 -74.5t17.5 -111.5q0 -61 -16.5 -118t-35.5 -92.5t-52 -73t-47 -50t-39 -33.5q-25 -18 -45 4l-31 31q-10 13 -9 25t11 20q15 11 33 27t46.5 48t47 77.5t19.5 93.5q-35 -15 -82 -15q-61 0 -104.5 42.5
t-43.5 103.5t46.5 104t115.5 43z" />
    <glyph glyph-name="Eng" unicode="&#x14a;" horiz-adv-x="1583" 
d="M176 39l-2 1378q0 15 12 26t27 11h51l817 -799h2v740q0 16 11 27.5t28 11.5h246q15 0 27 -12t12 -27l-2 -1583q0 -210 -116 -328.5t-300 -118.5q-74 0 -147.5 25t-102.5 53q-9 8 -11.5 22t3.5 25l86 170q5 11 20 15.5t27 -1.5q62 -32 107 -32q125 0 125 170v397l-596 594
h-2v-764q0 -16 -11 -27.5t-28 -11.5h-244q-15 0 -27 12t-12 27z" />
    <glyph glyph-name="eng" unicode="&#x14b;" horiz-adv-x="1081" 
d="M111 39v741q0 17 11.5 28t27.5 11h96q10 0 21.5 -7t15.5 -17l32 -82q117 127 289 127q183 0 286 -122.5t103 -305.5v-600q0 -210 -115.5 -328.5t-299.5 -118.5q-74 0 -147.5 25t-102.5 53q-9 8 -12 22t3 25l87 170q5 11 20 15.5t27 -1.5q62 -32 106 -32q67 0 102 46
t35 124v600q0 64 -36 104.5t-103 40.5q-64 0 -110 -37t-46 -98v-383q0 -39 -36 -39h-215q-15 0 -27 12t-12 27z" />
    <glyph glyph-name="Omacron" unicode="&#x14c;" horiz-adv-x="1615" 
d="M72 715q0 101 26 197t73 177t114.5 149t148.5 115.5t176.5 74t196.5 26.5q151 0 287.5 -58t235 -157t156.5 -236t58 -288t-58 -287.5t-156.5 -234.5t-235 -155.5t-287.5 -57.5t-287.5 57.5t-234.5 155.5t-155.5 234.5t-57.5 287.5zM399 715q0 -167 120.5 -287.5
t287.5 -120.5q169 0 289.5 120.5t120.5 287.5q0 169 -120.5 290t-289.5 121q-167 0 -287.5 -121t-120.5 -290zM545 1640q-17 0 -28 11t-11 26v84q0 17 11 28t28 11h524q17 0 28 -11t11 -28v-84q0 -15 -11 -26t-28 -11h-524z" />
    <glyph glyph-name="omacron" unicode="&#x14d;" horiz-adv-x="946" 
d="M47 412q0 174 126 301t300 127t300 -127t126 -301q0 -177 -125.5 -304.5t-300.5 -127.5t-300.5 127.5t-125.5 304.5zM311 412q0 -69 47.5 -118.5t114.5 -49.5t114.5 49.5t47.5 118.5q0 68 -47.5 115.5t-114.5 47.5t-114.5 -47.5t-47.5 -115.5zM211 1153q-17 0 -28 11
t-11 26v84q0 17 11 28t28 11h524q17 0 28 -11t11 -28v-84q0 -15 -11 -26t-28 -11h-524z" />
    <glyph glyph-name="Obreve" unicode="&#x14e;" horiz-adv-x="1615" 
d="M72 715q0 101 26 197t73 177t114.5 149t148.5 115.5t176.5 74t196.5 26.5q151 0 287.5 -58t235 -157t156.5 -236t58 -288t-58 -287.5t-156.5 -234.5t-235 -155.5t-287.5 -57.5t-287.5 57.5t-234.5 155.5t-155.5 234.5t-57.5 287.5zM399 715q0 -167 120.5 -287.5
t287.5 -120.5q169 0 289.5 120.5t120.5 287.5q0 169 -120.5 290t-289.5 121q-167 0 -287.5 -121t-120.5 -290zM807 1563q-113 0 -194.5 70t-96.5 175q-3 19 8 32t31 13h92q12 0 22 -7.5t13 -16.5q14 -43 48 -70.5t77 -27.5q38 0 72.5 29.5t48.5 68.5q3 10 13.5 17t21.5 7h96
q19 0 30 -13t9 -32q-17 -106 -98.5 -175.5t-192.5 -69.5z" />
    <glyph glyph-name="obreve" unicode="&#x14f;" horiz-adv-x="946" 
d="M47 412q0 174 126 301t300 127t300 -127t126 -301q0 -177 -125.5 -304.5t-300.5 -127.5t-300.5 127.5t-125.5 304.5zM311 412q0 -69 47.5 -118.5t114.5 -49.5t114.5 49.5t47.5 118.5q0 68 -47.5 115.5t-114.5 47.5t-114.5 -47.5t-47.5 -115.5zM473 1079q-113 0 -194.5 70
t-96.5 176q-3 19 8 32t31 13h92q12 0 22 -7.5t13 -16.5q14 -43 48 -71t77 -28q38 0 72.5 30t48.5 69q3 10 13.5 17t21.5 7h96q19 0 30 -13t9 -32q-17 -106 -98.5 -176t-192.5 -70z" />
    <glyph glyph-name="Ohungarumlaut" unicode="&#x150;" horiz-adv-x="1615" 
d="M72 715q0 101 26 197t73 177t114.5 149t148.5 115.5t176.5 74t196.5 26.5q151 0 287.5 -58t235 -157t156.5 -236t58 -288t-58 -287.5t-156.5 -234.5t-235 -155.5t-287.5 -57.5t-287.5 57.5t-234.5 155.5t-155.5 234.5t-57.5 287.5zM399 715q0 -167 120.5 -287.5
t287.5 -120.5q169 0 289.5 120.5t120.5 287.5q0 169 -120.5 290t-289.5 121q-167 0 -287.5 -121t-120.5 -290zM952 1573q-16 0 -29.5 12.5t-9.5 26.5l62 289q11 38 39 38h192q28 0 39 -16t-2 -35l-160 -284q-22 -31 -36 -31h-95zM612 1573q-16 0 -29.5 12.5t-9.5 26.5
l62 289q11 38 39 38h192q28 0 38 -15.5t-1 -35.5l-160 -284q-15 -31 -36 -31h-95z" />
    <glyph glyph-name="ohungarumlaut" unicode="&#x151;" horiz-adv-x="946" 
d="M47 412q0 174 126 301t300 127t300 -127t126 -301q0 -177 -125.5 -304.5t-300.5 -127.5t-300.5 127.5t-125.5 304.5zM311 412q0 -69 47.5 -118.5t114.5 -49.5t114.5 49.5t47.5 118.5q0 68 -47.5 115.5t-114.5 47.5t-114.5 -47.5t-47.5 -115.5zM606 1067q-16 0 -29.5 12.5
t-9.5 26.5l62 289q12 39 39 39h192q28 0 39 -16.5t-2 -35.5l-160 -284q-22 -31 -37 -31h-94zM266 1067q-16 0 -29.5 12.5t-9.5 26.5l62 289q12 39 39 39h192q28 0 38 -16t-1 -36l-160 -284q-15 -31 -37 -31h-94z" />
    <glyph glyph-name="OE" unicode="&#x152;" horiz-adv-x="2002" 
d="M72 715q0 101 26 197t73 177t114.5 149t148.5 115.5t176.5 74t196.5 26.5q47 0 100 -5t82 -10l29 -5h848q17 0 28 -11.5t11 -27.5v-224q0 -15 -11 -26.5t-28 -11.5h-568v-254h467q15 0 27 -12t12 -27v-224q0 -17 -11.5 -27.5t-27.5 -10.5h-467v-277h568q17 0 28 -11.5
t11 -27.5v-223q0 -16 -11 -27.5t-28 -11.5h-848q-109 -20 -211 -20q-151 0 -287.5 57.5t-234.5 155.5t-155.5 234.5t-57.5 287.5zM399 715q0 -110 55 -205.5t149.5 -152t203.5 -56.5q102 0 172 33v764q-68 32 -172 32q-167 0 -287.5 -123t-120.5 -292z" />
    <glyph glyph-name="oe" unicode="&#x153;" horiz-adv-x="1454" 
d="M49 414q0 174 126 300t300 126q149 0 275 -107q120 107 278 107q160 0 274.5 -109.5t114.5 -275.5q0 -28 -4 -56q-1 -15 -13 -24.5t-26 -9.5h-491q6 -51 45.5 -94.5t111.5 -43.5q75 0 140 49q12 8 26.5 9t24.5 -9q14 -16 48 -56t58 -64q11 -11 11.5 -28t-9.5 -28
q-120 -120 -307 -120q-162 0 -282 104q-117 -104 -275 -104q-114 0 -212.5 59t-156 159t-57.5 216zM909 524h219q-3 39 -35.5 68t-72.5 29q-41 0 -73 -28.5t-38 -68.5zM313 414q0 -69 47.5 -119.5t114.5 -50.5t114.5 50.5t47.5 119.5q0 67 -47 114t-115 47t-115 -47
t-47 -114z" />
    <glyph glyph-name="Racute" unicode="&#x154;" horiz-adv-x="1372" 
d="M176 39v1356q0 16 11 27.5t28 11.5h612q121 0 224 -59.5t163 -161.5t60 -222q0 -138 -83 -247t-220 -164l280 -521q11 -20 1 -39.5t-35 -19.5h-273q-24 0 -33 18l-272 543h-141v-522q0 -15 -12 -27t-27 -12h-244q-17 0 -28 11.5t-11 27.5zM498 821h303q63 0 109 49.5
t46 114.5q0 64 -46 110t-109 46h-303v-320zM518 1561q-35 -21 -55 18l-43 86q-10 21 12 39l348 213q8 7 27.5 6.5t26.5 -12.5l69 -121q21 -40 -12 -61z" />
    <glyph glyph-name="racute" unicode="&#x155;" horiz-adv-x="706" 
d="M111 39v741q0 17 11.5 28t27.5 11h96q25 0 37 -24l36 -90q38 55 95 95t129 40q56 0 99 -12t61 -32.5t4 -43.5l-101 -164q-17 -29 -45 -19q-28 11 -49 11q-47 0 -78 -32.5t-31 -84.5v-424q0 -39 -45 -39h-208q-15 0 -27 12t-12 27zM217 1049q-35 -21 -55 18l-43 86
q-10 21 12 39l348 213q8 7 27 6.5t26 -12.5l70 -121q21 -40 -12 -61z" />
    <glyph glyph-name="Rcommaaccent" unicode="&#x156;" horiz-adv-x="1370" 
d="M176 39v1356q0 16 11 27.5t28 11.5h612q121 0 224 -59.5t163 -161.5t60 -222q0 -138 -83 -247t-220 -164l280 -521q11 -20 1 -39.5t-35 -19.5h-273q-24 0 -33 18l-272 543h-141v-522q0 -15 -12 -27t-27 -12h-244q-17 0 -28 11.5t-11 27.5zM498 821h303q63 0 109 49.5
t46 114.5q0 64 -46 110t-109 46h-303v-320zM702 -184q31 0 62.5 -12.5t60 -39t46.5 -75t18 -111.5q0 -39 -5.5 -75.5t-18 -68t-23.5 -56t-31.5 -50t-31 -39.5t-32.5 -34t-26.5 -24t-22.5 -19q-25 -18 -45 4l-30 30q-10 13 -9 25t11 20q11 8 24 18.5t36 35t40 50.5t30.5 64.5
t14.5 77.5q-35 -14 -82 -14q-61 0 -104 42t-43 103t46 104.5t115 43.5z" />
    <glyph glyph-name="rcommaaccent" unicode="&#x157;" horiz-adv-x="706" 
d="M111 39v741q0 17 11.5 28t27.5 11h96q25 0 37 -24l36 -90q38 55 95 95t129 40q56 0 99 -12t61 -32.5t4 -43.5l-101 -164q-17 -29 -45 -19q-28 11 -49 11q-47 0 -78 -32.5t-31 -84.5v-424q0 -39 -45 -39h-208q-15 0 -27 12t-12 27zM254 -184q31 0 62 -12.5t60 -39
t46.5 -75t17.5 -111.5q0 -61 -16.5 -117.5t-35.5 -92t-52 -73.5t-46.5 -50t-39.5 -33q-25 -18 -45 4l-31 30q-10 13 -9 25t11 20q15 11 33 27t46.5 48t47 77.5t19.5 93.5q-35 -14 -82 -14q-61 0 -104.5 42t-43.5 103t46.5 104.5t115.5 43.5z" />
    <glyph glyph-name="Rcaron" unicode="&#x158;" horiz-adv-x="1372" 
d="M176 39v1356q0 16 11 27.5t28 11.5h612q121 0 224 -59.5t163 -161.5t60 -222q0 -138 -83 -247t-220 -164l280 -521q11 -20 1 -39.5t-35 -19.5h-273q-24 0 -33 18l-272 543h-141v-522q0 -15 -12 -27t-27 -12h-244q-17 0 -28 11.5t-11 27.5zM498 821h303q63 0 109 49.5
t46 114.5q0 64 -46 110t-109 46h-303v-320zM641 1561l-283 213q-22 18 -12 38l70 95q7 10 20 13t23 -3l203 -119l204 119q28 15 45 -8l68 -97q13 -18 -12 -38l-277 -213q-23 -17 -49 0z" />
    <glyph glyph-name="rcaron" unicode="&#x159;" horiz-adv-x="706" 
d="M111 39v741q0 17 11.5 28t27.5 11h96q25 0 37 -24l36 -90q38 55 95 95t129 40q56 0 99 -12t61 -32.5t4 -43.5l-101 -164q-17 -29 -45 -19q-28 11 -49 11q-47 0 -78 -32.5t-31 -84.5v-424q0 -39 -45 -39h-208q-15 0 -27 12t-12 27zM340 1049l-283 213q-22 18 -12 38l70 95
q7 10 20 13t23 -3l202 -119l205 119q28 15 45 -8l68 -97q13 -18 -12 -38l-277 -213q-23 -17 -49 0z" />
    <glyph glyph-name="Sacute" unicode="&#x15a;" horiz-adv-x="1122" 
d="M104 137q-16 16 -18.5 25.5t8.5 32.5l96 170q11 18 36 19.5t34 -7.5l15 -9q15 -10 34 -22t48.5 -27t59.5 -27t66 -20t68 -8q62 0 101.5 34.5t39.5 88.5q0 124 -211 207q-58 23 -109.5 50t-106 68.5t-93 88.5t-63.5 111t-25 135q0 78 30.5 149.5t87.5 129.5t149 93t206 35
q229 0 438 -154q17 -9 19 -32.5t-6 -32.5l-105 -158q-11 -18 -33 -27t-36 1q-1 1 -24.5 16.5t-51.5 31.5t-64 34t-77 29.5t-76 11.5q-54 0 -91.5 -31.5t-37.5 -73.5q0 -58 51.5 -104t171.5 -95q58 -23 105.5 -46t108 -65t101.5 -89t70 -117t29 -150t-34 -155.5t-94.5 -135
t-153.5 -96t-202 -36.5q-93 0 -175.5 17t-139 44.5t-90.5 50.5t-56 45zM414 1561q-36 -21 -56 18l-43 86q-10 20 13 39l348 213q8 7 27 6.5t26 -12.5l70 -121q21 -40 -13 -61z" />
    <glyph glyph-name="sacute" unicode="&#x15b;" horiz-adv-x="759" 
d="M82 47q-26 22 -14 43l71 141q5 10 18.5 16.5t24.5 0.5q97 -53 185 -53q16 0 27.5 9t11.5 27q0 44 -117 86q-230 79 -230 275q0 109 81 178.5t239 69.5q89 0 160.5 -19t111.5 -45q37 -25 21 -51l-76 -139q-5 -9 -18 -13t-25 0q-94 48 -174 48q-45 0 -45 -29q0 -33 92 -66
q69 -24 115 -46.5t86.5 -55.5t60 -78.5t19.5 -105.5q0 -113 -90.5 -186.5t-256.5 -73.5q-95 0 -169.5 20t-108.5 47zM238 1049q-36 -21 -56 18l-43 86q-10 20 13 39l348 213q8 7 27 6.5t26 -12.5l70 -121q21 -40 -13 -61z" />
    <glyph glyph-name="Scircumflex" unicode="&#x15c;" horiz-adv-x="1122" 
d="M104 137q-16 16 -18.5 25.5t8.5 32.5l96 170q11 18 36 19.5t34 -7.5l15 -9q15 -10 34 -22t48.5 -27t59.5 -27t66 -20t68 -8q62 0 101.5 34.5t39.5 88.5q0 124 -211 207q-58 23 -109.5 50t-106 68.5t-93 88.5t-63.5 111t-25 135q0 78 30.5 149.5t87.5 129.5t149 93t206 35
q229 0 438 -154q17 -9 19 -32.5t-6 -32.5l-105 -158q-11 -18 -33 -27t-36 1q-1 1 -24.5 16.5t-51.5 31.5t-64 34t-77 29.5t-76 11.5q-54 0 -91.5 -31.5t-37.5 -73.5q0 -58 51.5 -104t171.5 -95q58 -23 105.5 -46t108 -65t101.5 -89t70 -117t29 -150t-34 -155.5t-94.5 -135
t-153.5 -96t-202 -36.5q-93 0 -175.5 17t-139 44.5t-90.5 50.5t-56 45zM356 1561q-28 -15 -45 8l-67 96q-13 19 12 39l276 213q24 18 50 0l282 -213q23 -19 13 -39l-70 -94q-7 -10 -20 -13t-23 3l-203 118z" />
    <glyph glyph-name="scircumflex" unicode="&#x15d;" horiz-adv-x="759" 
d="M82 47q-26 22 -14 43l71 141q5 10 18.5 16.5t24.5 0.5q97 -53 185 -53q16 0 27.5 9t11.5 27q0 44 -117 86q-230 79 -230 275q0 109 81 178.5t239 69.5q89 0 160.5 -19t111.5 -45q37 -25 21 -51l-76 -139q-5 -9 -18 -13t-25 0q-94 48 -174 48q-45 0 -45 -29q0 -33 92 -66
q69 -24 115 -46.5t86.5 -55.5t60 -78.5t19.5 -105.5q0 -113 -90.5 -186.5t-256.5 -73.5q-95 0 -169.5 20t-108.5 47zM178 1049q-28 -15 -45 8l-67 96q-13 19 12 39l276 213q23 17 49 0l283 -213q23 -18 12 -39l-69 -94q-7 -10 -20 -13t-23 3l-203 118z" />
    <glyph glyph-name="Scedilla" unicode="&#x15e;" horiz-adv-x="1126" 
d="M106 137q-16 16 -18.5 25.5t8.5 32.5l97 170q11 18 35.5 19.5t33.5 -7.5l15 -9q15 -10 34 -22t48.5 -27t59.5 -27t66 -20t68 -8q62 0 101.5 34.5t39.5 88.5q0 124 -211 207q-58 23 -109.5 50t-106 68.5t-93 88.5t-63.5 111t-25 135q0 78 30.5 149.5t87.5 129.5t149 93
t206 35q229 0 438 -154q17 -9 19 -32.5t-6 -32.5l-105 -158q-11 -18 -33 -27t-36 1q-1 1 -24.5 16.5t-51.5 31.5t-64 34t-77 29.5t-76 11.5q-54 0 -91.5 -31.5t-37.5 -73.5q0 -58 51.5 -104t171.5 -95q58 -23 105.5 -46t108 -65t101.5 -89t70 -117t29 -150q0 -79 -33 -153.5
t-92.5 -134t-150 -96.5t-197.5 -39v-86q92 -12 140 -68t48 -141q0 -90 -63.5 -153.5t-153.5 -63.5q-45 0 -87 19.5t-69 51.5q-26 29 8 60l48 41q9 9 22 6.5t21 -11.5q13 -18 49 -18q24 0 42.5 20.5t18.5 45.5q0 79 -139 86q-35 5 -35 36v187q-119 18 -201 61t-121 84z" />
    <glyph glyph-name="scedilla" unicode="&#x15f;" horiz-adv-x="761" 
d="M84 47q-26 22 -14 43l71 141q5 10 18.5 16.5t24.5 0.5q97 -53 185 -53q16 0 27.5 9t11.5 27q0 44 -117 86q-230 79 -230 275q0 109 81 178.5t239 69.5q89 0 160.5 -19t111.5 -45q37 -25 21 -51l-76 -139q-5 -9 -18 -13t-25 0q-94 48 -174 48q-45 0 -45 -29q0 -33 92 -66
q69 -24 115 -46.5t86.5 -55.5t60 -78.5t19.5 -105.5q0 -106 -80 -177.5t-230 -80.5v-88q92 -12 140.5 -68t48.5 -141q0 -90 -63.5 -153.5t-153.5 -63.5q-45 0 -87 19.5t-69 51.5q-26 29 8 60l47 41q9 9 22 6.5t21 -11.5q13 -18 49 -18q24 0 43 20.5t19 45.5q0 79 -139 86
q-35 5 -35 36v183q-113 17 -166 59z" />
    <glyph glyph-name="Scaron" unicode="&#x160;" horiz-adv-x="1122" 
d="M104 137q-16 16 -18.5 25.5t8.5 32.5l96 170q11 18 36 19.5t34 -7.5l15 -9q15 -10 34 -22t48.5 -27t59.5 -27t66 -20t68 -8q62 0 101.5 34.5t39.5 88.5q0 124 -211 207q-58 23 -109.5 50t-106 68.5t-93 88.5t-63.5 111t-25 135q0 78 30.5 149.5t87.5 129.5t149 93t206 35
q229 0 438 -154q17 -9 19 -32.5t-6 -32.5l-105 -158q-11 -18 -33 -27t-36 1q-1 1 -24.5 16.5t-51.5 31.5t-64 34t-77 29.5t-76 11.5q-54 0 -91.5 -31.5t-37.5 -73.5q0 -58 51.5 -104t171.5 -95q58 -23 105.5 -46t108 -65t101.5 -89t70 -117t29 -150t-34 -155.5t-94.5 -135
t-153.5 -96t-202 -36.5q-93 0 -175.5 17t-139 44.5t-90.5 50.5t-56 45zM537 1561l-283 213q-22 18 -12 38l69 95q7 10 20 13t23 -3l203 -119l205 119q28 15 45 -8l67 -97q13 -18 -12 -38l-276 -213q-23 -17 -49 0z" />
    <glyph glyph-name="scaron" unicode="&#x161;" horiz-adv-x="759" 
d="M82 47q-26 22 -14 43l71 141q5 10 18.5 16.5t24.5 0.5q97 -53 185 -53q16 0 27.5 9t11.5 27q0 44 -117 86q-230 79 -230 275q0 109 81 178.5t239 69.5q89 0 160.5 -19t111.5 -45q37 -25 21 -51l-76 -139q-5 -9 -18 -13t-25 0q-94 48 -174 48q-45 0 -45 -29q0 -33 92 -66
q69 -24 115 -46.5t86.5 -55.5t60 -78.5t19.5 -105.5q0 -113 -90.5 -186.5t-256.5 -73.5q-95 0 -169.5 20t-108.5 47zM358 1049l-282 213q-23 18 -13 38l70 95q7 10 20 13t23 -3l203 -119l205 119q28 15 45 -8l67 -97q13 -18 -12 -38l-276 -213q-24 -18 -50 0z" />
    <glyph glyph-name="Tcommaaccent" unicode="&#x162;" horiz-adv-x="1040" 
d="M358 39v1094h-292q-17 0 -28 11.5t-11 26.5v224q0 16 11 27.5t28 11.5h909q17 0 28 -11.5t11 -27.5v-224q0 -15 -11 -26.5t-28 -11.5h-293v-1094q0 -15 -12 -27t-27 -12h-246q-15 0 -27 12t-12 27zM498 -184q31 0 62 -12.5t60 -39t46.5 -75t17.5 -111.5
q0 -61 -16.5 -117.5t-35.5 -92t-52 -73.5t-46.5 -50t-39.5 -33q-25 -18 -45 4l-31 30q-10 13 -9 25t11 20q11 8 24 18.5t36 35t40 50.5t30.5 64.5t14.5 77.5q-35 -14 -82 -14q-61 0 -104 42t-43 103t46.5 104.5t115.5 43.5z" />
    <glyph glyph-name="tcommaaccent" unicode="&#x163;" horiz-adv-x="704" 
d="M143 264v295h-53q-15 0 -26 12t-11 27v182q0 17 11 28t26 11h53v228q0 15 12 26.5t27 11.5h219q15 0 26 -11.5t11 -26.5v-228h152q17 0 28 -11t11 -28v-182q0 -16 -11 -27.5t-28 -11.5h-152v-256q0 -49 56 -49q13 0 27 2.5t31 6.5t21 5q36 7 45 -26l46 -170
q3 -14 -4.5 -28.5t-22.5 -18.5q-146 -45 -248 -45q-118 0 -182 73t-64 211zM377 -184q31 0 62 -12.5t60 -39t46.5 -75t17.5 -111.5q0 -61 -16.5 -117.5t-35.5 -92t-52 -73.5t-46.5 -50t-39.5 -33q-25 -18 -45 4l-31 30q-10 13 -9 25t11 20q11 8 24 18.5t36 35t40 50.5
t30.5 64.5t14.5 77.5q-35 -14 -82 -14q-61 0 -104 42t-43 103t46.5 104.5t115.5 43.5z" />
    <glyph glyph-name="Tcaron" unicode="&#x164;" 
d="M360 39v1094h-292q-17 0 -28 11.5t-11 26.5v224q0 16 11 27.5t28 11.5h909q17 0 28 -11.5t11 -27.5v-224q0 -15 -11 -26.5t-28 -11.5h-293v-1094q0 -15 -12 -27t-27 -12h-246q-15 0 -27 12t-12 27zM500 1561l-283 213q-22 18 -12 38l69 95q7 10 20 13t23 -3l203 -119
l205 119q28 15 45 -8l68 -97q13 -18 -13 -38l-276 -213q-23 -17 -49 0z" />
    <glyph glyph-name="tcaron" unicode="&#x165;" horiz-adv-x="704" 
d="M143 264v295h-53q-15 0 -26 12t-11 27v182q0 17 11 28t26 11h53v228q0 15 12 26.5t27 11.5h219q15 0 26 -11.5t11 -26.5v-228h152q17 0 28 -11t11 -28v-182q0 -16 -11 -27.5t-28 -11.5h-152v-256q0 -49 56 -49q13 0 27 2.5t31 6.5t21 5q36 7 45 -26l46 -170
q3 -14 -4.5 -28.5t-22.5 -18.5q-146 -45 -248 -45q-118 0 -182 73t-64 211zM805 854l-31 31q-10 13 -9 25t11 20q15 11 33 27t46.5 48t47 77.5t19.5 93.5q-35 -15 -82 -15q-61 0 -104.5 42.5t-43.5 103.5t46.5 104t115.5 43q32 0 62.5 -12.5t59.5 -38.5t46.5 -74.5
t17.5 -111.5q0 -61 -16.5 -118t-35.5 -92.5t-52 -73t-47 -50t-39 -33.5q-25 -18 -45 4z" />
    <glyph glyph-name="Tbar" unicode="&#x166;" 
d="M360 39v553h-167q-15 0 -26 12t-11 27v35q0 15 11 27t26 12h167v428h-292q-17 0 -28 11.5t-11 26.5v224q0 16 11 27.5t28 11.5h909q17 0 28 -11.5t11 -27.5v-224q0 -15 -11 -26.5t-28 -11.5h-293v-428h178q17 0 28 -11.5t11 -27.5v-37q0 -15 -11 -26t-28 -11h-178v-553
q0 -15 -12 -27t-27 -12h-246q-15 0 -27 12t-12 27z" />
    <glyph glyph-name="tbar" unicode="&#x167;" horiz-adv-x="704" 
d="M143 264v80h-53q-15 0 -26 12t-11 27v35q0 15 11 27t26 12h53v102h-53q-15 0 -26 12t-11 27v182q0 17 11 28t26 11h53v228q0 15 12 26.5t27 11.5h219q15 0 26 -11.5t11 -26.5v-228h152q17 0 28 -11t11 -28v-182q0 -16 -11 -27.5t-28 -11.5h-152v-102h152q17 0 28 -11.5
t11 -27.5v-37q0 -15 -11 -26t-28 -11h-152v-35q0 -49 60 -49q35 0 75 8q36 7 45 -26l46 -170q2 -15 -5.5 -29t-21.5 -18q-146 -45 -248 -45q-118 0 -182 73t-64 211z" />
    <glyph glyph-name="Utilde" unicode="&#x168;" horiz-adv-x="1478" 
d="M156 549v846q0 15 12 27t27 12h251q17 0 28 -11.5t11 -27.5v-830q0 -108 72 -183t180 -75q109 0 182.5 75t73.5 183v830q0 16 11 27.5t28 11.5h252q15 0 27 -12t12 -27v-846q0 -153 -78.5 -284t-213.5 -208t-294 -77q-158 0 -292 77t-211.5 208t-77.5 284zM500 1608
l-72 57q-10 7 -13.5 22t1.5 25q10 19 28 43t46.5 55.5t67 52.5t77.5 21q41 0 79.5 -24t73.5 -48t68 -24q40 0 78 63q8 13 21.5 15t29.5 -11l70 -53q27 -20 2 -59q-12 -21 -26.5 -41t-41.5 -50.5t-63 -49.5t-74 -19q-36 0 -70 15.5t-56 33.5t-49 33.5t-50 15.5
q-17 0 -31.5 -11.5t-32 -35t-18.5 -24.5q-19 -19 -45 -2z" />
    <glyph glyph-name="utilde" unicode="&#x169;" 
d="M92 410v370q0 17 11.5 28t27.5 11h219q16 0 27.5 -11t11.5 -28v-379q0 -66 35 -111.5t96 -45.5q57 0 90 44t33 101v391q0 39 43 39h209q16 0 27.5 -11t11.5 -28v-741q0 -15 -12 -27t-27 -12h-96q-27 0 -39 29l-31 75q-58 -55 -88 -75q-78 -49 -188 -49q-89 0 -159 34
t-113.5 93.5t-66 136.5t-22.5 166zM279 1137l-72 57q-10 7 -13.5 22t1.5 25q10 19 28 43t46.5 55.5t67 52.5t77.5 21q41 0 79.5 -24t73.5 -48t68 -24q40 0 78 63q8 13 21.5 15t29.5 -11l70 -53q27 -20 2 -59q-12 -21 -26.5 -41t-41.5 -50.5t-63 -49.5t-74 -19
q-36 0 -70 15.5t-56 33.5t-49 33.5t-50 15.5q-17 0 -31.5 -11.5t-32 -35t-18.5 -24.5q-19 -19 -45 -2z" />
    <glyph glyph-name="Umacron" unicode="&#x16a;" horiz-adv-x="1478" 
d="M156 549v846q0 15 12 27t27 12h251q17 0 28 -11.5t11 -27.5v-830q0 -108 72 -183t180 -75q109 0 182.5 75t73.5 183v830q0 16 11 27.5t28 11.5h252q15 0 27 -12t12 -27v-846q0 -153 -78.5 -284t-213.5 -208t-294 -77q-158 0 -292 77t-211.5 208t-77.5 284zM477 1640
q-17 0 -28 11t-11 26v84q0 17 11 28t28 11h524q17 0 28 -11t11 -28v-84q0 -15 -11 -26t-28 -11h-524z" />
    <glyph glyph-name="umacron" unicode="&#x16b;" 
d="M92 410v370q0 17 11.5 28t27.5 11h219q16 0 27.5 -11t11.5 -28v-379q0 -66 35 -111.5t96 -45.5q57 0 90 44t33 101v391q0 39 43 39h209q16 0 27.5 -11t11.5 -28v-741q0 -15 -12 -27t-27 -12h-96q-27 0 -39 29l-31 75q-58 -55 -88 -75q-78 -49 -188 -49q-89 0 -159 34
t-113.5 93.5t-66 136.5t-22.5 166zM256 1153q-17 0 -28 11t-11 26v84q0 17 11 28t28 11h524q17 0 28 -11t11 -28v-84q0 -15 -11 -26t-28 -11h-524z" />
    <glyph glyph-name="Ubreve" unicode="&#x16c;" horiz-adv-x="1478" 
d="M156 549v846q0 15 12 27t27 12h251q17 0 28 -11.5t11 -27.5v-830q0 -108 72 -183t180 -75q109 0 182.5 75t73.5 183v830q0 16 11 27.5t28 11.5h252q15 0 27 -12t12 -27v-846q0 -153 -78.5 -284t-213.5 -208t-294 -77q-158 0 -292 77t-211.5 208t-77.5 284zM739 1563
q-113 0 -194 69.5t-96 175.5q-3 19 7.5 32t30.5 13h93q12 0 21.5 -7.5t12.5 -16.5q14 -43 48 -70.5t77 -27.5q38 0 72.5 29.5t48.5 68.5q3 10 13.5 17t21.5 7h96q19 0 30 -13t9 -32q-17 -106 -98.5 -175.5t-192.5 -69.5z" />
    <glyph glyph-name="ubreve" unicode="&#x16d;" 
d="M92 410v370q0 17 11.5 28t27.5 11h219q16 0 27.5 -11t11.5 -28v-379q0 -66 35 -111.5t96 -45.5q57 0 90 44t33 101v391q0 39 43 39h209q16 0 27.5 -11t11.5 -28v-741q0 -15 -12 -27t-27 -12h-96q-27 0 -39 29l-31 75q-58 -55 -88 -75q-78 -49 -188 -49q-89 0 -159 34
t-113.5 93.5t-66 136.5t-22.5 166zM522 1079q-113 0 -194.5 70t-96.5 176q-3 19 8 32t31 13h92q12 0 22 -7.5t13 -16.5q14 -43 48 -71t77 -28q38 0 72.5 30t48.5 69q3 10 13.5 17t21.5 7h96q19 0 30 -13t9 -32q-17 -106 -98.5 -176t-192.5 -70z" />
    <glyph glyph-name="Uring" unicode="&#x16e;" horiz-adv-x="1478" 
d="M156 549v846q0 15 12 27t27 12h251q17 0 28 -11.5t11 -27.5v-830q0 -108 72 -183t180 -75q109 0 182.5 75t73.5 183v830q0 16 11 27.5t28 11.5h252q15 0 27 -12t12 -27v-846q0 -153 -78.5 -284t-213.5 -208t-294 -77q-158 0 -292 77t-211.5 208t-77.5 284zM739 1540
q-98 0 -166.5 69t-68.5 167t68.5 166.5t166.5 68.5q97 0 166.5 -68.5t69.5 -166.5t-69.5 -167t-166.5 -69zM739 1686q35 0 61.5 27.5t26.5 62.5t-26.5 61.5t-61.5 26.5t-62.5 -26.5t-27.5 -61.5t27.5 -62.5t62.5 -27.5z" />
    <glyph glyph-name="uring" unicode="&#x16f;" 
d="M92 410v370q0 17 11.5 28t27.5 11h219q16 0 27.5 -11t11.5 -28v-379q0 -66 35 -111.5t96 -45.5q57 0 90 44t33 101v391q0 39 43 39h209q16 0 27.5 -11t11.5 -28v-741q0 -15 -12 -27t-27 -12h-96q-27 0 -39 29l-31 75q-58 -55 -88 -75q-78 -49 -188 -49q-89 0 -159 34
t-113.5 93.5t-66 136.5t-22.5 166zM522 983q-98 0 -166.5 69t-68.5 167t68.5 166.5t166.5 68.5q97 0 166.5 -68.5t69.5 -166.5t-69.5 -167t-166.5 -69zM522 1128q35 0 61.5 27.5t26.5 63.5q0 35 -26.5 61.5t-61.5 26.5t-62.5 -26.5t-27.5 -61.5t27.5 -63t62.5 -28z" />
    <glyph glyph-name="Uhungarumlaut" unicode="&#x170;" horiz-adv-x="1478" 
d="M156 549v846q0 15 12 27t27 12h251q17 0 28 -11.5t11 -27.5v-830q0 -108 72 -183t180 -75q109 0 182.5 75t73.5 183v830q0 16 11 27.5t28 11.5h252q15 0 27 -12t12 -27v-846q0 -153 -78.5 -284t-213.5 -208t-294 -77q-158 0 -292 77t-211.5 208t-77.5 284zM864 1573
q-16 0 -29.5 12.5t-9.5 26.5l62 289q11 38 39 38h192q28 0 39 -16t-2 -35l-160 -284q-22 -31 -37 -31h-94zM524 1573q-16 0 -29.5 12.5t-9.5 26.5l62 289q11 38 39 38h192q28 0 38 -15.5t-1 -35.5l-160 -284q-15 -31 -37 -31h-94z" />
    <glyph glyph-name="uhungarumlaut" unicode="&#x171;" 
d="M92 410v370q0 17 11.5 28t27.5 11h219q16 0 27.5 -11t11.5 -28v-379q0 -66 35 -111.5t96 -45.5q57 0 90 44t33 101v391q0 39 43 39h209q16 0 27.5 -11t11.5 -28v-741q0 -15 -12 -27t-27 -12h-96q-27 0 -39 29l-31 75q-58 -55 -88 -75q-78 -49 -188 -49q-89 0 -159 34
t-113.5 93.5t-66 136.5t-22.5 166zM659 1067q-16 0 -29 12.5t-9 26.5l61 289q12 39 39 39h192q28 0 39 -16.5t-2 -35.5l-159 -284q-22 -31 -37 -31h-95zM319 1067q-16 0 -29 12.5t-9 26.5l61 289q12 39 39 39h192q28 0 38 -16t-1 -36l-159 -284q-15 -31 -37 -31h-95z" />
    <glyph glyph-name="Uogonek" unicode="&#x172;" horiz-adv-x="1488" 
d="M162 549v846q0 15 12 27t27 12h252q17 0 28 -11.5t11 -27.5v-830q0 -108 71.5 -183t179.5 -75q109 0 182.5 75t73.5 183v830q0 16 11 27.5t28 11.5h252q15 0 27 -12t12 -27v-846q0 -144 -70 -269t-191.5 -204t-268.5 -92q-76 -89 -76 -179q0 -60 36 -98.5t107 -38.5
q16 0 30.5 2t31 6t22.5 5q20 3 32.5 -8.5t12.5 -30.5v-68q0 -13 -9 -24.5t-21 -14.5q-72 -16 -129 -16q-124 0 -203.5 59t-79.5 174q0 72 29.5 132.5t70.5 101.5q-210 32 -350.5 192t-140.5 371z" />
    <glyph glyph-name="uogonek" unicode="&#x173;" 
d="M92 410v370q0 17 11.5 28t27.5 11h219q16 0 27.5 -11t11.5 -28v-370q0 -65 35 -107.5t96 -42.5q57 0 90 40.5t33 96.5v383q0 39 43 39h209q16 0 27.5 -11t11.5 -28v-741q0 -15 -12 -27t-27 -12h-18q-93 -93 -93 -195q0 -60 36.5 -98.5t107.5 -38.5q16 0 30.5 2t31 6
t22.5 5q20 3 32.5 -8.5t12.5 -30.5v-68q0 -13 -9.5 -24.5t-21.5 -14.5q-72 -16 -129 -16q-124 0 -203.5 59t-79.5 174q0 56 20 108.5t48 87t47.5 53.5t30.5 26v2l-31 75q-58 -55 -88 -75q-78 -49 -188 -49q-89 0 -159 34t-113.5 93.5t-66 136.5t-22.5 166z" />
    <glyph glyph-name="Wcircumflex" unicode="&#x174;" horiz-adv-x="1835" 
d="M436 8l-387 1376q-6 22 4.5 36t32.5 14h240q12 0 22.5 -9t13.5 -20l177 -694h8l317 721q11 22 35 22h37q28 0 35 -22l317 -721h8l177 694q3 11 13.5 20t22.5 9h240q22 0 32.5 -14t4.5 -36l-387 -1376q-3 -12 -14 -20t-23 -8h-33q-24 0 -35 22l-374 838h-7l-372 -838
q-11 -22 -35 -22h-33q-12 0 -23 8t-14 20zM711 1561q-28 -15 -45 8l-68 96q-13 19 12 39l277 213q23 17 49 0l283 -213q23 -18 12 -39l-70 -94q-7 -10 -20 -13t-23 3l-203 118z" />
    <glyph glyph-name="wcircumflex" unicode="&#x175;" horiz-adv-x="1267" 
d="M293 4l-273 764q-7 20 4 35.5t33 15.5h195q10 0 22 -7t15 -17l106 -281h2l195 309q11 17 33 17h20q23 0 31 -17l196 -309h2l105 281q11 24 41 24h190q22 0 33 -15.5t4 -35.5l-272 -764q-3 -10 -14.5 -17t-22.5 -7h-8q-8 0 -19 5t-14 11l-264 410h-2l-260 -410
q-12 -16 -33 -16h-10q-10 0 -22 7t-13 17zM430 1049q-28 -15 -45 8l-68 96q-13 18 13 39l276 213q23 17 49 0l283 -213q23 -18 12 -39l-69 -94q-7 -10 -20 -13t-23 3l-203 118z" />
    <glyph glyph-name="Ycircumflex" unicode="&#x176;" horiz-adv-x="1208" 
d="M440 39v651l-452 684q-12 20 -2 40t34 20h267q18 0 32 -19l285 -420l285 420q14 19 33 19h266q24 0 34.5 -20t-1.5 -40l-459 -682v-653q0 -15 -12 -27t-27 -12h-244q-17 0 -28 11.5t-11 27.5zM401 1561q-28 -15 -45 8l-67 96q-13 19 12 39l277 213q23 17 49 0l282 -213
q23 -19 13 -39l-70 -94q-7 -10 -20 -13t-23 3l-203 118z" />
    <glyph glyph-name="ycircumflex" unicode="&#x177;" horiz-adv-x="952" 
d="M319 84l-307 682q-9 20 1.5 36.5t33.5 16.5h234q23 0 34 -22l158 -381h4l162 381q3 9 13 15.5t22 6.5h231q23 0 34 -16.5t1 -36.5l-627 -1356q-12 -24 -34 -24h-230q-23 0 -34 16.5t-1 38.5zM272 1049q-28 -15 -45 8l-67 96q-13 19 12 39l277 213q23 17 49 0l282 -213
q23 -19 13 -39l-70 -94q-7 -10 -20 -13t-23 3l-203 118z" />
    <glyph glyph-name="Ydieresis" unicode="&#x178;" horiz-adv-x="1208" 
d="M440 39v651l-452 684q-12 20 -2 40t34 20h267q18 0 32 -19l285 -420l285 420q14 19 33 19h266q24 0 34.5 -20t-1.5 -40l-459 -682v-653q0 -15 -12 -27t-27 -12h-244q-17 0 -28 11.5t-11 27.5zM874 1573q-60 0 -101.5 42.5t-41.5 102.5t41.5 102t101.5 42t103 -42t43 -102
t-43 -102.5t-103 -42.5zM332 1573q-60 0 -102 42.5t-42 102.5t42 102t102 42t102.5 -42t42.5 -102t-42.5 -102.5t-102.5 -42.5z" />
    <glyph glyph-name="Zacute" unicode="&#x179;" horiz-adv-x="1110" 
d="M47 39v37l545 1052v5h-447q-15 0 -27 11.5t-12 26.5v224q0 15 12 27t27 12h871q15 0 27 -12t12 -27v-27l-527 -1063v-4h447q17 0 28 -11.5t11 -27.5v-223q0 -16 -11 -27.5t-28 -11.5h-889q-15 0 -27 12t-12 27zM426 1561q-35 -21 -55 18l-43 86q-10 21 12 39l348 213
q8 7 27 6.5t26 -12.5l70 -121q21 -40 -12 -61z" />
    <glyph glyph-name="zacute" unicode="&#x17a;" horiz-adv-x="755" 
d="M57 39v20l240 492v4h-182q-15 0 -26 12t-11 27v186q0 17 11 28t26 11h555q23 0 34 -16.5t1 -38.5l-259 -498v-4h183q17 0 28 -11t11 -28v-184q0 -16 -11 -27.5t-28 -11.5h-533q-15 0 -27 12t-12 27zM256 1049q-35 -21 -55 18l-43 86q-10 21 12 39l348 213q8 7 27 6.5
t26 -12.5l70 -121q21 -40 -12 -61z" />
    <glyph glyph-name="Zdotaccent" unicode="&#x17b;" horiz-adv-x="1110" 
d="M47 39v37l545 1052v5h-447q-15 0 -27 11.5t-12 26.5v224q0 15 12 27t27 12h871q15 0 27 -12t12 -27v-27l-527 -1063v-4h447q17 0 28 -11.5t11 -27.5v-223q0 -16 -11 -27.5t-28 -11.5h-889q-15 0 -27 12t-12 27zM571 1585q-67 0 -114 47t-47 115t47 116t114 48
t115.5 -48.5t48.5 -115.5t-48 -114.5t-116 -47.5z" />
    <glyph glyph-name="zdotaccent" unicode="&#x17c;" horiz-adv-x="755" 
d="M57 39v20l240 492v4h-182q-15 0 -26 12t-11 27v186q0 17 11 28t26 11h555q23 0 34 -16.5t1 -38.5l-259 -498v-4h183q17 0 28 -11t11 -28v-184q0 -16 -11 -27.5t-28 -11.5h-533q-15 0 -27 12t-12 27zM399 1067q-67 0 -114 47t-47 115t47 116t114 48t115.5 -48.5
t48.5 -115.5t-48 -114.5t-116 -47.5z" />
    <glyph glyph-name="Zcaron" unicode="&#x17d;" horiz-adv-x="1110" 
d="M47 39v37l545 1052v5h-447q-15 0 -27 11.5t-12 26.5v224q0 15 12 27t27 12h871q15 0 27 -12t12 -27v-27l-527 -1063v-4h447q17 0 28 -11.5t11 -27.5v-223q0 -16 -11 -27.5t-28 -11.5h-889q-15 0 -27 12t-12 27zM549 1561l-283 213q-22 18 -12 38l70 95q7 10 20 13t23 -3
l202 -119l205 119q28 15 45 -8l68 -97q13 -18 -13 -38l-276 -213q-23 -17 -49 0z" />
    <glyph glyph-name="zcaron" unicode="&#x17e;" horiz-adv-x="755" 
d="M57 39v20l240 492v4h-182q-15 0 -26 12t-11 27v186q0 17 11 28t26 11h555q23 0 34 -16.5t1 -38.5l-259 -498v-4h183q17 0 28 -11t11 -28v-184q0 -16 -11 -27.5t-28 -11.5h-533q-15 0 -27 12t-12 27zM379 1049l-283 213q-22 18 -12 38l70 95q7 10 20 13t23 -3l202 -119
l205 119q28 15 45 -8l68 -97q13 -18 -12 -38l-277 -213q-23 -17 -49 0z" />
    <glyph glyph-name="florin" unicode="&#x192;" horiz-adv-x="815" 
d="M240 -188v747h-166q-17 0 -28 11.5t-11 27.5v182q0 17 11 28t28 11h166v191q0 208 119.5 326t318.5 118q132 0 227 -78q10 -10 12.5 -24t-4.5 -27l-98 -162q-7 -12 -21 -16t-26 2q-51 22 -86 22q-58 0 -93.5 -41t-35.5 -122v-189h188q17 0 28 -11t11 -28v-182
q0 -16 -11 -27.5t-28 -11.5h-188v-749q0 -206 -123 -325.5t-315 -119.5q-133 0 -228 78q-10 10 -12.5 24t4.5 27l98 162q7 12 21.5 16t26.5 -2q51 -22 86 -22q57 0 93 41.5t36 122.5z" />
    <glyph glyph-name="Aringacute" unicode="&#x1fa;" horiz-adv-x="1355" 
d="M532 1792q-35 -21 -55 18l-43 86q-10 21 12 39l349 213q8 7 27 6.5t26 -12.5l70 -121q21 -40 -13 -61zM27 0q-23 0 -33.5 16.5t-1.5 36.5l596 1282q-65 27 -105.5 86t-40.5 133q0 98 69 167t167 69q97 0 166 -69t69 -167q0 -74 -40.5 -133t-106.5 -86l598 -1282
q9 -20 -1.5 -36.5t-33.5 -16.5h-227q-28 0 -43.5 11t-28.5 40l-74 162h-557l-73 -164q-20 -49 -74 -49h-225zM678 1464q35 0 61.5 27.5t26.5 62.5t-26.5 61.5t-61.5 26.5t-62.5 -26.5t-27.5 -61.5t27.5 -62.5t62.5 -27.5zM522 492h312l-156 337h-2z" />
    <glyph glyph-name="aringacute" unicode="&#x1fb;" horiz-adv-x="878" 
d="M55 250q0 121 82 197.5t219 76.5q41 0 80.5 -8t58.5 -16l19 -8q0 66 -21 93t-90 27q-41 0 -102.5 -9t-101.5 -21q-42 -13 -49 43l-19 129q-7 42 31 55q21 7 110 19t162 12q188 0 267 -82t79 -266v-453q0 -15 -12 -27t-27 -12h-90q-25 0 -37 27l-28 55q-31 -28 -57.5 -47
t-78.5 -37t-112 -18q-123 0 -203 75t-80 195zM322 270q0 -37 25.5 -63.5t62.5 -26.5t63.5 26.5t26.5 63.5q-2 36 -28 61t-62 25q-37 0 -62.5 -25.5t-25.5 -60.5zM449 879q-98 0 -167 68.5t-69 166.5t69 167t167 69q97 0 166 -69t69 -167t-69 -166.5t-166 -68.5zM449 1024
q35 0 61.5 27.5t26.5 62.5t-26.5 61.5t-61.5 26.5q-36 0 -63.5 -26.5t-27.5 -61.5t28 -62.5t63 -27.5zM303 1354q-35 -21 -55 18l-43 86q-10 21 12 39l348 213q8 7 27 6.5t26 -12.5l70 -121q21 -40 -12 -61z" />
    <glyph glyph-name="AEacute" unicode="&#x1fc;" horiz-adv-x="1839" 
d="M-6 0q-23 0 -30 16.5t5 36.5l822 1317q2 3 7.5 11.5t7 11t6.5 9t7 8.5l7 7t8.5 6.5t9 4.5t10.5 3.5t12 1.5t15 1h821q17 0 28 -11.5t11 -27.5v-224q0 -15 -11 -26.5t-28 -11.5h-567v-254h467q15 0 26.5 -12t11.5 -27v-224q0 -17 -11 -27.5t-27 -10.5h-467v-277h567
q17 0 28 -11.5t11 -27.5v-223q0 -16 -11 -27.5t-28 -11.5h-848q-17 0 -28 11.5t-11 27.5v174h-377l-108 -178q-20 -35 -60 -35h-276zM590 492h225v362zM1098 1563q-36 -21 -56 18l-43 86q-10 20 13 39l348 213q8 7 27 6.5t26 -12.5l70 -121q21 -40 -13 -61z" />
    <glyph glyph-name="aeacute" unicode="&#x1fd;" horiz-adv-x="1353" 
d="M53 252q0 118 81.5 195t223.5 77q36 0 75 -8t60 -16l21 -8q2 69 -23 97.5t-88 28.5q-77 0 -204 -24q-15 -2 -29.5 8t-17.5 25l-23 141q-1 15 9 27t24 14q161 31 272 31q180 0 258 -72q109 72 236 72q160 0 274.5 -109.5t114.5 -275.5q0 -19 -1 -30.5t-4.5 -27.5t-13 -24
t-24.5 -8h-492q6 -51 46 -94.5t112 -43.5q74 0 139 49q12 8 26.5 9t24.5 -9l107 -120q11 -11 11.5 -28t-9.5 -28q-120 -120 -307 -120q-91 0 -171 35t-136 98q-13 -16 -34 -34.5t-57 -43t-88 -40t-108 -15.5q-129 0 -207 75t-78 197zM809 524h219q-3 39 -35.5 68t-72.5 29
q-41 0 -73 -28.5t-38 -68.5zM322 270q0 -37 25.5 -63.5t62.5 -26.5t63.5 26.5t26.5 63.5q-2 36 -28 61t-62 25q-37 0 -62.5 -25.5t-25.5 -60.5zM633 1049q-35 -21 -55 18l-43 86q-11 21 12 39l348 213q8 7 27 6.5t26 -12.5l70 -121q21 -40 -12 -61z" />
    <glyph glyph-name="Oslashacute" unicode="&#x1fe;" horiz-adv-x="1630" 
d="M117 47q-11 11 -11.5 26.5t9.5 26.5l137 136q-174 206 -174 479q0 101 26 197t73 177t114.5 149t148.5 115.5t176.5 74t196.5 26.5q274 0 481 -178l144 141q11 12 26.5 11.5t26.5 -11.5l25 -24q12 -11 12 -26.5t-12 -27.5l-144 -143q178 -207 178 -481q0 -151 -58 -287.5
t-156.5 -234.5t-235 -155.5t-287.5 -57.5q-138 0 -261 46t-220 130l-137 -136q-11 -10 -27 -9t-27 12zM487 471l574 571q-115 84 -248 84q-167 0 -287 -121t-120 -290q0 -136 81 -244zM567 391q108 -84 246 -84q169 0 289.5 120.5t120.5 287.5q0 140 -84 248zM668 1561
q-36 -21 -56 18l-43 86q-10 20 13 39l348 213q8 7 27 6.5t26 -12.5l70 -121q21 -40 -13 -61z" />
    <glyph glyph-name="oslashacute" unicode="&#x1ff;" horiz-adv-x="962" 
d="M90 43q-11 11 -11.5 26.5t9.5 26.5l51 51q-88 115 -88 267q0 174 126 300t300 126q140 0 258 -90l58 57q11 12 26.5 11.5t26.5 -11.5l24 -25q12 -10 12 -25.5t-12 -27.5l-57 -57q90 -118 90 -258q0 -116 -57.5 -216t-156 -159t-212.5 -59q-143 0 -258 88l-51 -52
q-11 -10 -26.5 -9.5t-26.5 11.5zM330 344l217 217q-28 14 -70 14q-68 0 -115 -47t-47 -114q0 -40 15 -70zM408 258q28 -14 69 -14q67 0 114.5 50.5t47.5 119.5q0 32 -14 67zM328 1049q-36 -21 -56 18l-43 86q-10 20 13 39l348 213q8 7 27 6.5t26 -12.5l70 -121
q21 -40 -13 -61z" />
    <glyph glyph-name="Scommaaccent" unicode="&#x218;" horiz-adv-x="1122" 
d="M104 137q-16 16 -18.5 25.5t8.5 32.5l96 170q11 18 36 19.5t34 -7.5l15 -9q15 -10 34 -22t48.5 -27t59.5 -27t66 -20t68 -8q62 0 101.5 34.5t39.5 88.5q0 124 -211 207q-58 23 -109.5 50t-106 68.5t-93 88.5t-63.5 111t-25 135q0 78 30.5 149.5t87.5 129.5t149 93t206 35
q229 0 438 -154q17 -9 19 -32.5t-6 -32.5l-105 -158q-11 -18 -33 -27t-36 1q-1 1 -24.5 16.5t-51.5 31.5t-64 34t-77 29.5t-76 11.5q-54 0 -91.5 -31.5t-37.5 -73.5q0 -58 51.5 -104t171.5 -95q58 -23 105.5 -46t108 -65t101.5 -89t70 -117t29 -150t-34 -155.5t-94.5 -135
t-153.5 -96t-202 -36.5q-93 0 -175.5 17t-139 44.5t-90.5 50.5t-56 45zM584 -184q31 0 62 -12.5t60 -39t46.5 -75t17.5 -111.5q0 -61 -16.5 -117.5t-35.5 -92t-52 -73.5t-46.5 -50t-39.5 -33q-25 -18 -45 4l-31 30q-10 13 -9 25t11 20q11 8 24 18.5t36 35t40 50.5t30.5 64.5
t14.5 77.5q-35 -14 -82 -14q-61 0 -104 42t-43 103t46.5 104.5t115.5 43.5z" />
    <glyph glyph-name="scommaaccent" unicode="&#x219;" horiz-adv-x="757" 
d="M82 47q-26 22 -14 43l71 141q5 10 18.5 16.5t24.5 0.5q97 -53 185 -53q16 0 27.5 9t11.5 27q0 44 -117 86q-230 79 -230 275q0 109 81 178.5t239 69.5q89 0 160.5 -19t111.5 -45q37 -25 21 -51l-76 -139q-5 -9 -18 -13t-25 0q-94 48 -174 48q-45 0 -45 -29q0 -33 92 -66
q69 -24 115 -46.5t86.5 -55.5t60 -78.5t19.5 -105.5q0 -113 -90.5 -186.5t-256.5 -73.5q-95 0 -169.5 20t-108.5 47zM399 -184q31 0 62.5 -12.5t60 -39t46.5 -75t18 -111.5q0 -39 -5.5 -75.5t-18 -68t-23.5 -56t-31.5 -50t-31 -39.5t-32.5 -34t-26.5 -24t-22.5 -19
q-25 -18 -45 4l-31 30q-10 13 -8.5 25t11.5 20q11 8 24 18.5t36 35t40 50.5t30.5 64.5t14.5 77.5q-35 -14 -82 -14q-61 0 -104 42t-43 103t46 104.5t115 43.5z" />
    <glyph glyph-name="uni021A" unicode="&#x21a;" horiz-adv-x="1040" 
d="M358 39v1094h-292q-17 0 -28 11.5t-11 26.5v224q0 16 11 27.5t28 11.5h909q17 0 28 -11.5t11 -27.5v-224q0 -15 -11 -26.5t-28 -11.5h-293v-1094q0 -15 -12 -27t-27 -12h-246q-15 0 -27 12t-12 27zM498 -184q31 0 62 -12.5t60 -39t46.5 -75t17.5 -111.5
q0 -61 -16.5 -117.5t-35.5 -92t-52 -73.5t-46.5 -50t-39.5 -33q-25 -18 -45 4l-31 30q-10 13 -9 25t11 20q11 8 24 18.5t36 35t40 50.5t30.5 64.5t14.5 77.5q-35 -14 -82 -14q-61 0 -104 42t-43 103t46.5 104.5t115.5 43.5z" />
    <glyph glyph-name="uni021B" unicode="&#x21b;" horiz-adv-x="704" 
d="M143 264v295h-53q-15 0 -26 12t-11 27v182q0 17 11 28t26 11h53v228q0 15 12 26.5t27 11.5h219q15 0 26 -11.5t11 -26.5v-228h152q17 0 28 -11t11 -28v-182q0 -16 -11 -27.5t-28 -11.5h-152v-256q0 -49 56 -49q13 0 27 2.5t31 6.5t21 5q36 7 45 -26l46 -170
q3 -14 -4.5 -28.5t-22.5 -18.5q-146 -45 -248 -45q-118 0 -182 73t-64 211zM377 -184q31 0 62 -12.5t60 -39t46.5 -75t17.5 -111.5q0 -61 -16.5 -117.5t-35.5 -92t-52 -73.5t-46.5 -50t-39.5 -33q-25 -18 -45 4l-31 30q-10 13 -9 25t11 20q11 8 24 18.5t36 35t40 50.5
t30.5 64.5t14.5 77.5q-35 -14 -82 -14q-61 0 -104 42t-43 103t46.5 104.5t115.5 43.5z" />
    <glyph glyph-name="dotlessj" unicode="&#x237;" horiz-adv-x="526" 
d="M111 -188v966q0 17 11.5 28t27.5 11h227q16 0 27.5 -11t11.5 -28v-966q0 -210 -116 -328.5t-300 -118.5q-74 0 -147.5 25t-102.5 53q-9 8 -11.5 22t3.5 25l86 170q5 11 20 15.5t27 -1.5q62 -32 107 -32q66 0 97.5 45.5t31.5 124.5z" />
    <glyph glyph-name="circumflex" unicode="&#x2c6;" horiz-adv-x="763" 
d="M178 1049q-28 -15 -45 8l-67 96q-13 19 12 39l276 213q23 17 49 0l283 -213q23 -18 12 -39l-69 -94q-7 -10 -20 -13t-23 3l-203 118z" />
    <glyph glyph-name="caron" unicode="&#x2c7;" horiz-adv-x="763" 
d="M358 1049l-282 213q-23 18 -13 38l70 95q7 10 20 13t23 -3l203 -119l205 119q28 15 45 -8l67 -97q13 -18 -12 -38l-276 -213q-24 -18 -50 0z" />
    <glyph glyph-name="uni02C9" unicode="&#x2c9;" horiz-adv-x="847" 
d="M162 1153q-17 0 -28 11t-11 26v84q0 17 11 28t28 11h524q17 0 28 -11t11 -28v-84q0 -15 -11 -26t-28 -11h-524z" />
    <glyph glyph-name="breve" unicode="&#x2d8;" horiz-adv-x="708" 
d="M354 1079q-113 0 -194.5 70t-96.5 176q-3 19 8 32t31 13h93q11 0 21 -7t13 -17q14 -43 48 -71t77 -28q38 0 72.5 30t48.5 69q3 10 13.5 17t21.5 7h96q19 0 30 -13t9 -32q-17 -106 -98.5 -176t-192.5 -70z" />
    <glyph glyph-name="dotaccent" unicode="&#x2d9;" horiz-adv-x="448" 
d="M223 1067q-67 0 -114.5 47.5t-47.5 114.5q0 68 47.5 116t114.5 48t115.5 -48.5t48.5 -115.5t-48 -114.5t-116 -47.5z" />
    <glyph glyph-name="ring" unicode="&#x2da;" horiz-adv-x="593" 
d="M297 983q-98 0 -167 69t-69 167t69 166.5t167 68.5q97 0 166 -68.5t69 -166.5t-69 -167t-166 -69zM297 1128q35 0 61.5 27.5t26.5 63.5q0 35 -26.5 61.5t-61.5 26.5t-62.5 -26.5t-27.5 -61.5t27.5 -63t62.5 -28z" />
    <glyph glyph-name="ogonek" unicode="&#x2db;" horiz-adv-x="565" 
d="M213 31h145q-5 -4 -13.5 -11.5t-30 -32t-38 -49.5t-30 -61.5t-13.5 -71.5q0 -60 36.5 -98.5t107.5 -38.5q16 0 30.5 2t31 6t22.5 5q20 3 32.5 -8.5t12.5 -30.5v-68q0 -13 -9.5 -24.5t-21.5 -14.5q-72 -16 -129 -16q-124 0 -203.5 59t-79.5 174q0 48 15.5 94.5t37.5 78.5
t44 57t38 37z" />
    <glyph glyph-name="tilde" unicode="&#x2dc;" horiz-adv-x="778" 
d="M150 1137l-72 57q-10 7 -13.5 22t1.5 25q10 19 28 43t46.5 55.5t67 52.5t77.5 21q41 0 79.5 -24t73.5 -48t68 -24q40 0 78 63q8 13 21.5 15t29.5 -11l70 -53q27 -20 2 -59q-12 -21 -26.5 -41t-41.5 -50.5t-63 -49.5t-74 -19q-45 0 -86.5 24.5t-76.5 49t-63 24.5
q-17 0 -31.5 -11.5t-31 -34.5t-18.5 -25q-19 -19 -45 -2z" />
    <glyph glyph-name="hungarumlaut" unicode="&#x2dd;" horiz-adv-x="802" 
d="M442 1067q-16 0 -29.5 12.5t-9.5 26.5l62 289q12 39 39 39h192q28 0 39 -16.5t-2 -35.5l-160 -284q-22 -31 -36 -31h-95zM102 1067q-16 0 -29.5 12.5t-9.5 26.5l62 289q12 39 39 39h192q28 0 38 -16t-1 -36l-160 -284q-15 -31 -36 -31h-95z" />
    <glyph glyph-name="uni0394" unicode="&#x394;" horiz-adv-x="1454" 
d="M59 92l625 1340q11 22 35 22h20q24 0 35 -22l623 -1344q16 -34 4.5 -61t-45.5 -27h-1237q-44 0 -61.5 21t1.5 71zM485 295l488 2l-248 532h-2z" />
    <glyph glyph-name="uni03A9" unicode="&#x3a9;" horiz-adv-x="1599" 
d="M53 39v223q0 16 11 27.5t28 11.5h158q-80 57 -134.5 184.5t-54.5 247.5q0 201 98.5 367t267.5 260t372 94q152 0 288 -55.5t234.5 -151t156.5 -229.5t58 -285q0 -120 -54 -247.5t-134 -184.5h157q17 0 28 -11.5t11 -27.5v-223q0 -16 -11 -27.5t-28 -11.5h-571
q-17 0 -28 11.5t-11 27.5v133q0 32 8 50t15 23t34 21q123 73 189.5 196.5t66.5 252.5q0 169 -120 290t-289 121t-289.5 -121t-120.5 -290q0 -129 66.5 -252.5t189.5 -196.5q36 -21 44 -32q13 -18 13 -62v-133q0 -16 -10.5 -27.5t-27.5 -11.5h-572q-17 0 -28 11.5t-11 27.5z
" />
    <glyph glyph-name="uni03BC" unicode="&#x3bc;" horiz-adv-x="1062" 
d="M408 -14v-561q0 -15 -12 -27t-27 -12h-219q-15 0 -27 12t-12 27v1355q0 17 11.5 28t27.5 11h219q16 0 27.5 -11t11.5 -28v-383q3 -60 38 -98.5t93 -38.5q57 0 90 40.5t33 96.5v383q0 39 43 39h208q16 0 27.5 -11t11.5 -28v-741q0 -15 -12 -27t-27 -12h-96q-27 0 -39 29
l-30 75q-58 -56 -90 -76q-78 -48 -187 -48q-33 0 -63 6z" />
    <glyph glyph-name="pi" unicode="&#x3c0;" horiz-adv-x="1439" 
d="M233 39v520h-133q-17 0 -28 11.5t-11 27.5v182q0 17 11 28t28 11h1182q17 0 28 -11t11 -28v-182q0 -16 -11 -27.5t-28 -11.5h-147v-520q0 -15 -12 -27t-27 -12h-236q-15 0 -27 12t-12 27v520h-274v-520q0 -15 -12 -27t-27 -12h-236q-15 0 -27 12t-12 27z" />
    <glyph glyph-name="Wgrave" unicode="&#x1e80;" horiz-adv-x="1835" 
d="M436 8l-387 1376q-6 22 4.5 36t32.5 14h240q12 0 22.5 -9t13.5 -20l177 -694h8l317 721q11 22 35 22h37q28 0 35 -22l317 -721h8l177 694q3 11 13.5 20t22.5 9h240q22 0 32.5 -14t4.5 -36l-387 -1376q-3 -12 -14 -20t-23 -8h-33q-24 0 -35 22l-374 838h-7l-372 -838
q-11 -22 -35 -22h-33q-12 0 -23 8t-14 20zM1061 1561l-373 168q-33 21 -12 61l69 121q7 12 26.5 12.5t27.5 -6.5l348 -213q23 -18 12 -39l-43 -86q-20 -39 -55 -18z" />
    <glyph glyph-name="wgrave" unicode="&#x1e81;" horiz-adv-x="1267" 
d="M293 4l-273 764q-7 20 4 35.5t33 15.5h195q10 0 22 -7t15 -17l106 -281h2l195 309q11 17 33 17h20q23 0 31 -17l196 -309h2l105 281q11 24 41 24h190q22 0 33 -15.5t4 -35.5l-272 -764q-3 -10 -14.5 -17t-22.5 -7h-8q-8 0 -19 5t-14 11l-264 410h-2l-260 -410
q-12 -16 -33 -16h-10q-10 0 -22 7t-13 17zM799 1049l-373 168q-33 21 -12 61l69 121q7 12 26.5 12.5t27.5 -6.5l348 -213q23 -18 12 -39l-43 -86q-20 -39 -55 -18z" />
    <glyph glyph-name="Wacute" unicode="&#x1e82;" horiz-adv-x="1835" 
d="M436 8l-387 1376q-6 22 4.5 36t32.5 14h240q12 0 22.5 -9t13.5 -20l177 -694h8l317 721q11 22 35 22h37q28 0 35 -22l317 -721h8l177 694q3 11 13.5 20t22.5 9h240q22 0 32.5 -14t4.5 -36l-387 -1376q-3 -12 -14 -20t-23 -8h-33q-24 0 -35 22l-374 838h-7l-372 -838
q-11 -22 -35 -22h-33q-12 0 -23 8t-14 20zM768 1561q-35 -21 -55 18l-43 86q-10 21 12 39l348 213q8 7 27 6.5t26 -12.5l70 -121q21 -40 -12 -61z" />
    <glyph glyph-name="wacute" unicode="&#x1e83;" horiz-adv-x="1267" 
d="M293 4l-273 764q-7 20 4 35.5t33 15.5h195q10 0 22 -7t15 -17l106 -281h2l195 309q11 17 33 17h20q23 0 31 -17l196 -309h2l105 281q11 24 41 24h190q22 0 33 -15.5t4 -35.5l-272 -764q-3 -10 -14.5 -17t-22.5 -7h-8q-8 0 -19 5t-14 11l-264 410h-2l-260 -410
q-12 -16 -33 -16h-10q-10 0 -22 7t-13 17zM487 1049q-35 -21 -55 18l-43 86q-11 21 12 39l349 213q8 7 27 6.5t26 -12.5l69 -121q21 -40 -12 -61z" />
    <glyph glyph-name="Wdieresis" unicode="&#x1e84;" horiz-adv-x="1835" 
d="M436 8l-387 1376q-6 22 4.5 36t32.5 14h240q12 0 22.5 -9t13.5 -20l177 -694h8l317 721q11 22 35 22h37q28 0 35 -22l317 -721h8l177 694q3 11 13.5 20t22.5 9h240q22 0 32.5 -14t4.5 -36l-387 -1376q-3 -12 -14 -20t-23 -8h-33q-24 0 -35 22l-374 838h-7l-372 -838
q-11 -22 -35 -22h-33q-12 0 -23 8t-14 20zM1184 1573q-60 0 -102 42.5t-42 102.5t42 102t102 42t102.5 -42t42.5 -102t-42.5 -102.5t-102.5 -42.5zM641 1573q-60 0 -101.5 42.5t-41.5 102.5t41.5 102t101.5 42t102.5 -42t42.5 -102t-42.5 -102.5t-102.5 -42.5z" />
    <glyph glyph-name="wdieresis" unicode="&#x1e85;" horiz-adv-x="1267" 
d="M293 4l-273 764q-7 20 4 35.5t33 15.5h195q10 0 22 -7t15 -17l106 -281h2l195 309q11 17 33 17h20q23 0 31 -17l196 -309h2l105 281q11 24 41 24h190q22 0 33 -15.5t4 -35.5l-272 -764q-3 -10 -14.5 -17t-22.5 -7h-8q-8 0 -19 5t-14 11l-264 410h-2l-260 -410
q-12 -16 -33 -16h-10q-10 0 -22 7t-13 17zM842 1096q-60 0 -102 42.5t-42 102.5t42 101.5t102 41.5t102.5 -41.5t42.5 -101.5t-42.5 -102.5t-102.5 -42.5zM422 1096q-60 0 -101.5 42.5t-41.5 102.5t41.5 101.5t101.5 41.5t102.5 -41.5t42.5 -101.5t-42.5 -102.5
t-102.5 -42.5z" />
    <glyph glyph-name="Ygrave" unicode="&#x1ef2;" horiz-adv-x="1208" 
d="M440 39v651l-452 684q-12 20 -2 40t34 20h267q18 0 32 -19l285 -420l285 420q14 19 33 19h266q24 0 34.5 -20t-1.5 -40l-459 -682v-653q0 -15 -12 -27t-27 -12h-244q-17 0 -28 11.5t-11 27.5zM750 1561l-373 168q-33 21 -12 61l69 121q7 12 26 12.5t27 -6.5l349 -213
q23 -18 12 -39l-43 -86q-20 -39 -55 -18z" />
    <glyph glyph-name="ygrave" unicode="&#x1ef3;" horiz-adv-x="952" 
d="M319 84l-307 682q-9 20 1.5 36.5t33.5 16.5h234q23 0 34 -22l158 -381h4l162 381q3 9 13 15.5t22 6.5h231q23 0 34 -16.5t1 -36.5l-627 -1356q-12 -24 -34 -24h-230q-23 0 -34 16.5t-1 38.5zM623 1049l-373 168q-33 21 -12 61l69 121q7 12 26 12.5t27 -6.5l349 -213
q23 -18 12 -39l-43 -86q-20 -39 -55 -18z" />
    <glyph glyph-name="endash" unicode="&#x2013;" horiz-adv-x="1095" 
d="M129 416q-17 0 -28 11t-11 26v104q0 17 11 28t28 11h838q17 0 28 -11t11 -28v-104q0 -15 -11 -26t-28 -11h-838z" />
    <glyph glyph-name="emdash" unicode="&#x2014;" horiz-adv-x="1546" 
d="M129 416q-17 0 -28 11t-11 26v104q0 17 11 28t28 11h1288q17 0 28 -11t11 -28v-104q0 -15 -11 -26t-28 -11h-1288z" />
    <glyph glyph-name="quoteleft" unicode="&#x2018;" horiz-adv-x="417" 
d="M225 836q-32 0 -62.5 12.5t-59.5 38.5t-46.5 74.5t-17.5 111.5q0 61 16.5 118t35.5 92.5t52 73t47 50t39 33.5q25 18 45 -4l31 -31q10 -13 9 -25t-11 -20q-11 -8 -24 -18.5t-36 -35t-40 -50.5t-30.5 -64.5t-14.5 -77.5q35 14 82 14q61 0 104 -42t43 -103t-46.5 -104
t-115.5 -43z" />
    <glyph glyph-name="quoteright" unicode="&#x2019;" horiz-adv-x="409" 
d="M139 854l-30 31q-10 13 -9 25t11 20q11 8 24 18.5t36 35t40 50.5t30.5 64.5t14.5 77.5q-35 -15 -82 -15q-60 0 -103.5 42.5t-43.5 103.5t46 104t115 43q32 0 62.5 -12.5t59.5 -38.5t47 -74.5t18 -111.5q0 -51 -10 -98t-30 -85t-37 -65.5t-45 -55t-37.5 -36.5t-31.5 -27
q-25 -18 -45 4z" />
    <glyph glyph-name="quotesinglbase" unicode="&#x201a;" horiz-adv-x="466" 
d="M61 125q0 61 46.5 104t115.5 43q32 0 62.5 -12.5t59.5 -38.5t47 -74.5t18 -111.5q0 -51 -10 -98t-30 -85t-37 -65.5t-45 -55t-37.5 -36.5t-31.5 -27q-25 -18 -45 4l-31 31q-10 13 -9 25t11 20q15 11 33 27t46.5 48t47 77.5t19.5 93.5q-35 -14 -82 -14q-61 0 -104.5 42
t-43.5 103z" />
    <glyph glyph-name="quotedblleft" unicode="&#x201c;" horiz-adv-x="825" 
d="M633 838q-32 0 -62.5 12.5t-59.5 38.5t-47 74.5t-18 111.5q0 51 10 98t30 85t37 65.5t45 55t37.5 36.5t31.5 27q25 18 45 -4l31 -31q10 -13 9 -25t-11 -20q-15 -11 -33 -27t-46.5 -48t-47 -77.5t-19.5 -93.5q35 14 82 14q61 0 104.5 -42t43.5 -103t-46.5 -104t-115.5 -43
zM225 838q-32 0 -62.5 12.5t-59.5 38.5t-46.5 74.5t-17.5 111.5q0 61 16.5 118t35.5 92.5t52 73t47 50t39 33.5q25 18 45 -4l31 -31q10 -13 9 -25t-11 -20q-11 -8 -24 -18.5t-36 -35t-40 -50.5t-30.5 -64.5t-14.5 -77.5q35 14 82 14q61 0 104 -42t43 -103t-46.5 -104
t-115.5 -43z" />
    <glyph glyph-name="quotedblright" unicode="&#x201d;" horiz-adv-x="817" 
d="M547 854l-31 31q-10 13 -9 25t11 20q15 11 33 27t46.5 48t47 77.5t19.5 93.5q-35 -15 -82 -15q-61 0 -104.5 42.5t-43.5 103.5t46.5 104t115.5 43q32 0 62.5 -12.5t59.5 -38.5t46.5 -74.5t17.5 -111.5q0 -61 -16.5 -118t-35.5 -92.5t-52 -73t-47 -50t-39 -33.5
q-25 -18 -45 4zM139 854l-30 31q-10 13 -9 25t11 20q11 8 24 18.5t36 35t40 50.5t30.5 64.5t14.5 77.5q-35 -15 -82 -15q-60 0 -103.5 42.5t-43.5 103.5t46 104t115 43q32 0 62.5 -12.5t59.5 -38.5t47 -74.5t18 -111.5q0 -51 -10 -98t-30 -85t-37 -65.5t-45 -55t-37.5 -36.5
t-31.5 -27q-25 -18 -45 4z" />
    <glyph glyph-name="quotedblbase" unicode="&#x201e;" horiz-adv-x="876" 
d="M469 125q0 61 46.5 104t115.5 43q32 0 62.5 -12.5t59.5 -38.5t46.5 -74.5t17.5 -111.5q0 -61 -16.5 -118t-35.5 -92.5t-52 -73t-47 -50t-39 -33.5q-25 -18 -45 4l-31 31q-10 13 -9 25t11 20q11 8 24 18.5t36 35t40 50.5t30.5 64.5t14.5 77.5q-35 -14 -82 -14
q-61 0 -104 42t-43 103zM61 125q0 61 46.5 104t115.5 43q32 0 62.5 -12.5t59.5 -38.5t47 -74.5t18 -111.5q0 -51 -10 -98t-30 -85t-37 -65.5t-45 -55t-37.5 -36.5t-31.5 -27q-25 -18 -45 4l-31 31q-10 13 -9 25t11 20q15 11 33 27t46.5 48t47 77.5t19.5 93.5
q-35 -14 -82 -14q-61 0 -104.5 42t-43.5 103z" />
    <glyph glyph-name="dagger" unicode="&#x2020;" horiz-adv-x="1265" 
d="M141 537q-15 0 -27 11.5t-12 26.5v205q0 15 12 27t27 12h322v576q0 15 12 27t27 12h246q15 0 26.5 -12t11.5 -27v-576h340q15 0 26 -12t11 -27v-205q0 -15 -11 -26.5t-26 -11.5h-360l-80 -1119q-4 -32 -39 -32h-45q-16 0 -26.5 9.5t-12.5 22.5l-80 1119h-342z" />
    <glyph glyph-name="daggerdbl" unicode="&#x2021;" horiz-adv-x="1265" 
d="M164 41v205q0 15 12 27t27 12h297l-37 530v2h-322q-15 0 -27 12t-12 27v205q0 15 12 27t27 12h322v295q0 15 12 27t27 12h246q15 0 26.5 -12t11.5 -27v-295h340q15 0 26 -12t11 -27v-205q0 -15 -11 -27t-26 -12h-340l-38 -532h317q15 0 26 -12t11 -27v-205q0 -15 -11 -27
t-26 -12h-338l-41 -584q-2 -13 -12.5 -22.5t-26.5 -9.5h-45q-16 0 -26.5 9.5t-12.5 22.5l-43 584h-317q-15 0 -27 12t-12 27z" />
    <glyph glyph-name="bullet" unicode="&#x2022;" horiz-adv-x="831" 
d="M412 170q-117 0 -203 86t-86 203q0 121 86 209t203 88q122 0 209.5 -88t87.5 -209q0 -117 -88 -203t-209 -86z" />
    <glyph glyph-name="ellipsis" unicode="&#x2026;" horiz-adv-x="1413" 
d="M1006 143q0 68 47 115t114 47q68 0 116 -47.5t48 -114.5t-48 -115t-116 -48q-67 0 -114 47.5t-47 115.5zM551 143q0 67 47.5 114.5t114.5 47.5q68 0 116 -47.5t48 -114.5t-48 -115t-116 -48q-67 0 -114.5 47.5t-47.5 115.5zM82 143q0 67 47 114.5t115 47.5t116 -47.5
t48 -114.5t-48 -115t-116 -48q-67 0 -114.5 47.5t-47.5 115.5z" />
    <glyph glyph-name="perthousand" unicode="&#x2030;" horiz-adv-x="2019" 
d="M358 903q-115 0 -195.5 80.5t-80.5 196.5t80 196t196 80q114 0 195.5 -80.5t81.5 -195.5t-81.5 -196t-195.5 -81zM233 55l703 1358q12 21 35 21h155q23 0 34.5 -18t0.5 -38l-706 -1358q-5 -6 -16.5 -13t-18.5 -7h-152q-23 0 -34 17.5t-1 37.5zM358 1108q28 0 49 21.5
t21 50.5q0 28 -21 48.5t-49 20.5q-29 0 -50 -20.5t-21 -48.5q0 -29 21 -50.5t50 -21.5zM1382 256q0 115 81.5 195.5t195.5 80.5q116 0 197 -80.5t81 -195.5q0 -114 -81.5 -195t-196.5 -81q-114 0 -195.5 81t-81.5 195zM768 256q0 115 81 195.5t195 80.5q116 0 197.5 -80.5
t81.5 -195.5q0 -114 -82 -195t-197 -81q-114 0 -195 81t-81 195zM1589 256q0 -28 21 -49t49 -21q29 0 50.5 21t21.5 49q0 29 -21.5 50.5t-50.5 21.5q-28 0 -49 -21.5t-21 -50.5zM975 256q0 -28 20.5 -49t48.5 -21q29 0 50.5 21t21.5 49q0 29 -21.5 50.5t-50.5 21.5
q-28 0 -48.5 -21.5t-20.5 -50.5z" />
    <glyph glyph-name="guilsinglleft" unicode="&#x2039;" horiz-adv-x="579" 
d="M256 80l-213 317q-17 23 0 49l223 304q14 24 37 24h162q26 0 34.5 -19t-3.5 -44l-134 -285l127 -301q11 -25 3 -43.5t-33 -18.5h-172q-6 0 -16.5 5.5t-14.5 11.5z" />
    <glyph glyph-name="guilsinglright" unicode="&#x203a;" horiz-adv-x="579" 
d="M119 63q-25 0 -33.5 18.5t2.5 43.5l127 301l-133 285q-12 25 -3.5 44t34.5 19h161q23 0 37 -24l224 -304q17 -26 0 -49l-213 -317q-4 -6 -14.5 -11.5t-16.5 -5.5h-172z" />
    <glyph glyph-name="fraction" unicode="&#x2044;" horiz-adv-x="212" 
d="M-152 20q-10 -20 -34 -20h-113q-23 0 -34 17.5t-1 37.5l705 1358q11 21 35 21h114q23 0 34.5 -18t0.5 -38z" />
    <glyph glyph-name="zerosuperior" unicode="&#x2070;" horiz-adv-x="741" 
d="M371 1012q-128 0 -198.5 85.5t-70.5 237.5q0 153 70.5 238.5t198.5 85.5t198 -85.5t70 -238.5q0 -152 -70 -237.5t-198 -85.5zM371 1176q63 0 63 159q0 160 -63 160q-64 0 -64 -160q0 -159 64 -159z" />
    <glyph glyph-name="foursuperior" unicode="&#x2074;" horiz-adv-x="765" 
d="M408 1032q-8 0 -14.5 6t-6.5 13v96h-266q-7 0 -13 5t-6 11v127l326 342q3 6 14 6h105q7 0 12.5 -5t5.5 -13v-334h80q7 0 13 -5t6 -11v-105q0 -7 -5.5 -12.5t-13.5 -5.5h-80v-96q0 -8 -5.5 -13.5t-12.5 -5.5h-139zM270 1282h119v133z" />
    <glyph glyph-name="fivesuperior" unicode="&#x2075;" horiz-adv-x="671" 
d="M307 1012q-68 0 -119.5 24.5t-76.5 53.5q-13 13 -2 30l61 80q17 26 35 8q38 -37 104 -37q27 0 49.5 16t22.5 42q0 27 -22 43t-56 16h-147q-14 0 -23.5 10t-9.5 21v301q0 18 20 18h330q9 0 15 -5t6 -13v-109q0 -8 -6 -13t-15 -5h-197v-59h60q110 0 171.5 -53t61.5 -150
q0 -98 -71.5 -158.5t-190.5 -60.5z" />
    <glyph glyph-name="sixsuperior" unicode="&#x2076;" horiz-adv-x="694" 
d="M354 1012q-115 0 -183.5 68t-68.5 175q0 79 30 147.5t70 111.5t93.5 78t88 50.5t65.5 24.5q30 9 40 -18l31 -82q9 -27 -18 -35q-53 -15 -116 -51t-83 -82q35 24 103 24q74 0 130 -52t56 -146q0 -87 -70.5 -150t-167.5 -63zM354 1176q25 0 42.5 16.5t17.5 42.5t-17.5 43.5
t-42.5 17.5t-43 -17.5t-18 -43.5t18 -42.5t43 -16.5z" />
    <glyph glyph-name="sevensuperior" unicode="&#x2077;" horiz-adv-x="663" 
d="M129 1032q-27 0 -27 19v10l222 426h-189q-7 0 -13.5 5t-6.5 11v117q0 7 6 12.5t14 5.5h406q8 0 14 -5.5t6 -12.5v-33l-260 -536q-11 -19 -33 -19h-139z" />
    <glyph glyph-name="eightsuperior" unicode="&#x2078;" horiz-adv-x="722" 
d="M358 1012q-114 0 -185 50t-71 126q0 35 18 66t42 49.5t41.5 28t23.5 11.5v3q-39 14 -72.5 50.5t-33.5 92.5q0 76 69.5 123t167.5 47q102 0 172 -47t70 -123q0 -56 -34 -94t-72 -49v-3q48 -11 87.5 -50t39.5 -105q0 -76 -73 -126t-190 -50zM360 1409q21 0 36.5 15t15.5 36
q0 22 -16 37.5t-36 15.5q-21 0 -37 -16t-16 -37t16 -36t37 -15zM362 1151q24 0 44 16t20 45q0 26 -18 45t-46 19q-25 0 -45 -19.5t-20 -44.5q0 -26 20 -43.5t45 -17.5z" />
    <glyph glyph-name="ninesuperior" unicode="&#x2079;" horiz-adv-x="694" 
d="M246 1004q-31 -9 -41 18l-31 82q-3 10 1 20.5t18 14.5q53 15 115.5 51t82.5 82q-34 -25 -110 -25q-68 0 -123.5 54t-55.5 145q0 87 70.5 150t167.5 63q115 0 183.5 -68t68.5 -176q0 -79 -29.5 -147.5t-70 -111.5t-93.5 -77.5t-87.5 -49.5t-65.5 -25zM340 1374q25 0 43 18
t18 44t-18 42.5t-43 16.5t-42 -16.5t-17 -42.5t17 -44t42 -18z" />
    <glyph glyph-name="zeroinferior" unicode="&#x2080;" horiz-adv-x="741" 
d="M102 -4q0 153 70.5 238t198.5 85t198 -85t70 -238q0 -152 -70 -238t-198 -86t-198.5 86t-70.5 238zM307 -4q0 -160 64 -160q63 0 63 160t-63 160q-64 0 -64 -160z" />
    <glyph glyph-name="oneinferior" unicode="&#x2081;" horiz-adv-x="524" 
d="M119 88q-7 0 -12 7t-5 16v77q0 13 17 23l155 88h129q8 0 13.5 -5.5t5.5 -12.5v-570q0 -7 -5.5 -12.5t-13.5 -5.5h-153q-9 0 -15 5t-6 13v377h-110z" />
    <glyph glyph-name="twoinferior" unicode="&#x2082;" horiz-adv-x="649" 
d="M180 133l-45 74q-1 2 -5 8.5t-4.5 7.5t-2.5 6t-1 6.5t1.5 5.5t3 6.5l6.5 6.5t10 8q23 18 74.5 37.5t116.5 19.5q92 0 152.5 -52.5t60.5 -139.5q0 -85 -62 -172l-82 -109h119q8 0 14.5 -5.5t6.5 -12.5v-117q0 -7 -6.5 -12.5t-14.5 -5.5h-399q-9 0 -15 5t-6 13v37l209 252
q41 52 41 96q0 29 -18 44.5t-45 15.5q-41 0 -72 -31q-24 -16 -37 8z" />
    <glyph glyph-name="threeinferior" unicode="&#x2083;" horiz-adv-x="647" 
d="M178 35q0 35 37 35h57q24 0 41 13.5t17 35.5q0 20 -16 32.5t-44 12.5q-30 0 -61 -23q-20 -13 -35 9l-53 71q-18 23 2 43q7 6 20.5 15t60 24.5t97.5 15.5q103 0 164 -45.5t61 -123.5q0 -91 -104 -144q48 -19 85.5 -56.5t37.5 -101.5q0 -83 -71 -129.5t-173 -46.5
q-104 0 -184 60q-24 18 -6 45l47 69q16 23 41 9q28 -23 73 -23q68 0 68 49q0 23 -17.5 37t-50.5 14h-67q-14 2 -20.5 8t-6.5 25v70z" />
    <glyph glyph-name="fourinferior" unicode="&#x2084;" horiz-adv-x="765" 
d="M102 -49l326 342q3 6 14 6h105q7 0 12.5 -5.5t5.5 -12.5v-334h80q7 0 13 -5.5t6 -11.5v-104q0 -8 -6 -13.5t-13 -5.5h-80v-96q0 -7 -5.5 -12.5t-12.5 -5.5h-139q-8 0 -14.5 5.5t-6.5 12.5v96h-266q-7 0 -13 5.5t-6 11.5v127zM270 -57h119v133z" />
    <glyph glyph-name="fiveinferior" unicode="&#x2085;" horiz-adv-x="671" 
d="M123 -20v301q0 18 20 18h330q9 0 15 -5t6 -13v-109q0 -8 -6 -13t-15 -5h-197v-60h60q110 0 171.5 -53t61.5 -150q0 -98 -71.5 -158.5t-190.5 -60.5q-68 0 -119.5 24.5t-76.5 53.5q-14 14 -2 31l61 80q17 26 35 8q38 -37 104 -37q27 0 49.5 15.5t22.5 41.5q0 27 -22 43.5
t-56 16.5h-147q-14 0 -23.5 10t-9.5 21z" />
    <glyph glyph-name="sixinferior" unicode="&#x2086;" horiz-adv-x="694" 
d="M102 -84q0 79 30 147.5t70 111.5t93.5 78t88 50.5t65.5 24.5q30 9 40 -19l31 -82q9 -26 -18 -34q-53 -15 -116 -51.5t-83 -82.5q35 25 103 25q74 0 130 -52.5t56 -146.5q0 -87 -70.5 -150t-167.5 -63q-115 0 -183.5 68t-68.5 176zM293 -104q0 -26 18 -43t43 -17t42.5 17
t17.5 43t-17.5 43.5t-42.5 17.5t-43 -17.5t-18 -43.5z" />
    <glyph glyph-name="seveninferior" unicode="&#x2087;" horiz-adv-x="663" 
d="M115 164v117q0 7 6 12.5t14 5.5h406q8 0 14 -5.5t6 -12.5v-33l-260 -537q-10 -18 -33 -18h-139q-27 0 -27 18v10l222 426h-189q-7 0 -13.5 5.5t-6.5 11.5z" />
    <glyph glyph-name="eightinferior" unicode="&#x2088;" horiz-adv-x="722" 
d="M102 -152q0 35 18 66.5t42 50t41.5 28t23.5 11.5v2q-39 14 -72.5 51t-33.5 93q0 76 69 122.5t168 46.5q103 0 172.5 -46.5t69.5 -122.5q0 -56 -34 -94.5t-72 -49.5v-2q48 -11 87.5 -50.5t39.5 -105.5q0 -76 -73 -126t-190 -50q-114 0 -185 50t-71 126zM307 121
q0 -21 16 -36t37 -15t36.5 15t15.5 36t-16 37t-36 16q-21 0 -37 -16t-16 -37zM297 -127q0 -26 20 -43.5t45 -17.5q24 0 44 16t20 45q0 26 -18 45t-46 19q-25 0 -45 -19.5t-20 -44.5z" />
    <glyph glyph-name="nineinferior" unicode="&#x2089;" horiz-adv-x="694" 
d="M102 106q0 87 70.5 150t167.5 63q115 0 183.5 -68t68.5 -175q0 -79 -29.5 -147.5t-70 -111.5t-93.5 -78t-88 -50.5t-65 -24.5t-41 19l-31 81q-3 10 1 20.5t18 14.5q53 15 115.5 51t82.5 82q-34 -24 -110 -24q-68 0 -123.5 53.5t-55.5 144.5zM281 96q0 -26 17 -43.5
t42 -17.5t43 17.5t18 43.5t-18 43t-43 17t-42 -17t-17 -43z" />
    <glyph glyph-name="Euro" unicode="&#x20ac;" horiz-adv-x="1458" 
d="M78 508q-15 0 -26 12t-11 27v35q0 15 11 27t26 12h78q-4 31 -4 94v39h-74q-15 0 -26 12t-11 27v34q0 15 11 27t26 12h88q53 254 256 421t469 167q151 0 270 -46.5t225 -143.5q13 -12 14 -29t-11 -29l-160 -166q-11 -10 -26 -10t-25 10q-117 105 -277 105
q-133 0 -235 -77.5t-144 -201.5h430q17 0 28 -11.5t11 -27.5v-39q0 -15 -11 -25.5t-28 -10.5h-452v-29q0 -53 12 -102h358q17 0 28 -11.5t11 -27.5v-37q0 -15 -11 -26t-28 -11h-315q54 -93 145 -147t203 -54q73 0 146.5 26t128.5 73q10 9 27 8t26 -11l160 -170
q10 -11 9.5 -27.5t-11.5 -27.5q-204 -198 -498 -198q-251 0 -447.5 148t-263.5 380h-102z" />
    <glyph glyph-name="afii61289" unicode="&#x2113;" horiz-adv-x="1034" 
d="M182 319q0 51 6 101q-9 -2 -27 -7.5t-33 -9t-24 -4.5q-27 -6 -30 25l-11 92q0 8 -1.5 15.5t7 15.5t27.5 12q75 14 125 31q20 113 31 166q63 345 167 521.5t261 176.5q115 0 179.5 -76.5t64.5 -208.5q0 -129 -47 -242t-129.5 -197.5t-181 -147t-214.5 -107.5
q-16 -82 -16 -151q0 -79 35.5 -134t105.5 -55q147 0 293 88q26 15 37.5 13.5t21.5 -23.5l33 -49q14 -24 14 -33.5t-18 -28.5q-197 -122 -381 -122q-99 0 -167.5 49t-98 123.5t-29.5 166.5zM387 635q176 79 279.5 214.5t103.5 319.5q0 61 -24 95t-66 34q-90 0 -160 -148.5
t-117 -420.5z" />
    <glyph glyph-name="trademark" unicode="&#x2122;" horiz-adv-x="1476" 
d="M678 774q-20 0 -31 14t-8 33l106 592q2 13 12.5 22t26.5 9h9q21 0 34 -23l187 -352l188 352q12 23 35 23h8q14 0 26 -9.5t13 -21.5l109 -594q3 -19 -8.5 -32t-30.5 -13h-107q-14 0 -26 11t-13 24l-34 215l-121 -238q-11 -18 -33 -18h-12q-25 0 -35 20l-117 236l-37 -217
q-1 -12 -14 -22.5t-25 -10.5h-102zM283 774q-17 0 -28 11.5t-11 27.5v442h-123q-16 0 -27.5 11t-11.5 28v101q0 15 12 27t27 12h432q17 0 28 -11.5t11 -27.5v-101q0 -17 -11 -28t-28 -11h-123v-442q0 -15 -12 -27t-27 -12h-108z" />
    <glyph glyph-name="Omega" unicode="&#x2126;" horiz-adv-x="1599" 
d="M53 39v223q0 16 11 27.5t28 11.5h158q-80 57 -134.5 184.5t-54.5 247.5q0 201 98.5 367t267.5 260t372 94q152 0 288 -55.5t234.5 -151t156.5 -229.5t58 -285q0 -120 -54 -247.5t-134 -184.5h157q17 0 28 -11.5t11 -27.5v-223q0 -16 -11 -27.5t-28 -11.5h-571
q-17 0 -28 11.5t-11 27.5v133q0 32 8 50t15 23t34 21q123 73 189.5 196.5t66.5 252.5q0 169 -120 290t-289 121t-289.5 -121t-120.5 -290q0 -129 66.5 -252.5t189.5 -196.5q36 -21 44 -32q13 -18 13 -62v-133q0 -16 -10.5 -27.5t-27.5 -11.5h-572q-17 0 -28 11.5t-11 27.5z
" />
    <glyph glyph-name="estimated" unicode="&#x212e;" horiz-adv-x="1685" 
d="M313 352q74 -103 202 -163t269 -60q102 0 207.5 43t194.5 119q14 12 21.5 16.5t18.5 3t23 -13.5l49 -53q25 -27 -14 -66q-210 -198 -500 -198q-154 0 -291.5 57t-236.5 154.5t-157 234t-58 289.5q0 205 98.5 374.5t269 267t375.5 97.5q152 0 289 -58.5t236.5 -158.5
t158.5 -238.5t60 -291.5q0 -38 -11 -52t-42 -14h-1162v-289zM313 786h944v291q-83 105 -207 165.5t-266 60.5q-148 0 -269.5 -57.5t-201.5 -164.5v-295z" />
    <glyph glyph-name="onethird" unicode="&#x2153;" horiz-adv-x="1366" 
d="M211 55l704 1358q11 21 35 21h115q23 0 34.5 -18t0.5 -38l-707 -1358q-10 -20 -35 -20h-112q-23 0 -34 17.5t-1 37.5zM250 827q-9 0 -15 5.5t-6 13.5v377h-110q-17 0 -17 22v78q0 13 17 23l155 88h129q7 0 13 -6t6 -13v-569q0 -8 -6 -13.5t-13 -5.5h-153zM844 84l47 70
q16 22 41 8q29 -23 74 -23q67 0 67 49q0 23 -17.5 37.5t-49.5 14.5h-68q-10 1 -14.5 3t-8.5 9t-4 20v70q0 35 37 35h58q24 0 40.5 13t16.5 36q0 20 -16 32.5t-43 12.5q-33 0 -62 -22q-8 -7 -16.5 -6.5t-18.5 14.5l-53 71q-18 23 2 43q7 6 20.5 15.5t60 25t97.5 15.5
q103 0 164.5 -46t61.5 -124q0 -90 -105 -144q123 -47 123 -157q0 -83 -71 -129.5t-173 -46.5q-105 0 -184 59q-24 18 -6 45z" />
    <glyph glyph-name="twothirds" unicode="&#x2154;" horiz-adv-x="1366" 
d="M23 827q-9 0 -15 5.5t-6 13.5v37l209 252q41 52 41 96q0 29 -18.5 44t-45.5 15q-41 0 -71 -30q-24 -16 -37 8l-45 73q-14 25 -12 33q2 10 20 23q23 18 74 37.5t116 19.5q92 0 152.5 -52.5t60.5 -139.5q0 -86 -61 -172l-82 -109h119q8 0 14 -5.5t6 -12.5v-117q0 -7 -6 -13
t-14 -6h-399zM211 55l704 1358q11 21 35 21h115q23 0 34.5 -18t0.5 -38l-707 -1358q-10 -20 -35 -20h-112q-23 0 -34 17.5t-1 37.5zM844 84l47 70q16 22 41 8q29 -23 74 -23q67 0 67 49q0 23 -17.5 37.5t-49.5 14.5h-68q-10 1 -14.5 3t-8.5 9t-4 20v70q0 35 37 35h58
q24 0 40.5 13t16.5 36q0 20 -16 32.5t-43 12.5q-33 0 -62 -22q-8 -7 -16.5 -6.5t-18.5 14.5l-53 71q-18 23 2 43q7 6 20.5 15.5t60 25t97.5 15.5q103 0 164.5 -46t61.5 -124q0 -90 -105 -144q123 -47 123 -157q0 -83 -71 -129.5t-173 -46.5q-105 0 -184 59q-24 18 -6 45z
" />
    <glyph glyph-name="oneeighth" unicode="&#x215b;" horiz-adv-x="1366" 
d="M211 55l704 1358q11 21 35 21h115q23 0 34.5 -18t0.5 -38l-707 -1358q-10 -20 -35 -20h-112q-23 0 -34 17.5t-1 37.5zM250 827q-9 0 -15 5.5t-6 13.5v377h-110q-17 0 -17 22v78q0 13 17 23l155 88h129q7 0 13 -6t6 -13v-569q0 -8 -6 -13.5t-13 -5.5h-153zM795 158
q0 35 18 66t42 49.5t41.5 28t23.5 11.5v2q-39 14 -73 51t-34 93q0 76 69.5 123t168.5 47q102 0 171.5 -47t69.5 -123q0 -56 -34 -94.5t-72 -49.5v-2q48 -11 87.5 -50t39.5 -105q0 -76 -72.5 -126t-189.5 -50q-114 0 -185 50t-71 126zM1004 430q0 -20 15 -33.5t34 -13.5
t33 13.5t14 33.5t-14 34.5t-33 14.5t-34 -14.5t-15 -34.5zM995 182q0 -24 18.5 -39.5t41.5 -15.5q22 0 39.5 14.5t17.5 40.5q0 24 -16 41t-41 17q-23 0 -41.5 -17.5t-18.5 -40.5z" />
    <glyph glyph-name="threeeighths" unicode="&#x215c;" horiz-adv-x="1415" 
d="M301 807q-105 0 -184 59q-24 18 -6 45l47 70q16 22 41 8q28 -22 73 -22q68 0 68 49q0 23 -17.5 37t-50.5 14h-67q-14 2 -20.5 8t-6.5 25v69q0 35 37 35h57q24 0 41 13.5t17 35.5q0 20 -16 32.5t-44 12.5q-32 0 -61 -22q-8 -7 -16.5 -6.5t-18.5 14.5l-53 72q-18 23 2 43
q7 6 20.5 15t60 24.5t97.5 15.5q103 0 164 -46t61 -124q0 -90 -104 -143q48 -19 85.5 -56.5t37.5 -101.5q0 -83 -71 -129.5t-173 -46.5zM254 55l704 1358q10 21 35 21h115q23 0 34.5 -18t0.5 -38l-707 -1358q-10 -20 -35 -20h-112q-23 0 -34 17.5t-1 37.5zM836 158
q0 35 18 66t42 49.5t41.5 28t23.5 11.5v2q-39 14 -73 51t-34 93q0 76 69.5 123t168.5 47q102 0 171.5 -47t69.5 -123q0 -56 -34 -94.5t-72 -49.5v-2q48 -11 87.5 -50t39.5 -105q0 -76 -72.5 -126t-189.5 -50q-114 0 -185 50t-71 126zM1044 430q0 -20 15.5 -33.5t34.5 -13.5
t33 13.5t14 33.5t-14 34.5t-33 14.5t-34.5 -14.5t-15.5 -34.5zM1036 182q0 -24 18.5 -39.5t41.5 -15.5q22 0 39.5 14.5t17.5 40.5q0 24 -16 41t-41 17q-23 0 -41.5 -17.5t-18.5 -40.5z" />
    <glyph glyph-name="fiveeighths" unicode="&#x215d;" horiz-adv-x="1415" 
d="M254 55l704 1358q10 21 35 21h115q23 0 34.5 -18t0.5 -38l-707 -1358q-10 -20 -35 -20h-112q-23 0 -34 17.5t-1 37.5zM285 807q-68 0 -120.5 25t-76.5 53q-13 13 -2 30l61 80q18 26 35 9q39 -37 105 -37q27 0 49 15.5t22 41.5q0 27 -21.5 43t-55.5 16h-148
q-14 0 -23.5 10t-9.5 21v301q0 8 6 13.5t15 5.5h330q9 0 14.5 -5.5t5.5 -13.5v-108q0 -8 -5.5 -13.5t-14.5 -5.5h-197v-59h59q110 0 172 -53t62 -150q0 -98 -71.5 -158.5t-190.5 -60.5zM836 158q0 35 18 66t42 49.5t41.5 28t23.5 11.5v2q-39 14 -73 51t-34 93q0 76 69.5 123
t168.5 47q102 0 171.5 -47t69.5 -123q0 -56 -34 -94.5t-72 -49.5v-2q48 -11 87.5 -50t39.5 -105q0 -76 -72.5 -126t-189.5 -50q-114 0 -185 50t-71 126zM1044 430q0 -20 15.5 -33.5t34.5 -13.5t33 13.5t14 33.5t-14 34.5t-33 14.5t-34.5 -14.5t-15.5 -34.5zM1036 182
q0 -24 18.5 -39.5t41.5 -15.5q22 0 39.5 14.5t17.5 40.5q0 24 -16 41t-41 17q-23 0 -41.5 -17.5t-18.5 -40.5z" />
    <glyph glyph-name="seveneighths" unicode="&#x215e;" horiz-adv-x="1415" 
d="M254 55l704 1358q10 21 35 21h115q23 0 34.5 -18t0.5 -38l-707 -1358q-10 -20 -35 -20h-112q-23 0 -34 17.5t-1 37.5zM180 827q-26 0 -26 19v10l221 426h-189q-8 0 -14 5t-6 11v117q0 7 6 13t14 6h406q8 0 14 -6t6 -13v-33l-260 -536q-11 -19 -33 -19h-139zM836 158
q0 35 18 66t42 49.5t41.5 28t23.5 11.5v2q-39 14 -73 51t-34 93q0 76 69.5 123t168.5 47q102 0 171.5 -47t69.5 -123q0 -56 -34 -94.5t-72 -49.5v-2q48 -11 87.5 -50t39.5 -105q0 -76 -72.5 -126t-189.5 -50q-114 0 -185 50t-71 126zM1044 430q0 -20 15.5 -33.5t34.5 -13.5
t33 13.5t14 33.5t-14 34.5t-33 14.5t-34.5 -14.5t-15.5 -34.5zM1036 182q0 -24 18.5 -39.5t41.5 -15.5q22 0 39.5 14.5t17.5 40.5q0 24 -16 41t-41 17q-23 0 -41.5 -17.5t-18.5 -40.5z" />
    <glyph glyph-name="partialdiff" unicode="&#x2202;" horiz-adv-x="1167" 
d="M102 449q0 88 24 162t64 125.5t93 87.5t110.5 52.5t116.5 16.5q41 0 98 -12t97 -29q-44 217 -412 336q-53 15 -39 59l59 158q17 48 64 33q44 -14 94 -35.5t119 -62t132 -90.5t127 -123.5t110.5 -157t76 -196t29.5 -236.5q0 -161 -56.5 -286t-169.5 -198t-268 -73
q-192 0 -330.5 138t-138.5 331zM379 459q0 -80 57.5 -138.5t138.5 -58.5t139 58.5t58 138.5q0 82 -57.5 140t-139.5 58t-139 -58t-57 -140z" />
    <glyph glyph-name="Delta" unicode="&#x2206;" horiz-adv-x="1454" 
d="M59 92l625 1340q11 22 35 22h20q24 0 35 -22l623 -1344q16 -34 4.5 -61t-45.5 -27h-1237q-44 0 -61.5 21t1.5 71zM485 295l488 2l-248 532h-2z" />
    <glyph glyph-name="product" unicode="&#x220f;" horiz-adv-x="1429" 
d="M100 39v1356q0 15 12 27t27 12h1151q15 0 27 -12t12 -27v-1356q0 -15 -12 -27t-27 -12h-243q-17 0 -28 11.5t-11 27.5v1094h-586v-1094q0 -16 -11 -27.5t-28 -11.5h-244q-15 0 -27 12t-12 27z" />
    <glyph glyph-name="summation" unicode="&#x2211;" horiz-adv-x="1130" 
d="M102 39v100l543 584l-543 588v84q0 16 11 27.5t28 11.5h848q17 0 28 -11.5t11 -27.5v-224q0 -15 -11 -26.5t-28 -11.5h-377l277 -254q39 -39 39 -84v-142q0 -36 -39 -75l-277 -277h377q17 0 28 -11.5t11 -27.5v-223q0 -16 -11 -27.5t-28 -11.5h-848q-17 0 -28 11.5
t-11 27.5z" />
    <glyph glyph-name="minus" unicode="&#x2212;" horiz-adv-x="1103" 
d="M141 600q-15 0 -27 12t-12 27v143q0 15 12 27t27 12h822q15 0 25.5 -12t10.5 -27v-143q0 -15 -10.5 -27t-25.5 -12h-822z" />
    <glyph glyph-name="uni2215" unicode="&#x2215;" horiz-adv-x="212" 
d="M-152 20q-10 -20 -34 -20h-113q-23 0 -34 17.5t-1 37.5l705 1358q11 21 35 21h114q23 0 34.5 -18t0.5 -38z" />
    <glyph glyph-name="uni2219" unicode="&#x2219;" horiz-adv-x="831" 
d="M412 305q-88 0 -151.5 63.5t-63.5 151.5q0 92 63.5 157.5t151.5 65.5q92 0 157.5 -65.5t65.5 -157.5q0 -88 -65.5 -151.5t-157.5 -63.5z" />
    <glyph glyph-name="radical" unicode="&#x221a;" horiz-adv-x="1425" 
d="M496 2l-357 764q-9 20 1.5 36.5t33.5 16.5h232q25 0 34 -22l97 -217h12l379 831q3 8 13.5 15.5t21.5 7.5h419q17 0 28 -11t11 -28v-183q0 -15 -11 -26.5t-28 -11.5h-249l-547 -1172q-4 -9 -15.5 -15.5t-19.5 -6.5h-21q-8 0 -19 6.5t-15 15.5z" />
    <glyph glyph-name="infinity" unicode="&#x221e;" horiz-adv-x="1200" 
d="M389 319q-119 0 -203 84.5t-84 202.5q0 120 84 203.5t203 83.5q114 0 209 -102q98 102 211 102q120 0 204.5 -83.5t84.5 -203.5q0 -119 -84.5 -203t-204.5 -84q-115 0 -211 103q-41 -46 -95.5 -74.5t-113.5 -28.5zM721 606q0 -32 23 -55t55 -23q34 0 57 23t23 55
q0 34 -23 57t-57 23q-32 0 -55 -23t-23 -57zM399 528q34 0 57 23t23 55q0 34 -23 57t-57 23q-32 0 -54.5 -23t-22.5 -57q0 -32 22.5 -55t54.5 -23z" />
    <glyph glyph-name="integral" unicode="&#x222b;" horiz-adv-x="804" 
d="M227 -188v1198q0 208 120 326t319 118q132 0 227 -78q10 -10 12.5 -24t-4.5 -27l-98 -162q-7 -12 -21 -16t-26 2q-51 22 -86 22q-58 0 -93.5 -41t-35.5 -122v-1198q0 -206 -123.5 -325.5t-315.5 -119.5q-132 0 -227 78q-10 10 -12.5 24t4.5 27l98 162q7 12 21 16t26 -2
q51 -22 86 -22q57 0 93 41.5t36 122.5z" />
    <glyph glyph-name="approxequal" unicode="&#x2248;" horiz-adv-x="976" 
d="M190 633l-96 84q-16 25 -2 39q5 7 13 18.5t35.5 40.5t56.5 51.5t72 41t85 18.5q14 0 27 -2t26.5 -6.5t22 -8t22.5 -12.5t19.5 -12.5t21 -14.5t19.5 -14q5 -3 26.5 -17.5t31.5 -19.5t28 -11.5t35 -6.5q47 0 110 90q23 26 50 2l90 -82q7 -8 8 -19.5t-6 -21.5
q-4 -7 -12.5 -18t-35 -40t-55 -51.5t-70.5 -40.5t-83 -18q-29 0 -56.5 9t-39 15.5t-42.5 29.5t-36 26q-4 3 -18.5 12t-21 12.5t-18 9t-22 7.5t-21.5 2q-30 0 -61.5 -27.5t-54.5 -60.5q-9 -13 -24 -14t-24 10zM190 231l-96 84q-16 25 -2 39q5 7 13 18.5t35.5 40.5t56.5 51.5
t72 41t85 18.5q14 0 27 -1.5t27 -7t21.5 -8t23 -12t19 -11.5t21.5 -15t19 -14q6 -4 26.5 -17.5t31 -19.5t28.5 -12.5t35 -6.5q47 0 110 90q23 26 50 3l90 -82q7 -8 8 -19.5t-6 -21.5q-4 -7 -12.5 -18t-35 -40t-55 -51.5t-70.5 -40.5t-83 -18q-29 0 -56.5 9t-39 15.5
t-42.5 29.5t-36 26q-4 3 -18.5 12t-21 12.5t-18 9t-22 7.5t-21.5 2q-30 0 -61.5 -27.5t-54.5 -60.5q-9 -13 -24 -14.5t-24 9.5z" />
    <glyph glyph-name="notequal" unicode="&#x2260;" horiz-adv-x="976" 
d="M254 98q-14 6 -20.5 21t-0.5 28l46 99h-138q-17 0 -28 11.5t-11 27.5v145q0 16 11 27.5t28 11.5h242l96 209h-338q-17 0 -28 11.5t-11 27.5v143q0 16 11 27.5t28 11.5h441l71 152q6 14 22.5 19.5t29.5 -1.5l30 -16q15 -5 20.5 -19.5t-1.5 -29.5l-49 -105h131
q17 0 27.5 -11.5t10.5 -27.5v-143q0 -16 -10.5 -27.5t-27.5 -11.5h-234l-96 -209h330q17 0 27.5 -11.5t10.5 -27.5v-145q0 -16 -10.5 -27.5t-27.5 -11.5h-433l-67 -148q-6 -13 -22 -17.5t-29 1.5z" />
    <glyph glyph-name="lessequal" unicode="&#x2264;" horiz-adv-x="937" 
d="M53 784q-20 12 -20 35v31q0 23 20 35l772 372q22 11 40 1.5t18 -33.5v-178q0 -21 -17 -29l-426 -180l426 -172q17 -8 17 -29v-178q0 -24 -19 -34.5t-39 1.5zM80 80q-15 0 -27 12t-12 27v143q0 15 12 27t27 12h766q15 0 26 -12t11 -27v-143q0 -15 -11 -27t-26 -12h-766z
" />
    <glyph glyph-name="greaterequal" unicode="&#x2265;" horiz-adv-x="937" 
d="M90 426q-20 -12 -38.5 -2t-18.5 35v178q0 21 16 29l426 172l-426 180q-16 8 -16 29v178q0 24 17.5 33.5t39.5 -1.5l772 -372q21 -13 21 -35v-31q0 -22 -21 -35zM70 80q-15 0 -26 12t-11 27v143q0 15 11 27t26 12h766q15 0 26.5 -12t11.5 -27v-143q0 -15 -11.5 -27
t-26.5 -12h-766z" />
    <glyph glyph-name="lozenge" unicode="&#x25ca;" horiz-adv-x="1454" 
d="M176 643q-29 33 -26.5 83t38.5 93l494 613q11 22 35 22h20q24 0 35 -22l496 -613q75 -91 -2 -186l-494 -610q-12 -23 -35 -23h-20q-23 0 -35 23zM725 406h2l254 321l-254 322h-2l-254 -322z" />
    <glyph glyph-name="uniF8FF" unicode="&#xf8ff;" horiz-adv-x="1226" 
d="M102 61v1311q0 62 62 62h899q32 0 46.5 -15t14.5 -47v-1311q0 -32 -14.5 -46.5t-46.5 -14.5h-899q-32 0 -47 14.5t-15 46.5zM537 643q0 -10 8.5 -17.5t19.5 -7.5h74q31 0 31 27v53q0 23 16 44.5t40 39t51.5 40.5t51.5 46.5t40 59.5t16 78q0 99 -73 163t-183 64
q-50 0 -96 -13t-75.5 -31.5t-52.5 -36.5t-33 -31l-10 -13q-16 -24 0 -37l46 -45q17 -11 34 0q1 1 15 14.5t20.5 19t23.5 17.5t31.5 17.5t36.5 10.5t45 5q59 0 92 -31t33 -75q0 -35 -21 -65t-50.5 -53t-59 -47.5t-50.5 -59.5t-21 -77v-59zM502 319q0 -40 29 -69t69 -29
q41 0 70.5 29t29.5 69t-29.5 69.5t-70.5 29.5q-40 0 -69 -29.5t-29 -69.5z" />
    <glyph glyph-name="CR" horiz-adv-x="0" 
 />
    <glyph glyph-name="grave.cap" horiz-adv-x="618" 
d="M455 1561l-373 168q-33 21 -12 61l69 121q7 12 26.5 12.5t27.5 -6.5l348 -213q23 -18 12 -39l-43 -86q-20 -39 -55 -18z" />
    <glyph glyph-name="acute.cap" horiz-adv-x="618" 
d="M164 1561q-35 -21 -55 18l-43 86q-10 21 12 39l348 213q8 7 27 6.5t26 -12.5l70 -121q21 -40 -12 -61z" />
    <glyph glyph-name="circumflex.cap" horiz-adv-x="763" 
d="M178 1561q-28 -15 -45 8l-67 96q-13 19 12 39l276 213q23 17 49 0l283 -213q23 -18 12 -39l-69 -94q-7 -10 -20 -13t-23 3l-203 118z" />
    <glyph glyph-name="caron.cap" horiz-adv-x="763" 
d="M358 1561l-282 213q-23 18 -13 38l70 95q7 10 20 13t23 -3l203 -119l205 119q28 15 45 -8l67 -97q13 -18 -12 -38l-276 -213q-24 -18 -50 0z" />
    <glyph glyph-name="caron.alt" horiz-adv-x="763" 
d="M358 1454q32 0 62.5 -12.5t59.5 -38.5t47 -74.5t18 -111.5q0 -51 -10 -98t-30 -85t-37 -65.5t-45 -55t-37.5 -36.5t-31.5 -27q-25 -18 -45 4l-30 31q-10 13 -9 25t11 20q11 8 24 18.5t36 35t40 50.5t30.5 64.5t14.5 77.5q-35 -15 -82 -15q-60 0 -103.5 42.5t-43.5 103.5
t46 104t115 43z" />
    <glyph glyph-name="tilde.cap" horiz-adv-x="778" 
d="M150 1608l-72 57q-10 7 -13.5 22t1.5 25q10 19 28 43t46.5 55.5t67 52.5t77.5 21q41 0 79.5 -24t73.5 -48t68 -24q40 0 78 63q8 13 21.5 15t29.5 -11l70 -53q27 -20 2 -59q-12 -21 -26.5 -41t-41.5 -50.5t-63 -49.5t-74 -19q-45 0 -86.5 24.5t-76.5 49t-63 24.5
q-17 0 -31.5 -11.5t-31 -34.5t-18.5 -25q-19 -19 -45 -2z" />
    <glyph glyph-name="dieresis.cap" horiz-adv-x="970" 
d="M756 1573q-60 0 -102 42.5t-42 102.5t42 102t102 42t102.5 -42t42.5 -102t-42.5 -102.5t-102.5 -42.5zM213 1573q-60 0 -101.5 42.5t-41.5 102.5t41.5 102t101.5 42t102.5 -42t42.5 -102t-42.5 -102.5t-102.5 -42.5z" />
    <glyph glyph-name="macron.cap" horiz-adv-x="847" 
d="M162 1640q-17 0 -28 11t-11 26v84q0 17 11 28t28 11h524q17 0 28 -11t11 -28v-84q0 -15 -11 -26t-28 -11h-524z" />
    <glyph glyph-name="breve.cap" horiz-adv-x="708" 
d="M354 1563q-113 0 -194.5 70t-96.5 175q-3 19 8 32t31 13h93q11 0 21 -7.5t13 -16.5q14 -43 48 -70.5t77 -27.5q38 0 72.5 29.5t48.5 68.5q3 10 13.5 17t21.5 7h96q19 0 30 -13t9 -32q-17 -106 -98.5 -175.5t-192.5 -69.5z" />
    <glyph glyph-name="ring.cap" horiz-adv-x="593" 
d="M297 1540q-98 0 -167 69t-69 167t69 166.5t167 68.5q97 0 166 -68.5t69 -166.5t-69 -167t-166 -69zM297 1686q35 0 61.5 27.5t26.5 62.5t-26.5 61.5t-61.5 26.5t-62.5 -26.5t-27.5 -61.5t27.5 -62.5t62.5 -27.5z" />
    <glyph glyph-name="hungarumlaut.cap" horiz-adv-x="802" 
d="M442 1573q-16 0 -29.5 12.5t-9.5 26.5l62 289q11 38 39 38h192q28 0 39 -16t-2 -35l-160 -284q-22 -31 -36 -31h-95zM102 1573q-16 0 -29.5 12.5t-9.5 26.5l62 289q11 38 39 38h192q28 0 38 -15.5t-1 -35.5l-160 -284q-15 -31 -36 -31h-95z" />
    <glyph glyph-name="dotaccent.cap" horiz-adv-x="448" 
d="M223 1585q-67 0 -114.5 47.5t-47.5 114.5q0 68 47.5 116t114.5 48t115.5 -48.5t48.5 -115.5t-48 -114.5t-116 -47.5z" />
    <glyph glyph-name="cedilla.cap" horiz-adv-x="505" 
d="M104 0h150v-106q92 -12 140 -68t48 -141q0 -90 -63.5 -153.5t-153.5 -63.5q-45 0 -86.5 19.5t-68.5 51.5q-26 29 8 60l47 41q9 9 22 6.5t21 -11.5q13 -18 49 -18q24 0 43 20.5t19 45.5q0 79 -140 86q-35 5 -35 36v195z" />
    <glyph glyph-name="ogonek.cap" horiz-adv-x="565" 
d="M213 31h145q-5 -4 -13.5 -11.5t-30 -32t-38 -49.5t-30 -61.5t-13.5 -71.5q0 -60 36.5 -98.5t107.5 -38.5q16 0 30.5 2t31 6t22.5 5q20 3 32.5 -8.5t12.5 -30.5v-68q0 -13 -9.5 -24.5t-21.5 -14.5q-72 -16 -129 -16q-124 0 -203.5 59t-79.5 174q0 48 15.5 94.5t37.5 78.5
t44 57t38 37z" />
    <glyph glyph-name="commaaccent" horiz-adv-x="598" 
d="M307 -184q31 0 62.5 -12.5t60 -39t46.5 -75t18 -111.5q0 -39 -5.5 -75.5t-18 -68t-23.5 -56t-31.5 -50t-31 -39.5t-32.5 -34t-26.5 -24t-22.5 -19q-25 -18 -45 4l-31 30q-10 13 -9 25t11 20q15 11 33 27t46.5 48t47 77.5t19.5 93.5q-35 -14 -82 -14q-61 0 -104.5 42
t-43.5 103t46.5 104.5t115.5 43.5z" />
    <glyph glyph-name="commaaccent.alt" horiz-adv-x="598" 
d="M307 -184q31 0 62.5 -12.5t60 -39t46.5 -75t18 -111.5q0 -39 -5.5 -75.5t-18 -68t-23.5 -56t-31.5 -50t-31 -39.5t-32.5 -34t-26.5 -24t-22.5 -19q-25 -18 -45 4l-31 30q-10 13 -9 25t11 20q15 11 33 27t46.5 48t47 77.5t19.5 93.5q-35 -14 -82 -14q-61 0 -104.5 42
t-43.5 103t46.5 104.5t115.5 43.5z" />
    <glyph glyph-name="commaaccent.cap" horiz-adv-x="598" 
d="M307 -184q31 0 62.5 -12.5t60 -39t46.5 -75t18 -111.5q0 -39 -5.5 -75.5t-18 -68t-23.5 -56t-31.5 -50t-31 -39.5t-32.5 -34t-26.5 -24t-22.5 -19q-25 -18 -45 4l-31 30q-10 13 -9 25t11 20q15 11 33 27t46.5 48t47 77.5t19.5 93.5q-35 -14 -82 -14q-61 0 -104.5 42
t-43.5 103t46.5 104.5t115.5 43.5z" />
    </font>
</defs>
</svg>
